<?xml version="1.0" standalone="no"?>
<!DOCTYPE svg PUBLIC "-//W3C//DTD SVG 1.1//EN" "http://www.w3.org/Graphics/SVG/1.1/DTD/svg11.dtd">
<svg xmlns="http://www.w3.org/2000/svg">
<defs >
<font id="PlayfairDisplay" horiz-adv-x="579" ><font-face
    font-family="Playfair Display ExtraBold"
    units-per-em="1000"
    panose-1="0 0 0 0 0 0 0 0 0 0"
    ascent="1082"
    descent="-251"
    alphabetic="0" />
<glyph unicode=" " glyph-name="space" horiz-adv-x="228" />
<glyph unicode="!" glyph-name="exclam" horiz-adv-x="297" d="M149 782Q185 782 214 752T243 670Q243 625 231 573T203 461T174 334T158 196V196H140Q136 268 123 334T94 460T67 573T55 670Q55 722 81 752T149 782ZM149 149Q191 149 216 128T241 68Q241 28 216
7T149 -14Q105 -14 81 7T57 68Q57 107 81 128T149 149Z" />
<glyph unicode="&quot;" glyph-name="quotedbl" horiz-adv-x="393" d="M108 730Q139 730 159 711T180 657Q180 628 171 603T146 548T115 468H101Q86 514 71 545T46 601T36 656Q36 690 57 710T108 730ZM286 730Q317 730 337 711T358 657Q358 628 349 603T324 548T293
468H279Q264 514 249 545T224 601T214 656Q214 690 235 710T286 730Z" />
<glyph unicode="#" glyph-name="numbersign" horiz-adv-x="615" d="M460 602L363 101H343L440 602H460ZM542 267L538 247H37L41 267H542ZM273 602L176 101H156L253 602H273ZM578 454L575 434H74L77 454H578Z" />
<glyph unicode="$" glyph-name="dollar" horiz-adv-x="591" d="M289 721Q351 721 385 709T443 682Q455 675 462 672T477 668Q487 668 491 679T499 712H522Q521 692 520 665T518 594T517 476H494Q486 543 466 593T409 670T308 698Q246 698 218 674T189 612Q189
593 194 576T219 537T280 484T391 408Q438 379 475 348T534 277T556 182Q556 116 521 73T426 8T296 -14Q231 -14 195 -1T139 22Q125 29 114 33T93 37Q83 37 79 26T71 -7H48Q50 18 50 51T51 138T52 273H75Q82 198 97 147T137 66T201 23T294 9Q345 9 375 21T418 54T431
102Q431 120 425 136T400 173T340 224T231 303Q184 334 143 366T78 439T53 536Q53 600 86 641T174 701T289 721ZM264 840V-132H244V840H264ZM366 840V-132H346V840H366Z" />
<glyph unicode="%" glyph-name="percent" horiz-adv-x="724" d="M200 761Q274 761 320 718T367 598Q367 548 345 510T286 451T200 430Q126 430 80 473T33 593Q33 643 55 681T114 740T200 761ZM522 299Q492 299 477 261T461 150Q461 77 478 41T526 4Q557 4 571
42T586 152Q586 226 569 262T522 299ZM524 317Q598 317 644 274T691 154Q691 104 669 66T610 7T524 -14Q450 -14 404 29T357 149Q357 199 379 237T438 296T524 317ZM198 743Q168 743 153 705T137 594Q137 521 154 485T202 448Q233 448 247 486T262 596Q262 670
245 706T198 743ZM649 824L668 811L83 -55L64 -42L649 824Z" />
<glyph unicode="&amp;" glyph-name="ampersand" horiz-adv-x="918" d="M338 712Q377 712 400 708T442 695Q458 689 474 678T500 650T510 610Q510 578 486 559T426 539Q394 539 371 555T347 605Q347 632 365 653T415 682Q406 688 389 691T352 695Q300 695 262 662T224
560Q224 539 231 514T259 462Q276 467 289 468T313 470Q331 470 340 463T349 443Q349 433 341 427T321 421Q305 421 288 431T260 448Q217 422 190 385T162 287Q162 222 197 181T300 120T461 100Q510 100 559 110T650 142T716 196T741 271Q741 286 738 308T720 354T671
394L676 402Q723 388 750 342T778 233Q778 160 733 105T606 18T420 -14Q331 -14 261 3T140 52T64 131T37 235Q37 291 61 331T120 396T190 436T246 456Q216 468 189 484T146 525T129 581Q129 616 147 641T197 681T265 704T338 712ZM741 722Q814 722 859 685T904
579Q904 522 875 484T793 424T665 388Q653 385 638 381T608 374T578 366T551 359Q460 341 412 320T364 259Q364 235 381 217T424 188T478 178Q484 178 490 179T502 181T512 184Q484 194 472 213T460 254Q460 289 485 307T548 325Q588 325 610 305T633 252Q633 220
614 200T562 170T484 160Q441 160 405 175T348 219T327 292Q327 350 358 389T445 452T579 489Q597 492 616 496T657 506T697 516Q776 531 822 553T869 616Q869 642 853 662T811 692T757 703Q749 703 742 702T729 700Q757 689 770 670T784 630Q784 597 760 579T697
561Q658 561 635 580T611 633Q611 660 625 680T669 711T741 722Z" />
<glyph unicode="&apos;" glyph-name="quotesingle" horiz-adv-x="215" d="M108 730Q139 730 159 711T180 657Q180 628 171 603T146 548T115 468H101Q86 514 71 545T46 601T36 656Q36 690 57 710T108 730Z" />
<glyph unicode="(" glyph-name="parenleft" horiz-adv-x="326" d="M292 806L307 794Q246 688 217 572T188 312Q188 168 217 54T307 -170L292 -182Q167 -96 100 24T32 312Q32 479 99 599T292 806Z" />
<glyph unicode=")" glyph-name="parenright" horiz-adv-x="326" d="M34 806Q159 720 226 600T294 312Q294 145 227 25T34 -182L19 -170Q81 -61 109 53T138 312Q138 456 109 572T19 794L34 806Z" />
<glyph unicode="*" glyph-name="asterisk" horiz-adv-x="477" d="M348 643Q374 658 393 650T421 624Q431 606 429 586T401 551Q376 537 337 533T240 517L238 520Q275 563 299 596T348 643ZM240 520Q295 510 336 505T401 486Q427 471 429 451T422 413Q412 395 394
387T349 394Q324 408 301 440T239 517L240 520ZM241 518Q259 465 275 428T292 361Q292 331 275 319T239 307Q219 307 203 319T187 361Q187 390 202 426T238 517L241 518ZM238 518L240 516Q203 473 179 440T130 393Q104 378 85 386T57 412Q46 430 48 449T77 485Q102
499 141 503T238 518ZM129 642Q154 628 177 597T239 519L238 516Q183 526 142 531T77 550Q51 565 49 585T56 623Q66 641 84 649T129 642ZM239 729Q258 729 274 717T291 675Q291 647 275 611T240 518H237Q218 571 202 609T186 675Q186 705 202 717T239 729Z" />
<glyph unicode="+" glyph-name="plus" horiz-adv-x="569" d="M303 606V370H535V340H303V105H267V340H34V370H267V606H303Z" />
<glyph unicode="," glyph-name="comma" horiz-adv-x="275" d="M133 149Q158 149 177 140T208 113Q219 99 225 75T232 24Q232 -26 206 -69T126 -138L117 -120Q144 -108 165 -85T192 -35Q200 -10 194 13Q170 -14 128 -14Q91 -14 68 7T45 68Q45 104 69 126T133 149Z" />
<glyph unicode="-" glyph-name="hyphen" horiz-adv-x="475" d="M418 316V226H57V316H418Z" />
<glyph unicode="." glyph-name="period" horiz-adv-x="276" d="M138 149Q181 149 205 128T230 68Q230 28 206 7T138 -14Q94 -14 70 7T46 68Q46 107 70 128T138 149Z" />
<glyph unicode="/" glyph-name="slash" horiz-adv-x="367" d="M337 722L65 -14H32L304 722H337Z" />
<glyph unicode="0" glyph-name="zero" horiz-adv-x="660" d="M335 532Q418 532 481 500T581 408T617 268Q617 188 581 124T478 23T324 -14Q244 -14 180 19T79 111T42 252Q42 331 78 394T181 494T335 532ZM327 514Q276 514 244 446T211 255Q211 165 228 110T273
29T333 4Q384 4 416 73T448 265Q448 355 431 409T387 489T327 514Z" />
<glyph unicode="1" glyph-name="one" horiz-adv-x="388" d="M292 529V95Q292 52 306 37T356 21V0Q336 1 298 2T218 4Q165 4 116 3T40 0V21Q83 21 106 37T130 103V348Q130 396 122 419T94 449T38 456V478Q129 480 188 491T292 529Z" />
<glyph unicode="2" glyph-name="two" horiz-adv-x="538" d="M285 532Q365 532 411 499T458 405Q458 366 438 335T386 277T316 227T244 180T184 133H405Q446 133 457 142T472 176H494Q494 105 495 65T498 -5Q489 -3 465 -2T410 -1T349 0H39V20Q67 48 107 83T187
163T254 258T281 368Q281 420 258 444T190 468Q147 468 115 450T56 396L39 407Q61 442 93 470T172 515T285 532Z" />
<glyph unicode="3" glyph-name="three" horiz-adv-x="500" d="M253 532Q304 532 345 518T409 479T433 417Q433 379 407 346T332 288T212 252Q287 255 345 239T436 187T469 99Q469 53 443 14T373 -55T271 -107T152 -140T27 -151V-131Q72 -129 120 -114T209 -70T276
1T302 98Q302 157 274 194T197 236Q182 230 170 225T144 220Q135 220 130 223T125 235Q125 247 135 252T159 257Q167 257 175 256T194 254Q237 284 254 317T271 385Q271 429 247 450T181 472Q143 472 109 454T51 398L34 407Q53 440 80 468T150 514T253 532Z" />
<glyph unicode="4" glyph-name="four" horiz-adv-x="539" d="M394 532L398 506L76 105L94 145H417Q458 145 469 154T484 188H506Q506 124 507 89T510 25Q503 27 483 27T435 29T380 30T329 30H5V51L394 532ZM410 532V-141H282V379L394 532H410Z" />
<glyph unicode="5" glyph-name="five" horiz-adv-x="474" d="M402 552Q402 483 403 445T406 377Q398 379 376 380T324 381T267 382H97L79 218Q105 236 145 248T242 261Q311 261 355 240T421 183T443 102Q443 44 407 -2T309 -81T174 -131T25 -148V-130Q72 -130
117 -115T198 -71T255 0T276 97Q276 159 248 192T165 226Q135 226 114 217T72 193L57 203L93 521Q104 519 118 518T147 517H329Q355 517 366 525T380 552H402Z" />
<glyph unicode="6" glyph-name="six" horiz-adv-x="576" d="M464 723L468 703Q431 691 395 674T325 627T267 550T228 433T214 263Q214 166 227 110T260 30T300 6Q321 6 339 27T368 94T380 216Q380 288 370 331T342 393T302 412Q287 412 268 402T232 370T208 310L198
317Q205 363 227 390T280 429T347 441Q403 441 448 415T521 341T549 225Q549 148 513 95T418 14T289 -14Q175 -14 110 60T45 271Q45 361 72 431T144 552T244 639T356 694T464 723Z" />
<glyph unicode="7" glyph-name="seven" horiz-adv-x="472" d="M22 522Q31 520 55 519T110 518T171 517H473V496Q454 453 425 402T365 291T316 162T296 14Q296 11 297 -5T300 -40T301 -67Q301 -97 281 -122T219 -148Q177 -148 157 -121T137 -50Q137 2 157 53T212
154T284 252T358 343T420 424L400 383H115Q74 383 63 374T48 340H26Q26 411 25 451T22 522Z" />
<glyph unicode="8" glyph-name="eight" horiz-adv-x="574" d="M294 722Q356 722 402 704T475 655T501 581Q501 530 462 493T350 422L342 436Q354 455 361 480T370 530T373 574Q373 636 350 670T287 704Q256 704 240 683T223 629Q223 588 246 551T304 478T380 409T455
338T514 261T537 174Q537 119 504 77T414 11T282 -14Q218 -14 163 5T74 63T40 158Q40 205 63 241T125 303T214 350L222 336Q196 304 186 262T176 177Q176 130 186 91T221 28T287 4Q334 4 357 32T380 104Q380 150 358 187T301 259T227 326T153 393T96 468T73 557Q73
614 104 650T186 704T294 722Z" />
<glyph unicode="9" glyph-name="nine" horiz-adv-x="567" d="M285 532Q399 532 464 459T530 251Q530 172 504 109T433 0T334 -78T224 -128T119 -153L115 -133Q160 -120 203 -98T282 -35T339 77T361 259Q361 355 348 410T315 488T274 512Q254 512 236 491T207 424T195
302Q195 231 205 188T233 125T272 106Q288 106 307 116T343 148T367 208L376 201Q371 156 349 129T294 89T227 77Q173 77 127 103T54 178T26 293Q26 371 62 424T156 504T285 532Z" />
<glyph unicode=":" glyph-name="colon" horiz-adv-x="298" d="M149 532Q192 532 216 511T241 451Q241 411 217 390T149 369Q105 369 81 390T57 451Q57 490 81 511T149 532ZM149 149Q192 149 216 128T241 68Q241 28 217 7T149 -14Q105 -14 81 7T57 68Q57 107 81
128T149 149Z" />
<glyph unicode=";" glyph-name="semicolon" horiz-adv-x="300" d="M145 149Q170 149 189 140T220 113Q231 99 237 75T244 24Q244 -26 218 -69T138 -138L129 -120Q156 -108 177 -85T204 -35Q212 -10 206 13Q182 -14 140 -14Q103 -14 80 7T57 68Q57 104 81 126T145
149ZM150 532Q193 532 217 511T242 451Q242 411 218 390T150 369Q106 369 82 390T58 451Q58 490 82 511T150 532Z" />
<glyph unicode="&lt;" glyph-name="less" horiz-adv-x="600" d="M515 582L532 546L123 355L532 164L515 128L28 355L515 582Z" />
<glyph unicode="=" glyph-name="equal" horiz-adv-x="631" d="M566 440V410H65V440H566ZM566 300V270H65V300H566Z" />
<glyph unicode="&gt;" glyph-name="greater" horiz-adv-x="600" d="M85 582L572 355L85 128L68 164L477 355L68 546L85 582Z" />
<glyph unicode="?" glyph-name="question" horiz-adv-x="524" d="M244 782Q319 782 375 761T462 699T494 602Q494 546 461 502T368 428T229 380V234H209V389Q262 414 288 444T324 509T333 583Q333 678 301 720T216 762Q188 762 166 756T133 740Q163 729 178 710T194
659Q194 626 170 604T106 581Q72 581 51 603T30 656Q30 689 47 710T90 747Q115 761 154 771T244 782ZM221 149Q263 149 288 128T313 68Q313 28 288 7T221 -14Q177 -14 153 7T129 68Q129 107 153 128T221 149Z" />
<glyph unicode="@" glyph-name="at" horiz-adv-x="886" d="M534 668Q624 668 696 640T811 552T854 393Q854 309 827 241T754 125T657 52T556 26Q518 26 500 40T477 75T477 121T488 167L548 464Q583 464 619 467T687 478L610 119Q605 99 605 84T610 62T633 63Q665
75 699 102T764 171T814 269T834 394Q834 487 793 543T684 624T535 650Q461 650 391 624T262 551T158 440T88 301T63 145Q63 42 103 -21T213 -114T371 -143Q425 -143 476 -131T577 -89L584 -102Q547 -128 492 -144T370 -161Q275 -161 202 -129T86 -30T43 143Q43
224 67 300T137 443T243 560T378 639T534 668ZM460 478Q493 478 512 462T538 420T540 369L529 361Q532 376 530 394T518 425T491 439Q469 439 447 415T405 351T375 261T363 159Q363 114 372 97T400 80Q431 80 456 119T503 231L508 215Q489 143 464 102T407 43T340
26Q306 26 279 40T236 83T220 159Q220 211 239 267T291 370T368 448T460 478Z" />
<glyph unicode="A" glyph-name="A" horiz-adv-x="680" d="M383 709L625 84Q640 49 656 35T686 20V0Q654 2 610 2T519 3Q471 3 428 3T359 0V20Q410 22 424 37T418 104L252 558L272 588L126 211Q103 151 98 114T103 57T134 29T186 20V0Q151 2 122 2T58 3Q38 3 18
3T-18 0V20Q4 24 26 48T71 131L296 709Q316 707 339 707T383 709ZM435 288V268H137L147 288H435Z" />
<glyph unicode="B" glyph-name="B" horiz-adv-x="688" d="M31 708Q58 707 103 706T193 705Q242 705 287 706T352 707Q482 707 546 663T611 550Q611 515 588 479T518 414T396 374V372Q494 366 552 339T637 273T663 194Q663 129 629 86T530 22T375 0Q351 0 305 1T195
3Q148 3 103 3T31 0V20Q62 22 77 28T98 52T104 106V602Q104 639 99 656T78 680T31 688V708ZM343 688Q307 688 296 671T285 602V106Q285 71 290 53T310 29T352 23Q416 23 445 68T475 198Q475 275 438 317T313 359H234Q234 359 234 367T234 376H320Q363 376 386 398T418
458T427 539Q427 613 408 650T343 688Z" />
<glyph unicode="C" glyph-name="C" horiz-adv-x="711" d="M405 722Q471 722 513 703T589 657Q609 642 619 653T634 708H657Q655 669 654 612T653 462H630Q626 509 618 544T593 606T547 654Q524 673 496 683T437 694Q382 694 345 664T285 584T253 474T243 352Q243
290 253 230T285 120T346 42T439 12Q468 12 496 22T548 51Q592 81 607 129T630 256H653Q653 159 654 100T657 0H634Q630 43 621 54T589 51Q552 25 511 6T404 -14Q295 -14 213 29T85 153T39 348Q39 460 86 544T215 675T405 722Z" />
<glyph unicode="D" glyph-name="D" horiz-adv-x="793" d="M352 708Q556 708 654 619T753 362Q753 253 705 172T564 45T343 0Q327 0 301 1T247 2T195 3Q148 3 103 3T31 0V20Q62 22 77 28T98 52T104 106V602Q104 639 99 656T78 680T31 688V708Q58 707 103 706T193
705Q229 706 275 707T352 708ZM359 690Q313 690 299 673T285 604V104Q285 52 299 35T360 18Q436 18 481 57T545 173T565 358Q565 470 544 543T478 653T359 690Z" />
<glyph unicode="E" glyph-name="E" horiz-adv-x="642" d="M578 708Q574 661 573 617T571 550Q571 530 572 511T574 480H551Q540 558 516 603T456 666T377 685H350Q323 685 309 681T290 662T285 618V90Q285 61 289 47T308 28T350 23H391Q430 23 465 43T529 113T571
248H594Q591 214 591 160Q591 136 592 92T598 0Q547 2 483 2T369 3Q343 3 303 3T216 3T121 2T31 0V20Q62 22 77 28T98 52T104 106V602Q104 639 99 656T78 680T31 688V708Q74 707 121 707T215 706T302 705T369 705Q415 705 473 705T578 708ZM427 366Q427 366 427
356T427 346H255Q255 346 255 356T255 366H427ZM456 498Q452 441 452 411T453 356Q453 331 454 301T459 214H436Q431 250 415 280T372 328T306 346V366Q335 366 357 378T394 411T420 454T433 498H456Z" />
<glyph unicode="F" glyph-name="F" horiz-adv-x="600" d="M578 708Q574 660 573 616T571 548Q571 526 572 507T574 474H551Q536 554 510 600T449 666T373 685H350Q323 685 309 681T290 662T285 618V114Q285 74 293 55T325 29T394 22V0Q361 1 309 2T200 3Q155 3
112 2T31 0V20Q62 22 77 28T98 52T104 106V602Q104 639 99 656T78 680T31 688V708Q74 707 121 707T215 706T302 705T369 705Q415 705 473 705T578 708ZM431 364Q431 364 431 354T431 344H255Q255 344 255 354T255 364H431ZM458 496Q454 439 454 409T455 354Q455
329 456 299T461 212H438Q432 248 416 278T374 326T307 344V364Q336 364 358 376T395 409T421 452T435 496H458Z" />
<glyph unicode="G" glyph-name="G" horiz-adv-x="745" d="M414 722Q483 722 527 703T606 657Q617 648 626 648Q645 648 651 708H674Q672 669 671 612T670 462H647Q640 528 624 574T563 654Q540 673 509 683T446 694Q390 694 352 664T289 584T255 474T244 352Q244
172 290 89T420 6Q440 6 455 10T480 22Q493 31 498 43T503 73V172Q503 219 495 242T466 274T402 284V304Q424 303 455 303T520 302T583 301Q628 301 665 302T727 304V284Q709 283 700 277T687 253T684 198V0H664Q663 17 656 37T633 57Q626 57 613 53T572 35Q535
15 493 1T406 -14Q285 -14 204 29T81 152T40 347Q40 460 88 544T220 675T414 722Z" />
<glyph unicode="H" glyph-name="H" horiz-adv-x="815" d="M457 0V20Q488 22 503 28T524 52T530 106V602Q530 639 525 656T504 680T457 688V708Q486 707 532 706T624 705Q673 705 715 706T784 708V688Q753 687 737 681T716 657T711 602V106Q711 70 716 52T737 28T784
20V0Q758 2 716 2T624 3Q578 3 532 3T457 0ZM31 0V20Q62 22 77 28T98 52T104 106V602Q104 639 99 656T78 680T31 688V708Q58 707 103 706T199 705Q243 705 286 706T358 708V688Q327 687 311 681T290 657T285 602V106Q285 70 290 52T311 28T358 20V0Q330 2 287 2T199
3Q148 3 103 3T31 0ZM210 346V366H605V346H210Z" />
<glyph unicode="I" glyph-name="I" horiz-adv-x="389" d="M358 708V688Q327 687 311 681T290 657T285 602V106Q285 70 290 52T311 28T358 20V0Q330 2 287 2T199 3Q148 3 103 3T31 0V20Q62 22 77 28T98 52T104 106V602Q104 639 99 656T78 680T31 688V708Q58 707
103 706T199 705Q243 705 286 706T358 708Z" />
<glyph unicode="J" glyph-name="J" horiz-adv-x="377" d="M-24 -188V-167Q14 -163 41 -144T84 -78T99 54V602Q99 639 94 656T72 680T26 688V708Q51 707 94 706T184 705Q232 705 277 706T353 708V688Q322 687 306 681T285 657T280 602V236Q280 195 280 148T277
55T263 -25Q242 -94 171 -141T-24 -188Z" />
<glyph unicode="K" glyph-name="K" horiz-adv-x="734" d="M714 708V689Q681 681 642 659T559 586L374 370L443 464L680 81Q694 59 708 45T747 20V0Q708 2 663 2T579 3Q557 3 525 3T444 0V20Q488 22 496 31T489 65L343 305Q331 326 322 336T303 350T279 356V376Q323
378 360 403T444 483L491 538Q531 584 535 617T519 669T458 689V708Q484 707 508 707T557 706T616 705Q647 705 671 706T714 708ZM358 708V688Q327 687 311 681T290 657T285 602V106Q285 70 290 52T311 28T358 20V0Q330 2 287 2T199 3Q148 3 103 3T31 0V20Q62 22
77 28T98 52T104 106V602Q104 639 99 656T78 680T31 688V708Q58 707 103 706T199 705Q243 705 286 706T358 708Z" />
<glyph unicode="L" glyph-name="L" horiz-adv-x="618" d="M366 708V688Q332 687 315 681T291 657T285 602V90Q285 61 289 47T306 28T342 23H383Q413 23 443 41T499 91T544 166T571 258H594Q591 223 591 168Q591 143 592 97T598 0Q547 2 483 2T369 3Q343 3 303
3T216 3T121 2T31 0V20Q62 22 77 28T98 52T104 106V602Q104 639 99 656T78 680T31 688V708Q58 707 103 706T199 705Q246 705 291 706T366 708Z" />
<glyph unicode="M" glyph-name="M" horiz-adv-x="946" d="M915 708V688Q885 687 869 681T848 657T842 602V106Q842 70 848 52T869 28T915 20V0Q886 2 841 2T748 3Q697 3 653 3T580 0V20Q614 22 631 28T655 52T661 106V644L670 645L420 0H404L128 643V180Q128 119
134 87T161 40T227 20V0Q208 2 177 2T117 3Q95 3 72 3T32 0V20Q64 26 79 39T100 82T105 164V602Q105 639 100 656T79 680T32 688V708Q48 707 71 706T117 705Q168 705 215 706T300 708L504 232L476 204L669 705Q688 705 708 705T748 705Q795 705 840 706T915 708Z"
/>
<glyph unicode="N" glyph-name="N" horiz-adv-x="727" d="M700 708V688Q670 683 654 669T633 626T627 544V-1Q614 1 599 1T567 -1L128 516V180Q128 119 134 87T161 40T227 20V0Q208 2 177 2T117 3Q95 3 72 3T32 0V20Q64 26 79 39T100 82T105 164V602Q105 639 100
656T79 680T32 688V708Q48 707 71 706T117 705Q142 705 165 706T207 708L604 254V528Q604 589 599 621T573 668T505 688V708Q525 707 556 706T615 705Q639 705 662 706T700 708Z" />
<glyph unicode="O" glyph-name="O" horiz-adv-x="810" d="M405 722Q515 722 597 679T724 556T770 360Q770 248 724 164T594 33T404 -14Q295 -14 213 29T85 153T39 348Q39 460 86 544T216 675T405 722ZM401 704Q348 704 309 659T249 535T227 352Q227 246 251 168T317
47T408 4Q461 4 500 49T561 173T582 356Q582 463 558 541T493 661T401 704Z" />
<glyph unicode="P" glyph-name="P" horiz-adv-x="659" d="M31 708Q58 707 103 706T193 705Q242 705 287 706T352 707Q498 707 569 652T641 510Q641 474 627 435T578 362T483 307T330 286H226V306H320Q375 306 403 333T442 404T453 499Q453 594 428 641T343 688Q306
688 296 671T285 602V114Q285 74 293 55T325 29T394 22V0Q361 1 309 2T200 3Q155 3 112 2T31 0V20Q62 22 77 28T98 52T104 106V602Q104 639 99 656T78 680T31 688V708Z" />
<glyph unicode="Q" glyph-name="Q" horiz-adv-x="810" d="M770 24L788 19Q781 -40 764 -84T717 -151Q695 -168 662 -178T590 -188Q534 -188 481 -172T373 -130T260 -82Q254 -80 247 -78T236 -75Q217 -85 195 -91T152 -98Q132 -98 119 -92T105 -70Q105 -41 160
-41Q195 -41 236 -57Q273 -47 300 -35T356 -11T426 3L427 -13Q395 -16 372 -24T326 -43T271 -62Q350 -66 411 -69T523 -72T618 -64Q677 -54 711 -35T770 24ZM405 722Q515 722 597 679T724 556T770 360Q770 248 724 164T594 33T404 -14Q295 -14 213 29T85 153T39
348Q39 460 86 544T216 675T405 722ZM401 704Q348 704 309 659T249 535T227 352Q227 246 251 168T317 47T408 4Q461 4 500 49T561 173T582 356Q582 463 558 541T493 661T401 704Z" />
<glyph unicode="R" glyph-name="R" horiz-adv-x="706" d="M31 708Q58 707 103 706T193 705Q242 705 287 706T352 707Q450 707 513 687T609 629T641 533Q641 497 627 463T578 399T483 353T330 336H234V356H320Q375 356 403 378T442 438T453 522Q453 601 428 644T343
688Q306 688 296 671T285 602V106Q285 70 290 52T311 28T358 20V0Q330 2 287 2T199 3Q148 3 103 3T31 0V20Q62 22 77 28T98 52T104 106V602Q104 639 99 656T78 680T31 688V708ZM230 353Q269 352 301 349T358 344T403 340Q502 334 550 303T612 209L633 105Q642 67
652 52T680 37Q691 37 699 41T715 55L729 42Q700 11 666 -1T587 -14Q528 -14 491 9T443 94L426 194Q420 235 411 267T385 317T340 336H232L230 353Z" />
<glyph unicode="S" glyph-name="S" horiz-adv-x="598" d="M293 721Q355 721 389 709T447 682Q459 675 466 672T481 668Q491 668 495 679T503 712H526Q525 692 524 665T522 594T521 476H498Q494 530 473 580T416 663T326 696Q280 696 250 671T220 598Q220 560 239
533T296 477T394 408Q441 377 478 346T537 276T560 182Q560 116 524 73T429 8T300 -14Q235 -14 197 -2T131 23Q109 37 97 37Q87 37 83 26T75 -7H52Q54 18 54 51T55 138T56 273H79Q83 205 101 146T158 51T261 14Q297 14 324 26T367 61T383 119Q383 161 364 192T312
250T235 306Q188 337 147 369T82 440T57 536Q57 600 90 641T177 701T293 721Z" />
<glyph unicode="T" glyph-name="T" horiz-adv-x="683" d="M659 708Q655 653 654 602T652 524Q652 502 653 483T655 450H632Q612 539 584 590T521 663T444 685H432V114Q432 73 440 53T472 27T541 20V0Q508 1 453 2T337 3Q278 3 226 2T142 0V20Q187 20 211 26T243
53T251 114V685H240Q198 685 163 664T100 591T51 450H28Q30 464 30 483T31 524Q31 551 30 602T24 708Q71 707 127 706T240 705T342 705Q388 705 444 705T557 706T659 708Z" />
<glyph unicode="U" glyph-name="U" horiz-adv-x="691" d="M676 708V688Q645 683 629 669T608 626T603 544V291Q603 227 595 173T562 79Q536 36 485 11T353 -14Q307 -14 258 -4T169 35Q136 61 119 96T95 178T89 288V602Q89 639 84 656T63 680T16 688V708Q43 707
88 706T182 705Q231 705 276 706T351 708V688Q317 687 300 681T276 657T270 602V209Q270 160 277 124T300 65T341 32T401 21Q470 21 509 53T564 145T580 280V528Q580 589 574 621T547 668T481 688V708Q500 707 531 706T591 705Q614 705 637 706T676 708Z" />
<glyph unicode="V" glyph-name="V" horiz-adv-x="680" d="M691 708V688Q669 678 643 649T596 559L393 -1Q383 0 372 0T349 1Q338 1 327 1T305 -1L47 624Q33 660 17 673T-14 688V708Q19 707 63 706T153 705Q202 705 244 706T313 708V688Q281 687 264 681T244 658T255
604L436 151L414 123L540 469Q569 550 570 597T549 666T487 688V708Q523 707 552 706T615 705Q636 705 656 706T691 708Z" />
<glyph unicode="W" glyph-name="W" horiz-adv-x="989" d="M996 708V688Q974 678 949 649T906 559L733 -1Q723 0 712 0T689 1Q679 1 668 1T646 -1L436 638Q427 666 414 676T383 688V708Q414 707 456 706T541 705Q586 705 626 706T691 708V688Q660 687 643 681T624
658T633 604L772 179L746 128L853 469Q879 551 878 598T855 666T791 688V708Q828 707 857 706T919 705Q940 705 960 706T996 708ZM278 708V688Q259 685 252 672T247 641T256 604L407 169L380 130L504 479L518 451L363 -1Q353 0 342 0T319 1Q308 1 297 1T276 -1L48
624Q35 660 18 673T-13 688V708Q19 707 64 706T150 705Q191 705 224 706T278 708Z" />
<glyph unicode="X" glyph-name="X" horiz-adv-x="710" d="M318 709V688Q274 688 261 680T262 652L666 71Q685 43 697 33T729 21V0Q706 1 663 2T575 4Q527 4 479 3T407 0V21Q451 21 464 28T464 55L62 638Q42 667 31 677T-1 688V709Q22 708 68 707T161 705Q206 705
250 706T318 709ZM311 353Q311 353 313 347T317 334T319 327L226 205Q185 152 179 111T194 47T262 20V0Q248 1 225 1T177 2T130 3T96 3Q66 3 42 3T2 0V20Q38 34 77 67T157 152L311 353ZM676 708V688Q642 677 608 646T545 579L382 371Q382 371 379 383T375 396L474
525Q513 572 521 607T511 664T452 688V708Q471 707 495 707T542 706T581 705Q611 705 635 706T676 708Z" />
<glyph unicode="Y" glyph-name="Y" horiz-adv-x="633" d="M626 709V689Q604 679 580 651T526 565L341 199H284L50 632Q33 665 18 676T-8 688V709Q21 706 52 705T120 703Q168 703 223 705T324 709V688Q299 688 279 685T250 673T251 643L406 346L367 295L461 483Q500
560 503 604T485 668T422 689V709Q458 708 487 707T550 706Q571 706 591 707T626 709ZM420 375V106Q420 70 425 52T446 28T493 20V0Q465 2 420 2T330 3Q281 3 237 3T166 0V20Q197 22 212 28T233 52T239 106V311L337 249L420 375Z" />
<glyph unicode="Z" glyph-name="Z" horiz-adv-x="604" d="M559 708V688L237 23H309Q340 23 375 34T445 72T504 141T536 250H559Q556 215 556 160Q556 136 557 92T563 0Q526 2 482 2T395 3T314 3Q248 3 175 3T38 0V20L361 685H282Q248 685 214 675T150 641T99 577T70
474H47Q49 488 49 507T50 548Q50 572 49 616T43 708Q75 707 113 706T190 705T260 705Q331 705 410 705T559 708Z" />
<glyph unicode="[" glyph-name="bracketleft" horiz-adv-x="331" d="M292 772V753H243V-162H292V-181H81V772H292Z" />
<glyph unicode="\" glyph-name="backslash" horiz-adv-x="367" d="M31 722H64L336 -14H303L31 722Z" />
<glyph unicode="]" glyph-name="bracketright" horiz-adv-x="331" d="M39 772H250V-181H39V-162H88V753H39V772Z" />
<glyph unicode="^" glyph-name="asciicircum" horiz-adv-x="526" d="M272 528Q304 470 358 414T475 320L467 306Q402 319 342 339T243 378Q213 359 163 339T59 306L51 320Q114 356 168 412T254 528H272Z" />
<glyph unicode="_" glyph-name="underscore" horiz-adv-x="591" d="M568 -73V-193H65V-73H568Z" />
<glyph unicode="`" glyph-name="grave" horiz-adv-x="300" d="M70 819Q91 837 117 833T160 809Q178 789 187 763T208 700T250 608L239 599Q194 639 162 661T106 698T67 733Q50 754 50 778T70 819Z" />
<glyph unicode="a" glyph-name="a" horiz-adv-x="524" d="M159 -7Q113 -7 83 10T39 57T25 119Q25 161 44 188T95 231T160 259T225 280T275 305T294 343V426Q294 448 288 467T265 499T219 512Q201 512 184 507T154 491Q186 480 201 458T217 409Q217 372 192 351T131
329Q93 329 73 353T52 411Q52 441 67 461T111 499Q140 516 181 524T268 532Q315 532 354 523T422 485Q444 462 450 429T456 345V75Q456 50 460 41T475 31Q484 31 492 36T508 47L519 30Q497 12 467 3T402 -7Q362 -7 340 3T308 32T297 72Q275 36 242 15T159 -7ZM242
65Q258 65 270 71T294 94V302Q286 288 273 276T244 251T216 223T194 188T185 138Q185 99 201 82T242 65Z" />
<glyph unicode="b" glyph-name="b" horiz-adv-x="593" d="M381 532Q457 532 507 470T558 277Q558 169 527 105T443 13T327 -14Q290 -14 259 -5T201 28L214 38Q230 22 250 15T289 7Q340 7 364 69T389 259Q389 346 380 395T353 464T311 485Q280 485 255 461T227
394L225 436Q245 484 286 508T381 532ZM228 782V9Q199 18 169 17T114 7T74 -16L59 -7Q64 7 65 21T66 49V662Q66 707 54 728T6 750V771Q38 768 68 768Q114 768 154 771T228 782Z" />
<glyph unicode="c" glyph-name="c" horiz-adv-x="500" d="M285 532Q327 532 360 524T414 502Q440 486 456 461T472 403Q472 365 447 340T384 314Q345 314 323 337T300 396Q300 431 322 455T374 487Q366 495 354 500T324 505Q290 505 267 486T230 433T209 358T202
272Q202 198 221 157T270 99T331 82Q347 82 368 87T412 108T457 156L474 150Q463 111 437 73T370 11T270 -14Q204 -14 151 13T65 100T33 257Q33 351 66 411T156 502T285 532Z" />
<glyph unicode="d" glyph-name="d" horiz-adv-x="603" d="M526 782V110Q526 65 539 44T586 22V1Q555 4 524 4Q479 4 439 1T364 -10V662Q364 707 352 728T304 750V771Q336 768 366 768Q412 768 452 771T526 782ZM257 532Q301 532 333 520T386 478L374 468Q361 485
343 493T304 501Q256 501 230 442T203 259Q203 173 213 124T242 54T284 34Q315 34 339 57T365 120L368 78Q350 32 319 9T238 -14Q180 -14 134 15T61 104T34 262Q34 353 62 412T141 502T257 532Z" />
<glyph unicode="e" glyph-name="e" horiz-adv-x="504" d="M285 532Q373 532 423 480T473 309H152L151 328H337Q339 377 333 418T314 485T278 510Q248 510 227 467T201 321L205 314Q203 303 203 292T203 267Q203 198 221 157T268 99T326 82Q343 82 364 87T408 108T452
155L469 149Q458 110 432 73T364 11T265 -14Q199 -14 147 13T65 100T34 256Q34 351 67 412T157 502T285 532Z" />
<glyph unicode="f" glyph-name="f" horiz-adv-x="358" d="M292 782Q330 782 357 773T405 747Q420 736 430 716T441 668Q441 639 420 616T364 593Q327 593 304 613T281 670Q281 697 297 719T345 751Q342 756 334 759T313 763Q295 763 283 757T263 740Q253 727 249
703T244 630V517H351V497H244V103Q244 54 268 38T334 21V0Q307 1 259 2T156 4Q117 4 79 3T22 0V21Q55 21 68 36T82 93V497H18V517H82Q82 576 88 615T109 682T149 732Q171 753 209 767T292 782Z" />
<glyph unicode="g" glyph-name="g" horiz-adv-x="562" d="M219 -188Q154 -188 105 -178T29 -147T2 -97Q2 -67 30 -43T116 -4L125 -20Q108 -37 101 -53T94 -86Q94 -127 131 -149T233 -171Q278 -171 311 -159T362 -123T380 -69Q380 -40 359 -20T272 0H214Q171 0
140 11T93 42T76 92Q76 137 111 168T208 227L217 219Q202 210 189 198T175 166Q175 134 213 134H316Q376 134 422 121T494 77T521 -3Q521 -53 489 -95T391 -162T219 -188ZM232 213Q172 213 126 230T52 282T25 373Q25 428 52 463T125 515T232 532Q291 532 338 515T412
463T439 373Q439 318 412 283T338 230T232 213ZM232 231Q254 231 267 262T281 373Q281 453 268 483T232 514Q209 514 196 484T183 373Q183 293 196 262T232 231ZM391 445L370 452Q386 493 419 518T493 544Q526 544 542 526T559 479Q559 450 544 435T507 419Q489
419 474 431T457 469T475 534L481 528Q444 515 425 496T391 445Z" />
<glyph unicode="h" glyph-name="h" horiz-adv-x="615" d="M240 782V448Q265 494 306 513T402 532Q446 532 472 521T513 493Q529 474 536 444T543 363V93Q543 51 556 36T603 21V0Q584 1 545 2T467 4Q427 4 389 3T331 0V21Q359 21 370 36T381 93V411Q381 434 376
450T360 475T326 484Q303 484 284 473T252 440T240 390V93Q240 51 251 36T290 21V0Q272 1 236 2T162 4Q122 4 81 3T18 0V21Q51 21 64 36T78 93V662Q78 707 66 728T18 750V771Q50 768 80 768Q126 768 166 771T240 782Z" />
<glyph unicode="i" glyph-name="i" horiz-adv-x="323" d="M157 779Q204 779 230 758T257 697Q257 657 231 636T157 615Q110 615 84 636T57 697Q57 737 83 758T157 779ZM245 529V93Q245 51 258 36T305 21V0Q285 1 246 2T167 4Q127 4 86 3T23 0V21Q56 21 69 36T83
93V409Q83 454 70 475T23 497V518Q55 515 85 515Q130 515 170 518T245 529Z" />
<glyph unicode="j" glyph-name="j" horiz-adv-x="307" d="M-22 -188V-169Q22 -168 50 -136T79 -30V409Q79 454 66 475T19 497V518Q51 515 81 515Q127 515 167 518T241 529V87Q241 30 234 -11T212 -82T170 -136Q145 -159 99 -173T-22 -188ZM149 779Q196 779 222
758T249 697Q249 657 223 636T149 615Q102 615 76 636T49 697Q49 737 75 758T149 779Z" />
<glyph unicode="k" glyph-name="k" horiz-adv-x="597" d="M240 782V93Q240 51 253 36T298 21V0Q279 1 241 2T163 4Q122 4 81 3T18 0V21Q51 21 64 36T78 93V662Q78 707 66 728T18 750V771Q50 768 80 768Q126 768 166 771T240 782ZM570 518V498Q536 490 502 468T433
410L377 353L385 369L551 73Q561 56 571 42T597 21V0Q582 1 550 2T484 4Q446 4 408 3T349 0V21Q369 21 376 30T374 55L281 237Q272 254 262 259T236 264V283Q253 284 266 288T292 303L368 376Q403 409 403 435T382 479T324 498V518Q352 517 385 516T443 515Q463
515 487 515T534 516T570 518Z" />
<glyph unicode="l" glyph-name="l" horiz-adv-x="320" d="M241 782V93Q241 51 254 36T301 21V0Q282 1 243 2T163 4Q123 4 82 3T19 0V21Q52 21 65 36T79 93V663Q79 707 67 728T19 750V771Q51 768 81 768Q127 768 167 771T241 782Z" />
<glyph unicode="m" glyph-name="m" horiz-adv-x="910" d="M397 532Q440 532 466 521T508 493Q524 474 531 444T538 363V93Q538 51 549 36T590 21V0Q571 1 534 2T462 4Q424 4 388 3T334 0V21Q357 21 366 36T376 93V411Q376 434 372 450T358 475T329 484Q307 484
288 472T257 439T245 390V93Q245 51 254 36T287 21V0Q270 1 236 2T167 4Q126 4 85 3T23 0V21Q56 21 69 36T83 93V409Q83 454 70 475T23 497V518Q55 515 85 515Q130 515 170 518T245 529V448Q268 493 307 512T397 532ZM698 532Q741 532 767 521T809 493Q825 474
832 444T839 363V93Q839 51 852 36T899 21V0Q879 1 840 2T763 4Q725 4 689 3T635 0V21Q658 21 667 36T677 93V411Q677 434 672 450T656 475T622 484Q600 484 581 471T550 435T536 386L530 436Q557 492 601 512T698 532Z" />
<glyph unicode="n" glyph-name="n" horiz-adv-x="619" d="M406 532Q450 532 476 521T517 493Q533 474 540 444T548 363V93Q548 51 561 36T608 21V0Q588 1 549 2T472 4Q431 4 393 3T336 0V21Q364 21 375 36T386 93V411Q386 434 381 450T364 475T330 484Q307 484
288 472T257 439T245 390V93Q245 51 256 36T295 21V0Q276 1 240 2T167 4Q126 4 85 3T23 0V21Q56 21 69 36T83 93V409Q83 454 70 475T23 497V518Q55 515 85 515Q130 515 170 518T245 529V448Q269 494 310 513T406 532Z" />
<glyph unicode="o" glyph-name="o" horiz-adv-x="570" d="M285 532Q360 532 416 506T504 419T536 259Q536 159 505 99T417 13T285 -14Q211 -14 155 12T66 99T34 259Q34 359 66 419T154 505T285 532ZM285 512Q250 512 227 453T203 259Q203 125 226 66T285 6Q321
6 344 65T367 259Q367 393 344 452T285 512Z" />
<glyph unicode="p" glyph-name="p" horiz-adv-x="606" d="M241 528V-80Q241 -128 264 -144T329 -160V-181Q302 -180 254 -179T153 -177Q115 -177 78 -178T21 -181V-160Q53 -160 66 -146T79 -90V408Q79 453 66 474T19 496V517Q51 514 81 514Q127 514 167 517T241
528ZM394 532Q445 532 484 505T547 422T571 282Q571 203 554 147T505 55T431 3T339 -14Q302 -14 271 -4T221 30L231 43Q240 29 256 22T290 15Q331 15 355 43T391 127T402 261Q402 348 392 396T365 465T325 485Q293 485 268 461T239 394L237 436Q258 484 299 508T394
532Z" />
<glyph unicode="q" glyph-name="q" horiz-adv-x="593" d="M255 532Q296 532 328 524T388 491L375 480Q361 497 342 504T302 512Q253 512 228 449T203 259Q203 173 213 124T242 54T284 34Q315 34 339 58T366 124L368 82Q351 34 319 10T239 -14Q182 -14 135 14T61
104T34 262Q34 353 62 412T139 502T255 532ZM519 534L533 525Q529 512 528 498T526 469V-90Q526 -131 539 -145T584 -160V-181Q565 -180 528 -179T452 -177Q400 -177 352 -178T276 -181V-160Q318 -160 341 -144T364 -80V505Q393 498 423 500T479 511T519 534Z"
/>
<glyph unicode="r" glyph-name="r" horiz-adv-x="474" d="M377 532Q411 532 431 518T460 481T469 436Q469 395 446 370T384 345Q344 345 323 363T302 413Q302 444 315 464T349 498Q334 500 320 494Q304 490 290 479T266 453T251 421T245 385V103Q245 55 266 38T335
21V0Q312 1 267 2T174 4Q131 4 88 3T23 0V21Q56 21 69 36T83 93V409Q83 454 70 475T23 497V518Q55 515 85 515Q130 515 170 518T245 529V447Q257 473 276 492T321 521T377 532Z" />
<glyph unicode="s" glyph-name="s" horiz-adv-x="467" d="M226 532Q270 532 302 522T349 503Q384 481 391 531H412Q410 502 409 462T408 353H387Q383 390 370 426T330 485T262 509Q235 509 217 493T198 449Q198 419 216 396T262 352T320 307Q352 283 377 259T418
206T434 137Q434 92 407 58T336 5T238 -14Q205 -14 181 -8T140 9Q125 16 114 21T91 28Q81 29 74 19T63 -7H42Q44 25 45 71T46 193H67Q73 139 89 98T134 34T200 10Q217 10 231 16T255 37T265 73Q265 117 237 146T168 211Q136 238 109 264T64 321T46 391Q46 436 71
467T138 515T226 532Z" />
<glyph unicode="t" glyph-name="t" horiz-adv-x="351" d="M240 681V518H348V498H240V89Q240 64 249 54T276 43Q291 43 307 53T338 87L354 77Q335 36 302 11T214 -14Q181 -14 156 -6T113 20Q91 42 85 74T78 159V498H-2V518H78V643Q125 643 164 652T240 681Z" />
<glyph unicode="u" glyph-name="u" horiz-adv-x="614" d="M535 529V109Q535 64 548 43T595 21V0Q564 3 533 3Q487 3 448 0T373 -11V70Q349 25 308 6T213 -14Q169 -14 143 -3T102 26Q86 44 79 74T72 155V409Q72 454 59 475T12 497V518Q44 515 74 515Q120 515 160
518T234 529V107Q234 84 239 68T256 43T288 34Q311 34 330 46T361 79T373 128V409Q373 454 360 475T313 497V518Q345 515 375 515Q421 515 461 518T535 529Z" />
<glyph unicode="v" glyph-name="v" horiz-adv-x="514" d="M514 518V497Q495 491 478 472T444 406L303 -1Q283 1 263 1T222 -1L46 441Q31 479 15 488T-12 497V518Q24 516 63 515T148 513Q179 513 213 514T278 518V497Q259 497 244 495T222 484T222 451L336 140L325
123L392 316Q413 377 410 416T388 475T336 497V518Q351 517 369 516T406 515T437 514Q456 514 479 515T514 518Z" />
<glyph unicode="w" glyph-name="w" horiz-adv-x="792" d="M281 518V497Q259 497 244 495T224 482T224 450L316 153L301 135L408 518L429 508L286 -1Q266 1 246 1T205 -1L49 441Q35 481 19 489T-9 497V518Q27 515 66 514T151 512Q182 512 216 514T281 518ZM794
518V497Q775 491 758 473T724 406L595 -1Q575 1 555 1T514 -1L381 376L409 518Q431 517 454 517T499 518L629 117L617 134L674 316Q693 378 689 417T663 475T609 497V518Q623 517 644 516T685 515T717 514Q736 514 759 515T794 518Z" />
<glyph unicode="x" glyph-name="x" horiz-adv-x="541" d="M257 518V497Q237 497 229 488T230 463L492 71Q503 56 516 40T546 21V0Q529 1 495 2T427 4Q389 4 351 3T293 0V21Q313 21 321 30T320 55L58 447Q43 471 31 482T4 497V518Q23 517 62 516T139 514Q173 514
206 515T257 518ZM217 235Q217 235 218 229T221 218T222 212L197 179Q165 138 162 103T178 46T233 20V0Q214 1 184 1T126 2T80 3Q58 3 42 3T11 0V20Q36 31 57 49T104 100L217 235ZM514 518V498Q493 490 470 470T421 419L312 287Q312 287 311 292T308 304T307 310L348
363Q377 398 383 428T374 476T322 498V518Q352 517 386 516T445 515Q467 515 483 516T514 518Z" />
<glyph unicode="y" glyph-name="y" horiz-adv-x="524" d="M519 518V497Q500 491 483 472T449 406L316 22L272 -71L43 441Q26 479 10 488T-17 497V518Q20 515 59 514T133 512Q177 512 211 514T275 518V497Q256 497 239 495T216 484T219 450L346 146L336 139L397
316Q418 377 415 416T392 475T341 497V518Q356 517 374 516T411 515T442 514Q461 514 484 515T519 518ZM316 22L276 -92Q267 -117 257 -135T232 -164Q218 -175 197 -181T142 -188Q116 -188 88 -180T40 -152T20 -101Q20 -68 44 -49T109 -29Q146 -29 168 -46T191
-97Q191 -118 177 -138T133 -168Q140 -169 148 -169T162 -170Q193 -170 217 -151T255 -90L290 16L316 22Z" />
<glyph unicode="z" glyph-name="z" horiz-adv-x="473" d="M445 522L208 15H242Q280 15 316 32T377 89T408 200H428Q428 124 429 77T432 -4Q387 -2 338 -1T238 0Q187 0 133 -1T28 -5L265 502H227Q189 502 154 486T96 429T66 317H45Q45 394 44 441T41 521Q88 519
137 518T235 517Q288 517 342 518T445 522Z" />
<glyph unicode="{" glyph-name="braceleft" horiz-adv-x="343" d="M329 782V763Q308 762 294 755T271 727T260 664T257 551Q257 484 239 439T192 366T123 323T42 299Q84 291 123 276T191 232T239 159T257 47Q257 -27 260 -70T271 -134T293 -162T329 -169V-188Q244
-188 193 -168T118 -96T95 47Q95 141 89 192T66 266T19 290H14V308H19Q50 310 66 331T88 405T95 551Q95 639 118 689T192 761T329 782Z" />
<glyph unicode="|" glyph-name="bar" horiz-adv-x="264" d="M184 858V-195H80V858H184Z" />
<glyph unicode="}" glyph-name="braceright" horiz-adv-x="343" d="M14 782Q100 782 151 761T225 690T248 551Q248 457 254 405T277 332T324 308H329V290H324Q294 288 278 266T255 193T248 47Q248 -45 225 -96T151 -167T14 -188V-169Q36 -169 50 -163T72 -135T83
-70T86 47Q86 114 104 159T152 232T220 275T301 299Q259 307 221 322T152 366T104 439T86 551Q86 622 83 664T72 727T50 755T14 763V782Z" />
<glyph unicode="~" glyph-name="asciitilde" horiz-adv-x="675" d="M213 397Q254 397 289 383T358 351T425 318T499 304Q533 304 561 320T605 378L622 375Q618 322 596 284T539 224T464 203Q423 203 388 217T319 249T252 282T179 296Q144 296 117 280T73 222L55
225Q60 278 82 316T139 376T213 397Z" />
<glyph unicode="&#xa0;" glyph-name="uni00A0" horiz-adv-x="228" />
<glyph unicode="&#xa1;" glyph-name="exclamdown" horiz-adv-x="286" d="M151 318Q155 258 168 201T197 92T224 -4T236 -81Q236 -134 210 -161T143 -188Q102 -188 75 -160T48 -81Q48 -49 60 -6T88 90T117 200T133 318H151ZM143 532Q186 532 210 511T235 451Q235
411 211 390T143 369Q100 369 76 390T51 451Q51 490 75 511T143 532Z" />
<glyph unicode="&#xa2;" glyph-name="cent" horiz-adv-x="507" d="M256 -181V55H278V-181H256ZM256 519V708H278V519H256ZM284 532Q325 532 358 524T413 502Q439 486 454 461T470 403Q470 365 446 340T383 314Q343 314 321 337T298 396Q298 431 320 455T372 487Q364
495 352 500T322 505Q288 505 265 486T228 433T208 358T201 272Q201 198 220 157T268 99T329 82Q346 82 367 87T411 108T455 156L473 150Q461 111 435 73T368 11T269 -14Q203 -14 149 13T64 100T32 257Q32 351 65 411T155 502T284 532Z" />
<glyph unicode="&#xa3;" glyph-name="sterling" horiz-adv-x="680" d="M396 736Q436 736 465 730T511 713Q536 699 551 678T567 628Q567 594 545 572T487 549Q451 549 429 569T406 622Q406 651 421 673T464 705Q456 711 441 714T406 718Q373 718 352 703T320 658T304
579T299 465V344Q299 300 288 265T256 199T209 137T154 69Q210 118 251 133T326 148Q367 148 396 141T454 127T519 119Q550 119 567 135T585 176Q585 205 566 222T516 246L520 262Q552 257 581 241T629 196T648 129Q648 86 630 54T576 4T483 -14Q438 -14 399 -2T323
24T249 48Q239 50 227 53T200 56Q172 56 145 46Q126 16 103 1T57 -14Q47 -14 40 -11T32 4Q32 15 42 25T71 45T118 61Q128 86 131 111T134 172T134 258V439Q134 501 147 554T189 649T269 713T396 736ZM412 317V297H57V317H412ZM412 417V397H57V417H412Z" />
<glyph unicode="&#xa4;" glyph-name="currency" horiz-adv-x="642" d="M485 567L589 463L525 399Q536 376 542 352T548 300Q548 273 542 248T524 201L589 137L485 33L420 97Q397 86 373 80T321 73Q268 73 223 97L159 33L55 137L118 200Q107 223 101 248T94 300Q94
327 100 352T118 399L55 463L159 567L222 503Q244 515 269 521T321 528Q348 528 373 521T421 503L485 567ZM322 416Q293 416 269 401T231 359T217 300Q217 269 231 243T270 201T322 185Q351 185 374 200T412 242T426 300Q426 331 412 358T375 400T322 416Z" />
<glyph unicode="&#xa5;" glyph-name="yen" horiz-adv-x="688" d="M572 305V285H151V305H572ZM572 205V185H151V205H572ZM659 709V689Q637 679 612 651T558 565L374 199H317L83 632Q65 665 51 676T25 688V709Q53 706 84 705T153 703Q200 703 255 705T357 709V688Q332
688 311 685T282 673T284 643L438 346L399 295L493 483Q532 560 535 604T517 668T454 689V709Q491 708 520 707T582 706Q603 706 623 707T659 709ZM452 375V106Q452 70 457 52T478 28T525 20V0Q497 2 452 2T362 3Q314 3 269 3T198 0V20Q230 22 245 28T266 52T271
106V311L369 249L452 375Z" />
<glyph unicode="&#xa6;" glyph-name="brokenbar" horiz-adv-x="267" d="M186 326V-195H82V326H186ZM186 858V384H82V858H186Z" />
<glyph unicode="&#xa7;" glyph-name="section" horiz-adv-x="606" d="M331 782Q377 782 409 774T458 758Q487 744 504 722T521 665Q521 635 499 612T440 589Q402 589 380 610T357 664Q357 690 371 712T410 745Q406 750 395 754T369 760T339 763Q301 763 279 751T246
718T236 674Q236 635 254 609T308 559T394 501Q451 463 491 432T552 367T573 288Q573 235 536 190T404 105L395 115Q421 136 434 156T447 210Q447 239 432 262T379 314T279 384Q213 427 171 462T107 533T86 611Q86 664 117 702T203 761T331 782ZM202 489L212 479Q185
460 173 440T160 384Q160 356 175 332T228 280T328 210Q393 167 436 132T500 62T521 -17Q521 -69 490 -107T404 -167T276 -188Q229 -188 198 -180T149 -164Q120 -150 103 -128T86 -71Q86 -41 108 -18T167 5Q204 5 227 -16T250 -70Q250 -96 236 -118T197 -151Q200
-155 211 -159T237 -166T268 -169Q306 -169 328 -157T361 -123T371 -80Q371 -40 353 -15T299 35T213 93Q156 132 116 163T55 227T34 306Q34 360 71 405T202 489Z" />
<glyph unicode="&#xa8;" glyph-name="dieresis" horiz-adv-x="495" d="M365 766Q397 766 421 742T446 685Q446 651 422 628T364 604Q331 604 307 628T283 685Q283 718 307 742T365 766ZM132 766Q164 766 188 742T213 685Q213 651 189 628T132 604Q98 604 74 628T50
685Q50 718 74 742T132 766Z" />
<glyph unicode="&#xa9;" glyph-name="copyright" horiz-adv-x="876" d="M438 782Q521 782 593 751T719 666T805 539T836 384Q836 302 805 230T720 103T593 17T438 -14Q356 -14 284 17T157 102T71 229T40 384Q40 467 71 539T156 665T283 751T438 782ZM462 658Q504
658 537 649T592 627Q617 611 632 586T648 529Q648 490 624 465T561 440Q521 440 499 463T476 523Q476 557 498 581T550 613Q541 621 524 627T487 633Q477 633 467 631T446 622Q426 614 411 590T388 520T379 396Q379 314 398 267T447 202T508 183Q524 183 545 190T589
218T634 281L651 275Q639 237 614 199T547 136T447 111Q381 111 328 138T242 226T210 383Q210 476 243 537T333 628T462 658ZM438 750Q364 750 299 722T185 643T108 526T80 384Q80 308 108 242T185 126T299 47T438 18Q512 18 577 46T691 125T768 242T796 384Q796
460 768 526T691 642T577 721T438 750Z" />
<glyph unicode="&#xaa;" glyph-name="ordfeminine" horiz-adv-x="489" d="M246 722Q332 722 370 692T408 595V425Q408 413 412 408T425 403Q440 403 450 412L461 397Q440 381 409 371T339 360Q297 360 282 372T264 407Q239 382 207 371T143 360Q100 360 71 379T42
439Q42 480 76 502T184 547Q213 556 238 570T264 603V621Q264 666 249 684T204 703Q192 703 180 700T156 690Q180 684 191 666T203 629Q203 599 180 583T128 567Q95 567 76 584T56 628Q56 653 72 671T112 699Q140 712 172 717T246 722ZM264 574Q261 566 253 557T229
534Q209 518 201 499T192 458Q192 437 201 424T225 411Q247 411 264 425V574Z" />
<glyph unicode="&#xab;" glyph-name="guillemotleft" horiz-adv-x="592" d="M315 534L329 529Q320 495 306 456T273 380T236 312T198 259Q217 239 236 208T273 139T305 63T329 -11L315 -16Q251 60 181 127T24 251V267Q110 323 180 390T315 534ZM523 502L537 497Q528
455 510 410T471 324T430 259Q450 236 470 196T509 109T537 21L523 16Q466 83 404 143T264 251V267Q341 316 403 375T523 502Z" />
<glyph unicode="&#xac;" glyph-name="logicalnot" horiz-adv-x="637" d="M572 370V165H536V340H71V370H572Z" />
<glyph unicode="&#xad;" glyph-name="uni00AD" horiz-adv-x="475" />
<glyph unicode="&#xae;" glyph-name="registered" horiz-adv-x="660" d="M330 782Q388 782 438 761T527 701T587 612T609 503Q609 445 588 395T528 306T439 246T330 224Q272 224 222 245T133 305T73 394T51 503Q51 561 72 611T132 700T221 760T330 782ZM265 524Q299
524 313 523T335 521T354 517Q409 513 429 500T454 458L470 390Q472 379 475 375T484 370Q490 370 495 374L502 364Q494 356 480 351T447 346Q414 346 396 357T373 391L360 463Q356 482 350 491T325 505T267 509L265 524ZM330 750Q264 750 211 717T125 627T93 503Q93
436 125 380T210 290T330 256Q396 256 450 289T535 379T567 503Q567 571 536 627T450 716T330 750ZM343 676Q411 676 439 656T467 597Q467 581 456 563T413 530T321 512L260 509Q260 509 260 517T260 525H313Q345 525 360 543T376 593Q376 626 364 643T327 661Q314
661 310 656T305 634V404Q305 381 309 375T328 367V352Q315 352 298 352T261 353Q240 353 221 353T190 352V367Q204 369 208 375T213 404V623Q213 647 209 653T190 661V676Q201 675 220 675T257 675Q285 675 309 675T343 676Z" />
<glyph unicode="&#xaf;" glyph-name="overscore" horiz-adv-x="444" d="M394 712V687H50V712H394Z" />
<glyph unicode="&#xb0;" glyph-name="degree" horiz-adv-x="304" d="M152 820Q201 820 237 788T274 700Q274 644 238 612T152 579Q104 579 68 611T31 700Q31 756 67 788T152 820ZM152 803Q130 803 108 791T71 756T56 699Q56 664 70 641T107 607T152 596Q175 596
197 607T234 641T249 699Q249 733 234 756T197 791T152 803Z" />
<glyph unicode="&#xb1;" glyph-name="plusminus" horiz-adv-x="573" d="M537 30V0H36V30H537ZM305 606V370H537V340H305V105H269V340H36V370H269V606H305Z" />
<glyph unicode="&#xb2;" glyph-name="uni00B2" horiz-adv-x="355" d="M181 755Q230 755 262 737T295 681Q295 655 280 634T241 596T187 561T129 522H265Q289 522 297 530T312 556L329 553Q322 517 319 489T314 435Q305 437 296 437T276 438H24V458Q45 476 73 497T129
543T174 597T192 662Q192 686 177 699T133 713Q107 713 86 702T48 667L33 675Q51 706 86 730T181 755Z" />
<glyph unicode="&#xb3;" glyph-name="uni00B3" horiz-adv-x="332" d="M172 756Q222 756 256 738T291 684Q291 649 258 625T166 589Q204 591 235 581T286 549T306 497Q306 461 281 434T213 389T121 361T22 348V365Q76 372 117 390T181 437T205 504Q205 534 190
555T148 578Q137 573 129 569T111 564Q96 564 96 576Q96 587 109 589T140 590Q169 604 178 626T188 663Q188 687 172 702T126 717Q100 717 78 704T41 668L26 676Q43 708 77 732T172 756Z" />
<glyph unicode="&#xb4;" glyph-name="acute" horiz-adv-x="300" d="M230 819Q249 804 249 779T233 733Q218 714 195 699T139 661T61 599L50 608Q79 663 91 700T113 763T140 809Q156 828 182 832T230 819Z" />
<glyph unicode="&#xb6;" glyph-name="paragraph" horiz-adv-x="761" d="M430 709Q513 709 583 707T721 708V689Q677 687 665 671T652 621V-75Q652 -111 657 -129T678 -153T725 -161V-181Q692 -179 640 -179T534 -178Q484 -178 440 -178T370 -181V-161Q412 -159
434 -150T463 -121T471 -65V-13Q349 -13 266 15T131 93T56 212T32 360Q32 462 79 541T216 664T430 709ZM472 656Q467 656 457 617T436 515T424 374Q340 374 272 370T162 360T121 351Q121 348 161 343T271 333T424 329Q426 250 436 187T456 86T472 48Q472 48 472
80T472 167T472 285T472 415T472 534T472 621T472 656Z" />
<glyph unicode="&#xb7;" glyph-name="middot" horiz-adv-x="283" d="M142 367Q185 367 209 346T234 286Q234 246 210 225T142 204Q98 204 74 225T50 286Q50 325 74 346T142 367Z" />
<glyph unicode="&#xb8;" glyph-name="cedilla" horiz-adv-x="338" d="M160 1L142 -62Q159 -55 177 -52T217 -49Q253 -49 270 -64T288 -105Q288 -134 268 -152T215 -179T139 -188Q112 -188 90 -185T50 -175L56 -157Q63 -158 75 -160T102 -162Q118 -162 133 -158T159
-146T170 -123Q170 -97 139 -97Q131 -97 121 -98T103 -104L133 1H160Z" />
<glyph unicode="&#xb9;" glyph-name="uni00B9" horiz-adv-x="290" d="M212 753V507Q212 478 227 468T279 458V437Q261 438 228 438T158 439Q121 439 87 439T35 437V458Q70 458 89 468T109 507V636Q109 680 92 690T28 701V722Q93 723 134 730T212 753Z" />
<glyph unicode="&#xba;" glyph-name="ordmasculine" horiz-adv-x="473" d="M237 722Q295 722 340 702T412 641T438 541Q438 482 412 442T341 381T237 360Q179 360 134 380T62 441T36 541Q36 601 62 641T133 701T237 722ZM237 704Q215 704 201 666T186 541Q186
454 200 416T237 378Q259 378 273 416T287 541Q287 628 273 666T237 704Z" />
<glyph unicode="&#xbb;" glyph-name="guillemotright" horiz-adv-x="591" d="M277 534Q341 458 411 391T568 267V250Q481 195 411 128T277 -16L262 -11Q271 24 286 62T319 137T356 206T393 258Q375 278 356 310T319 379T286 455T262 529L277 534ZM69 502Q126 435
188 375T328 267V250Q251 202 189 143T69 16L54 21Q65 63 82 108T121 194T162 258Q142 282 121 322T83 409T54 497L69 502Z" />
<glyph unicode="&#xbc;" glyph-name="onequarter" horiz-adv-x="715" d="M668 824L687 811L102 -55L83 -42L668 824ZM227 753V507Q227 478 242 468T294 458V437Q276 438 243 438T173 439Q136 439 102 439T50 437V458Q85 458 104 468T124 507V636Q124 680 107 690T43
701V722Q108 723 149 730T227 753ZM544 315L552 300L320 47L345 81H581Q605 81 613 90T628 115L645 112Q641 99 638 80T634 42T631 15Q622 17 613 17T593 18H291V39L544 315ZM565 315V-99H487V240L544 315H565Z" />
<glyph unicode="&#xbd;" glyph-name="onehalf" horiz-adv-x="727" d="M652 824L671 811L86 -55L67 -42L652 824ZM226 753V507Q226 478 241 468T293 458V437Q275 438 242 438T172 439Q135 439 101 439T49 437V458Q84 458 103 468T123 507V636Q123 680 106 690T42
701V722Q107 723 148 730T226 753ZM546 318Q595 318 627 300T660 244Q660 218 645 197T606 159T552 124T494 85H630Q654 85 662 93T677 119L694 116Q687 80 684 52T679 -2Q670 0 661 0T641 1H389V21Q410 39 438 60T494 106T539 160T557 225Q557 249 542 262T498
276Q472 276 451 265T413 230L398 238Q416 269 451 293T546 318Z" />
<glyph unicode="&#xbe;" glyph-name="threequarters" horiz-adv-x="755" d="M708 824L727 811L142 -55L123 -42L708 824ZM193 756Q243 756 277 738T312 684Q312 649 279 625T187 589Q225 591 256 581T307 549T327 497Q327 461 302 434T234 389T142 361T43 348V365Q97
372 138 390T202 437T226 504Q226 534 211 555T169 578Q158 573 150 569T132 564Q117 564 117 576Q117 587 130 589T161 590Q190 604 199 626T209 663Q209 687 193 702T147 717Q121 717 99 704T62 668L47 676Q64 708 98 732T193 756ZM590 315L598 300L366 47L391
81H627Q651 81 659 90T674 115L691 112Q687 99 684 80T680 42T677 15Q668 17 659 17T639 18H337V39L590 315ZM611 315V-99H533V240L590 315H611Z" />
<glyph unicode="&#xbf;" glyph-name="questiondown" horiz-adv-x="519" d="M313 324V185Q260 161 234 131T198 67T189 -7Q189 -92 221 -130T306 -168Q334 -168 356 -163T388 -148Q359 -137 344 -118T328 -67Q328 -34 352 -12T416 11Q451 11 471 -11T492 -64Q492
-97 475 -118T431 -154Q407 -168 369 -178T278 -188Q204 -188 147 -167T59 -105T28 -10Q28 42 61 82T154 150T293 194V324H313ZM303 533Q345 533 370 512T395 452Q395 412 370 391T303 370Q259 370 235 391T211 452Q211 491 235 512T303 533Z" />
<glyph unicode="&#xc0;" glyph-name="Agrave" horiz-adv-x="680" d="M383 709L625 84Q640 49 656 35T686 20V0Q654 2 610 2T519 3Q471 3 428 3T359 0V20Q410 22 424 37T418 104L252 558L272 588L126 211Q103 151 98 114T103 57T134 29T186 20V0Q151 2 122 2T58
3Q38 3 18 3T-18 0V20Q4 24 26 48T71 131L296 709Q316 707 339 707T383 709ZM435 288V268H137L147 288H435ZM246 936Q270 925 288 904T332 854T406 784L399 772Q342 792 304 800T238 813T188 831Q165 843 157 865T159 910Q171 936 197 942T246 936Z" />
<glyph unicode="&#xc1;" glyph-name="Aacute" horiz-adv-x="680" d="M383 709L625 84Q640 49 656 35T686 20V0Q654 2 610 2T519 3Q471 3 428 3T359 0V20Q410 22 424 37T418 104L252 558L272 588L126 211Q103 151 98 114T103 57T134 29T186 20V0Q151 2 122 2T58
3Q38 3 18 3T-18 0V20Q4 24 26 48T71 131L296 709Q316 707 339 707T383 709ZM435 288V268H137L147 288H435ZM422 936Q444 948 470 942T509 910Q520 888 512 866T480 831Q457 818 430 813T365 800T269 772L262 784Q310 824 336 853T380 904T422 936Z" />
<glyph unicode="&#xc2;" glyph-name="Acircumflex" horiz-adv-x="680" d="M383 709L625 84Q640 49 656 35T686 20V0Q654 2 610 2T519 3Q471 3 428 3T359 0V20Q410 22 424 37T418 104L252 558L272 588L126 211Q103 151 98 114T103 57T134 29T186 20V0Q151 2 122
2T58 3Q38 3 18 3T-18 0V20Q4 24 26 48T71 131L296 709Q316 707 339 707T383 709ZM435 288V268H137L147 288H435ZM348 948Q381 903 437 859T559 784L554 769Q487 781 422 798T319 832Q287 815 233 798T124 769L119 784Q184 813 240 857T330 948H348Z" />
<glyph unicode="&#xc3;" glyph-name="Atilde" horiz-adv-x="680" d="M383 709L625 84Q640 49 656 35T686 20V0Q654 2 610 2T519 3Q471 3 428 3T359 0V20Q410 22 424 37T418 104L252 558L272 588L126 211Q103 151 98 114T103 57T134 29T186 20V0Q151 2 122 2T58
3Q38 3 18 3T-18 0V20Q4 24 26 48T71 131L296 709Q316 707 339 707T383 709ZM435 288V268H137L147 288H435ZM248 931Q286 931 313 921T363 897T409 873T464 863Q490 863 512 875T554 916L568 910Q551 835 513 801T428 766Q390 766 363 776T313 801T266 825T211
835Q185 835 163 823T121 781L107 787Q124 863 163 897T248 931Z" />
<glyph unicode="&#xc4;" glyph-name="Adieresis" horiz-adv-x="680" d="M383 709L625 84Q640 49 656 35T686 20V0Q654 2 610 2T519 3Q471 3 428 3T359 0V20Q410 22 424 37T418 104L252 558L272 588L126 211Q103 151 98 114T103 57T134 29T186 20V0Q151 2 122 2T58
3Q38 3 18 3T-18 0V20Q4 24 26 48T71 131L296 709Q316 707 339 707T383 709ZM435 288V268H137L147 288H435ZM464 926Q496 926 520 902T545 845Q545 812 521 788T463 764Q430 764 406 788T382 845Q382 878 406 902T464 926ZM215 926Q247 926 271 902T296 845Q296
812 272 788T215 764Q181 764 157 788T133 845Q133 878 157 902T215 926Z" />
<glyph unicode="&#xc5;" glyph-name="Aring" horiz-adv-x="680" d="M383 709L625 84Q640 49 656 35T686 20V0Q654 2 610 2T519 3Q471 3 428 3T359 0V20Q410 22 424 37T418 104L252 558L272 588L126 211Q103 151 98 114T103 57T134 29T186 20V0Q151 2 122 2T58
3Q38 3 18 3T-18 0V20Q4 24 26 48T71 131L296 709Q316 707 339 707T383 709ZM435 288V268H137L147 288H435ZM339 941Q384 941 418 915T452 842Q452 796 418 769T339 742Q295 742 261 769T227 842Q227 888 261 914T339 941ZM339 920Q309 920 282 900T255 841Q255
802 282 783T339 763Q370 763 397 782T424 841Q424 879 397 899T339 920Z" />
<glyph unicode="&#xc6;" glyph-name="AE" horiz-adv-x="900" d="M478 772L91 104Q64 57 77 40T142 20V0Q127 2 103 2T51 3Q34 3 16 3T-16 0V20Q0 21 16 34T53 84L454 772H478ZM836 708Q832 666 831 627T829 566Q829 546 830 528T832 496H809Q800 568 781 609T734
667T673 685H650Q620 685 605 680T583 657T577 602V106Q577 70 583 52T604 29T650 23H691Q721 23 749 42T799 107T829 232H852Q849 198 849 144Q849 123 850 83T856 0Q806 2 744 2T631 3Q600 3 548 3T438 3T327 0V20Q357 22 372 28T391 52T396 106V602Q396 639
391 656T370 680T323 688V708Q376 707 435 706T547 705T631 705Q676 705 733 705T836 708ZM429 366V346H220L230 366H429ZM709 366Q709 366 709 356T709 346H547Q547 346 547 356T547 366H709ZM738 486Q734 434 734 407T735 356Q735 333 736 306T741 226H718Q714
255 705 283T678 328T624 346V366Q650 366 666 378T692 410T706 449T715 486H738Z" />
<glyph unicode="&#xc7;" glyph-name="Ccedilla" horiz-adv-x="711" d="M405 722Q471 722 513 703T589 657Q609 642 619 653T634 708H657Q655 669 654 612T653 462H630Q626 509 618 544T593 606T547 654Q524 673 496 683T437 694Q382 694 345 664T285 584T253 474T243
352Q243 290 253 230T285 120T346 42T439 12Q468 12 496 22T548 51Q592 81 607 129T630 256H653Q653 159 654 100T657 0H634Q630 43 621 54T589 51Q552 25 511 6T404 -14Q295 -14 213 29T85 153T39 348Q39 460 86 544T215 675T405 722ZM421 5L401 -62Q420 -55 440
-52T484 -49Q524 -49 543 -64T563 -105Q563 -134 540 -152T478 -179T390 -188Q361 -188 336 -185T294 -175L299 -157Q307 -158 322 -160T353 -162Q375 -162 396 -158T431 -146T445 -123Q445 -109 433 -103T398 -97Q390 -97 380 -98T362 -104L394 5H421Z" />
<glyph unicode="&#xc8;" glyph-name="Egrave" horiz-adv-x="642" d="M578 708Q574 661 573 617T571 550Q571 530 572 511T574 480H551Q540 558 516 603T456 666T377 685H350Q323 685 309 681T290 662T285 618V90Q285 61 289 47T308 28T350 23H391Q430 23 465 43T529
113T571 248H594Q591 214 591 160Q591 136 592 92T598 0Q547 2 483 2T369 3Q343 3 303 3T216 3T121 2T31 0V20Q62 22 77 28T98 52T104 106V602Q104 639 99 656T78 680T31 688V708Q74 707 121 707T215 706T302 705T369 705Q415 705 473 705T578 708ZM427 366Q427
366 427 356T427 346H255Q255 346 255 356T255 366H427ZM456 498Q452 441 452 411T453 356Q453 331 454 301T459 214H436Q431 250 415 280T372 328T306 346V366Q335 366 357 378T394 411T420 454T433 498H456ZM224 936Q248 925 266 904T310 854T384 784L377 772Q320
792 282 800T216 813T166 831Q143 843 135 865T137 910Q149 936 175 942T224 936Z" />
<glyph unicode="&#xc9;" glyph-name="Eacute" horiz-adv-x="642" d="M578 708Q574 661 573 617T571 550Q571 530 572 511T574 480H551Q540 558 516 603T456 666T377 685H350Q323 685 309 681T290 662T285 618V90Q285 61 289 47T308 28T350 23H391Q430 23 465 43T529
113T571 248H594Q591 214 591 160Q591 136 592 92T598 0Q547 2 483 2T369 3Q343 3 303 3T216 3T121 2T31 0V20Q62 22 77 28T98 52T104 106V602Q104 639 99 656T78 680T31 688V708Q74 707 121 707T215 706T302 705T369 705Q415 705 473 705T578 708ZM427 366Q427
366 427 356T427 346H255Q255 346 255 356T255 366H427ZM456 498Q452 441 452 411T453 356Q453 331 454 301T459 214H436Q431 250 415 280T372 328T306 346V366Q335 366 357 378T394 411T420 454T433 498H456ZM400 936Q422 948 448 942T487 910Q498 888 490 866T458
831Q435 818 408 813T343 800T247 772L240 784Q288 824 314 853T358 904T400 936Z" />
<glyph unicode="&#xca;" glyph-name="Ecircumflex" horiz-adv-x="642" d="M578 708Q574 661 573 617T571 550Q571 530 572 511T574 480H551Q540 558 516 603T456 666T377 685H350Q323 685 309 681T290 662T285 618V90Q285 61 289 47T308 28T350 23H391Q430 23
465 43T529 113T571 248H594Q591 214 591 160Q591 136 592 92T598 0Q547 2 483 2T369 3Q343 3 303 3T216 3T121 2T31 0V20Q62 22 77 28T98 52T104 106V602Q104 639 99 656T78 680T31 688V708Q74 707 121 707T215 706T302 705T369 705Q415 705 473 705T578 708ZM427
366Q427 366 427 356T427 346H255Q255 346 255 356T255 366H427ZM456 498Q452 441 452 411T453 356Q453 331 454 301T459 214H436Q431 250 415 280T372 328T306 346V366Q335 366 357 378T394 411T420 454T433 498H456ZM326 948Q359 903 415 859T537 784L532 769Q465
781 400 798T297 832Q265 815 211 798T102 769L97 784Q162 813 218 857T308 948H326Z" />
<glyph unicode="&#xcb;" glyph-name="Edieresis" horiz-adv-x="642" d="M578 708Q574 661 573 617T571 550Q571 530 572 511T574 480H551Q540 558 516 603T456 666T377 685H350Q323 685 309 681T290 662T285 618V90Q285 61 289 47T308 28T350 23H391Q430 23 465
43T529 113T571 248H594Q591 214 591 160Q591 136 592 92T598 0Q547 2 483 2T369 3Q343 3 303 3T216 3T121 2T31 0V20Q62 22 77 28T98 52T104 106V602Q104 639 99 656T78 680T31 688V708Q74 707 121 707T215 706T302 705T369 705Q415 705 473 705T578 708ZM427
366Q427 366 427 356T427 346H255Q255 346 255 356T255 366H427ZM456 498Q452 441 452 411T453 356Q453 331 454 301T459 214H436Q431 250 415 280T372 328T306 346V366Q335 366 357 378T394 411T420 454T433 498H456ZM442 926Q474 926 498 902T523 845Q523 812
499 788T441 764Q408 764 384 788T360 845Q360 878 384 902T442 926ZM193 926Q225 926 249 902T274 845Q274 812 250 788T193 764Q159 764 135 788T111 845Q111 878 135 902T193 926Z" />
<glyph unicode="&#xcc;" glyph-name="Igrave" horiz-adv-x="389" d="M358 708V688Q327 687 311 681T290 657T285 602V106Q285 70 290 52T311 28T358 20V0Q330 2 287 2T199 3Q148 3 103 3T31 0V20Q62 22 77 28T98 52T104 106V602Q104 639 99 656T78 680T31 688V708Q58
707 103 706T199 705Q243 705 286 706T358 708ZM106 936Q130 925 148 904T192 854T266 784L259 772Q202 792 164 800T98 813T48 831Q25 843 17 865T19 910Q31 936 57 942T106 936Z" />
<glyph unicode="&#xcd;" glyph-name="Iacute" horiz-adv-x="389" d="M358 708V688Q327 687 311 681T290 657T285 602V106Q285 70 290 52T311 28T358 20V0Q330 2 287 2T199 3Q148 3 103 3T31 0V20Q62 22 77 28T98 52T104 106V602Q104 639 99 656T78 680T31 688V708Q58
707 103 706T199 705Q243 705 286 706T358 708ZM282 936Q304 948 330 942T369 910Q380 888 372 866T340 831Q317 818 290 813T225 800T129 772L122 784Q170 824 196 853T240 904T282 936Z" />
<glyph unicode="&#xce;" glyph-name="Icircumflex" horiz-adv-x="389" d="M358 708V688Q327 687 311 681T290 657T285 602V106Q285 70 290 52T311 28T358 20V0Q330 2 287 2T199 3Q148 3 103 3T31 0V20Q62 22 77 28T98 52T104 106V602Q104 639 99 656T78 680T31
688V708Q58 707 103 706T199 705Q243 705 286 706T358 708ZM464 948Q497 903 553 859T675 784L670 769Q603 781 538 798T435 832Q403 815 349 798T240 769L235 784Q300 813 356 857T446 948H464Z" />
<glyph unicode="&#xcf;" glyph-name="Idieresis" horiz-adv-x="389" d="M358 708V688Q327 687 311 681T290 657T285 602V106Q285 70 290 52T311 28T358 20V0Q330 2 287 2T199 3Q148 3 103 3T31 0V20Q62 22 77 28T98 52T104 106V602Q104 639 99 656T78 680T31 688V708Q58
707 103 706T199 705Q243 705 286 706T358 708ZM324 926Q356 926 380 902T405 845Q405 812 381 788T323 764Q290 764 266 788T242 845Q242 878 266 902T324 926ZM75 926Q107 926 131 902T156 845Q156 812 132 788T75 764Q41 764 17 788T-7 845Q-7 878 17 902T75
926Z" />
<glyph unicode="&#xd0;" glyph-name="Eth" horiz-adv-x="793" d="M352 708Q556 708 654 619T753 362Q753 253 705 172T564 45T343 0Q327 0 301 1T247 2T195 3Q148 3 103 3T31 0V20Q62 22 77 28T98 52T104 106V602Q104 639 99 656T78 680T31 688V708Q58 707 103
706T193 705Q229 706 275 707T352 708ZM359 690Q313 690 299 673T285 604V104Q285 52 299 35T360 18Q436 18 481 57T545 173T565 358Q565 470 544 543T478 653T359 690ZM402 366V346H8V366H402Z" />
<glyph unicode="&#xd1;" glyph-name="Ntilde" horiz-adv-x="727" d="M700 708V688Q670 683 654 669T633 626T627 544V-1Q614 1 599 1T567 -1L128 516V180Q128 119 134 87T161 40T227 20V0Q208 2 177 2T117 3Q95 3 72 3T32 0V20Q64 26 79 39T100 82T105 164V602Q105
639 100 656T79 680T32 688V708Q48 707 71 706T117 705Q142 705 165 706T207 708L604 254V528Q604 589 599 621T573 668T505 688V708Q525 707 556 706T615 705Q639 705 662 706T700 708ZM289 931Q327 931 354 921T404 897T450 873T505 863Q531 863 553 875T595
916L609 910Q592 835 554 801T469 766Q431 766 404 776T354 801T307 825T252 835Q226 835 204 823T162 781L148 787Q165 863 204 897T289 931Z" />
<glyph unicode="&#xd2;" glyph-name="Ograve" horiz-adv-x="810" d="M405 722Q515 722 597 679T724 556T770 360Q770 248 724 164T594 33T404 -14Q295 -14 213 29T85 153T39 348Q39 460 86 544T216 675T405 722ZM401 704Q348 704 309 659T249 535T227 352Q227
246 251 168T317 47T408 4Q461 4 500 49T561 173T582 356Q582 463 558 541T493 661T401 704ZM310 936Q334 925 352 904T396 854T470 784L463 772Q406 792 368 800T302 813T252 831Q229 843 221 865T223 910Q235 936 261 942T310 936Z" />
<glyph unicode="&#xd3;" glyph-name="Oacute" horiz-adv-x="810" d="M405 722Q515 722 597 679T724 556T770 360Q770 248 724 164T594 33T404 -14Q295 -14 213 29T85 153T39 348Q39 460 86 544T216 675T405 722ZM401 704Q348 704 309 659T249 535T227 352Q227
246 251 168T317 47T408 4Q461 4 500 49T561 173T582 356Q582 463 558 541T493 661T401 704ZM486 936Q508 948 534 942T573 910Q584 888 576 866T544 831Q521 818 494 813T429 800T333 772L326 784Q374 824 400 853T444 904T486 936Z" />
<glyph unicode="&#xd4;" glyph-name="Ocircumflex" horiz-adv-x="810" d="M405 722Q515 722 597 679T724 556T770 360Q770 248 724 164T594 33T404 -14Q295 -14 213 29T85 153T39 348Q39 460 86 544T216 675T405 722ZM401 704Q348 704 309 659T249 535T227 352Q227
246 251 168T317 47T408 4Q461 4 500 49T561 173T582 356Q582 463 558 541T493 661T401 704ZM412 948Q445 903 501 859T623 784L618 769Q551 781 486 798T383 832Q351 815 297 798T188 769L183 784Q248 813 304 857T394 948H412Z" />
<glyph unicode="&#xd5;" glyph-name="Otilde" horiz-adv-x="810" d="M405 722Q515 722 597 679T724 556T770 360Q770 248 724 164T594 33T404 -14Q295 -14 213 29T85 153T39 348Q39 460 86 544T216 675T405 722ZM401 704Q348 704 309 659T249 535T227 352Q227
246 251 168T317 47T408 4Q461 4 500 49T561 173T582 356Q582 463 558 541T493 661T401 704ZM312 931Q350 931 377 921T427 897T473 873T528 863Q554 863 576 875T618 916L632 910Q615 835 577 801T492 766Q454 766 427 776T377 801T330 825T275 835Q249 835 227
823T185 781L171 787Q188 863 227 897T312 931Z" />
<glyph unicode="&#xd6;" glyph-name="Odieresis" horiz-adv-x="810" d="M405 722Q515 722 597 679T724 556T770 360Q770 248 724 164T594 33T404 -14Q295 -14 213 29T85 153T39 348Q39 460 86 544T216 675T405 722ZM401 704Q348 704 309 659T249 535T227 352Q227
246 251 168T317 47T408 4Q461 4 500 49T561 173T582 356Q582 463 558 541T493 661T401 704ZM528 926Q560 926 584 902T609 845Q609 812 585 788T527 764Q494 764 470 788T446 845Q446 878 470 902T528 926ZM279 926Q311 926 335 902T360 845Q360 812 336 788T279
764Q245 764 221 788T197 845Q197 878 221 902T279 926Z" />
<glyph unicode="&#xd7;" glyph-name="multiply" horiz-adv-x="488" d="M70 552L245 377L418 550L440 528L267 356L440 183L418 161L245 334L71 160L49 182L223 355L48 530L70 552Z" />
<glyph unicode="&#xd8;" glyph-name="Oslash" horiz-adv-x="810" d="M405 722Q515 722 597 679T724 556T770 360Q770 248 724 164T594 33T404 -14Q295 -14 213 29T85 153T39 348Q39 460 86 544T216 675T405 722ZM401 704Q348 704 309 659T249 535T227 352Q227
246 251 168T317 47T408 4Q461 4 500 49T561 173T582 356Q582 463 558 541T493 661T401 704ZM565 638L580 618L240 75L222 93L565 638ZM208 93L226 75L115 -81L94 -67L208 93ZM669 781L688 768L587 618L572 638L669 781Z" />
<glyph unicode="&#xd9;" glyph-name="Ugrave" horiz-adv-x="691" d="M676 708V688Q645 683 629 669T608 626T603 544V291Q603 227 595 173T562 79Q536 36 485 11T353 -14Q307 -14 258 -4T169 35Q136 61 119 96T95 178T89 288V602Q89 639 84 656T63 680T16 688V708Q43
707 88 706T182 705Q231 705 276 706T351 708V688Q317 687 300 681T276 657T270 602V209Q270 160 277 124T300 65T341 32T401 21Q470 21 509 53T564 145T580 280V528Q580 589 574 621T547 668T481 688V708Q500 707 531 706T591 705Q614 705 637 706T676 708ZM266
936Q290 925 308 904T352 854T426 784L419 772Q362 792 324 800T258 813T208 831Q185 843 177 865T179 910Q191 936 217 942T266 936Z" />
<glyph unicode="&#xda;" glyph-name="Uacute" horiz-adv-x="691" d="M676 708V688Q645 683 629 669T608 626T603 544V291Q603 227 595 173T562 79Q536 36 485 11T353 -14Q307 -14 258 -4T169 35Q136 61 119 96T95 178T89 288V602Q89 639 84 656T63 680T16 688V708Q43
707 88 706T182 705Q231 705 276 706T351 708V688Q317 687 300 681T276 657T270 602V209Q270 160 277 124T300 65T341 32T401 21Q470 21 509 53T564 145T580 280V528Q580 589 574 621T547 668T481 688V708Q500 707 531 706T591 705Q614 705 637 706T676 708ZM442
936Q464 948 490 942T529 910Q540 888 532 866T500 831Q477 818 450 813T385 800T289 772L282 784Q330 824 356 853T400 904T442 936Z" />
<glyph unicode="&#xdb;" glyph-name="Ucircumflex" horiz-adv-x="691" d="M676 708V688Q645 683 629 669T608 626T603 544V291Q603 227 595 173T562 79Q536 36 485 11T353 -14Q307 -14 258 -4T169 35Q136 61 119 96T95 178T89 288V602Q89 639 84 656T63 680T16
688V708Q43 707 88 706T182 705Q231 705 276 706T351 708V688Q317 687 300 681T276 657T270 602V209Q270 160 277 124T300 65T341 32T401 21Q470 21 509 53T564 145T580 280V528Q580 589 574 621T547 668T481 688V708Q500 707 531 706T591 705Q614 705 637 706T676
708ZM368 948Q401 903 457 859T579 784L574 769Q507 781 442 798T339 832Q307 815 253 798T144 769L139 784Q204 813 260 857T350 948H368Z" />
<glyph unicode="&#xdc;" glyph-name="Udieresis" horiz-adv-x="691" d="M676 708V688Q645 683 629 669T608 626T603 544V291Q603 227 595 173T562 79Q536 36 485 11T353 -14Q307 -14 258 -4T169 35Q136 61 119 96T95 178T89 288V602Q89 639 84 656T63 680T16 688V708Q43
707 88 706T182 705Q231 705 276 706T351 708V688Q317 687 300 681T276 657T270 602V209Q270 160 277 124T300 65T341 32T401 21Q470 21 509 53T564 145T580 280V528Q580 589 574 621T547 668T481 688V708Q500 707 531 706T591 705Q614 705 637 706T676 708ZM484
926Q516 926 540 902T565 845Q565 812 541 788T483 764Q450 764 426 788T402 845Q402 878 426 902T484 926ZM235 926Q267 926 291 902T316 845Q316 812 292 788T235 764Q201 764 177 788T153 845Q153 878 177 902T235 926Z" />
<glyph unicode="&#xdd;" glyph-name="Yacute" horiz-adv-x="633" d="M626 709V689Q604 679 580 651T526 565L341 199H284L50 632Q33 665 18 676T-8 688V709Q21 706 52 705T120 703Q168 703 223 705T324 709V688Q299 688 279 685T250 673T251 643L406 346L367 295L461
483Q500 560 503 604T485 668T422 689V709Q458 708 487 707T550 706Q571 706 591 707T626 709ZM420 375V106Q420 70 425 52T446 28T493 20V0Q465 2 420 2T330 3Q281 3 237 3T166 0V20Q197 22 212 28T233 52T239 106V311L337 249L420 375ZM422 936Q444 948 470 942T509
910Q520 888 512 866T480 831Q457 818 430 813T365 800T269 772L262 784Q310 824 336 853T380 904T422 936Z" />
<glyph unicode="&#xde;" glyph-name="Thorn" horiz-adv-x="634" d="M329 570Q427 570 490 549T586 485T618 379Q618 336 604 295T555 221T460 169T307 149H211Q211 149 211 159T211 169H297Q352 169 380 196T419 270T430 369Q430 458 402 504T304 551Q283 551
259 551T213 550T180 549L178 568Q225 568 268 569T329 570ZM358 708V688Q327 687 311 681T290 657T285 602V106Q285 70 290 52T311 28T358 20V0Q330 2 287 2T199 3Q148 3 103 3T31 0V20Q62 22 77 28T98 52T104 106V602Q104 639 99 656T78 680T31 688V708Q58 707
103 706T199 705Q243 705 286 706T358 708Z" />
<glyph unicode="&#xdf;" glyph-name="germandbls" horiz-adv-x="681" d="M343 782Q450 782 507 739T565 633Q565 595 547 563T497 505T425 461T339 433Q444 420 515 384T623 296T660 181Q660 118 627 74T540 8T424 -14Q384 -14 351 -4T297 30T277 94Q277 134 297
158T354 183Q388 183 408 162T429 107Q429 72 408 48T360 13Q366 9 374 6T394 3Q426 3 447 24T480 83T491 168Q491 232 475 276T434 348T379 394T322 421Q313 417 304 413T288 409Q281 409 275 413T268 425Q268 443 290 443Q298 443 307 441T323 436Q373 470 392
513T411 620Q411 694 389 730T325 767Q291 767 273 746T248 679T241 551V-11Q211 -5 179 -2T109 3Q87 4 69 3T19 0V21Q52 21 65 37T79 96V517Q79 606 109 664T198 752T343 782Z" />
<glyph unicode="&#xe0;" glyph-name="agrave" horiz-adv-x="524" d="M159 -7Q113 -7 83 10T39 57T25 119Q25 161 44 188T95 231T160 259T225 280T275 305T294 343V426Q294 448 288 467T265 499T219 512Q201 512 184 507T154 491Q186 480 201 458T217 409Q217 372
192 351T131 329Q93 329 73 353T52 411Q52 441 67 461T111 499Q140 516 181 524T268 532Q315 532 354 523T422 485Q444 462 450 429T456 345V75Q456 50 460 41T475 31Q484 31 492 36T508 47L519 30Q497 12 467 3T402 -7Q362 -7 340 3T308 32T297 72Q275 36 242
15T159 -7ZM242 65Q258 65 270 71T294 94V302Q286 288 273 276T244 251T216 223T194 188T185 138Q185 99 201 82T242 65ZM138 819Q159 837 185 833T228 809Q246 789 255 763T276 700T318 608L307 599Q262 639 230 661T174 698T135 733Q118 754 118 778T138 819Z"
/>
<glyph unicode="&#xe1;" glyph-name="aacute" horiz-adv-x="524" d="M159 -7Q113 -7 83 10T39 57T25 119Q25 161 44 188T95 231T160 259T225 280T275 305T294 343V426Q294 448 288 467T265 499T219 512Q201 512 184 507T154 491Q186 480 201 458T217 409Q217 372
192 351T131 329Q93 329 73 353T52 411Q52 441 67 461T111 499Q140 516 181 524T268 532Q315 532 354 523T422 485Q444 462 450 429T456 345V75Q456 50 460 41T475 31Q484 31 492 36T508 47L519 30Q497 12 467 3T402 -7Q362 -7 340 3T308 32T297 72Q275 36 242
15T159 -7ZM242 65Q258 65 270 71T294 94V302Q286 288 273 276T244 251T216 223T194 188T185 138Q185 99 201 82T242 65ZM374 819Q393 804 393 779T377 733Q362 714 339 699T283 661T205 599L194 608Q223 663 235 700T257 763T284 809Q300 828 326 832T374 819Z"
/>
<glyph unicode="&#xe2;" glyph-name="acircumflex" horiz-adv-x="524" d="M159 -7Q113 -7 83 10T39 57T25 119Q25 161 44 188T95 231T160 259T225 280T275 305T294 343V426Q294 448 288 467T265 499T219 512Q201 512 184 507T154 491Q186 480 201 458T217 409Q217
372 192 351T131 329Q93 329 73 353T52 411Q52 441 67 461T111 499Q140 516 181 524T268 532Q315 532 354 523T422 485Q444 462 450 429T456 345V75Q456 50 460 41T475 31Q484 31 492 36T508 47L519 30Q497 12 467 3T402 -7Q362 -7 340 3T308 32T297 72Q275 36
242 15T159 -7ZM242 65Q258 65 270 71T294 94V302Q286 288 273 276T244 251T216 223T194 188T185 138Q185 99 201 82T242 65ZM273 826Q302 769 350 714T456 622L448 608Q389 621 334 639T244 676Q217 658 172 640T80 608L72 622Q128 657 176 712T255 826H273Z"
/>
<glyph unicode="&#xe3;" glyph-name="atilde" horiz-adv-x="524" d="M159 -7Q113 -7 83 10T39 57T25 119Q25 161 44 188T95 231T160 259T225 280T275 305T294 343V426Q294 448 288 467T265 499T219 512Q201 512 184 507T154 491Q186 480 201 458T217 409Q217 372
192 351T131 329Q93 329 73 353T52 411Q52 441 67 461T111 499Q140 516 181 524T268 532Q315 532 354 523T422 485Q444 462 450 429T456 345V75Q456 50 460 41T475 31Q484 31 492 36T508 47L519 30Q497 12 467 3T402 -7Q362 -7 340 3T308 32T297 72Q275 36 242
15T159 -7ZM242 65Q258 65 270 71T294 94V302Q286 288 273 276T244 251T216 223T194 188T185 138Q185 99 201 82T242 65ZM190 792Q222 792 244 782T284 759T321 736T365 726Q386 726 405 738T442 779L456 772Q439 691 405 656T330 621Q298 621 276 631T235 654T198
678T154 688Q133 688 114 676T77 634L63 641Q80 722 114 757T190 792Z" />
<glyph unicode="&#xe4;" glyph-name="adieresis" horiz-adv-x="524" d="M159 -7Q113 -7 83 10T39 57T25 119Q25 161 44 188T95 231T160 259T225 280T275 305T294 343V426Q294 448 288 467T265 499T219 512Q201 512 184 507T154 491Q186 480 201 458T217 409Q217
372 192 351T131 329Q93 329 73 353T52 411Q52 441 67 461T111 499Q140 516 181 524T268 532Q315 532 354 523T422 485Q444 462 450 429T456 345V75Q456 50 460 41T475 31Q484 31 492 36T508 47L519 30Q497 12 467 3T402 -7Q362 -7 340 3T308 32T297 72Q275 36
242 15T159 -7ZM242 65Q258 65 270 71T294 94V302Q286 288 273 276T244 251T216 223T194 188T185 138Q185 99 201 82T242 65ZM382 766Q414 766 438 742T463 685Q463 651 439 628T381 604Q348 604 324 628T300 685Q300 718 324 742T382 766ZM149 766Q181 766 205
742T230 685Q230 651 206 628T149 604Q115 604 91 628T67 685Q67 718 91 742T149 766Z" />
<glyph unicode="&#xe5;" glyph-name="aring" horiz-adv-x="524" d="M159 -7Q113 -7 83 10T39 57T25 119Q25 161 44 188T95 231T160 259T225 280T275 305T294 343V426Q294 448 288 467T265 499T219 512Q201 512 184 507T154 491Q186 480 201 458T217 409Q217 372
192 351T131 329Q93 329 73 353T52 411Q52 441 67 461T111 499Q140 516 181 524T268 532Q315 532 354 523T422 485Q444 462 450 429T456 345V75Q456 50 460 41T475 31Q484 31 492 36T508 47L519 30Q497 12 467 3T402 -7Q362 -7 340 3T308 32T297 72Q275 36 242
15T159 -7ZM242 65Q258 65 270 71T294 94V302Q286 288 273 276T244 251T216 223T194 188T185 138Q185 99 201 82T242 65ZM264 799Q309 799 343 773T377 700Q377 654 343 627T264 600Q220 600 186 627T152 700Q152 746 186 772T264 799ZM264 778Q234 778 207 758T180
699Q180 660 207 641T264 621Q295 621 322 640T349 699Q349 737 322 757T264 778Z" />
<glyph unicode="&#xe6;" glyph-name="ae" horiz-adv-x="739" d="M153 -7Q86 -7 56 28T25 114Q25 156 44 183T95 228T160 256T225 279T275 305T294 343V426Q294 448 288 467T265 499T219 512Q201 512 184 507T154 491Q186 480 201 458T217 409Q217 372 192 351T131
329Q93 329 73 353T52 411Q52 441 67 461T111 499Q140 516 181 524T268 532Q315 532 354 523T422 485Q443 462 449 429T456 344L329 117Q304 69 276 43T218 5T153 -7ZM240 65Q262 65 280 79T317 132L300 308Q290 292 275 280T245 255T216 227T194 192T185 141Q185
100 201 83T240 65ZM511 -14Q449 -14 400 13T322 99T293 256Q293 336 320 398T401 496T531 532Q614 532 662 480T710 309H411L409 328H574Q575 377 570 418T554 485T525 510Q498 510 480 467T458 321L462 314Q460 303 460 292T460 267Q460 198 477 157T520 99T572
82Q588 82 607 87T646 108T686 155L704 149Q692 110 668 73T605 11T511 -14Z" />
<glyph unicode="&#xe7;" glyph-name="ccedilla" horiz-adv-x="500" d="M285 532Q327 532 360 524T414 502Q440 486 456 461T472 403Q472 365 447 340T384 314Q345 314 323 337T300 396Q300 431 322 455T374 487Q366 495 354 500T324 505Q290 505 267 486T230 433T209
358T202 272Q202 198 221 157T270 99T331 82Q347 82 368 87T412 108T457 156L474 150Q463 111 437 73T370 11T270 -14Q204 -14 151 13T65 100T33 257Q33 351 66 411T156 502T285 532ZM261 1L243 -62Q260 -55 278 -52T318 -49Q354 -49 371 -64T389 -105Q389 -134
369 -152T316 -179T240 -188Q213 -188 191 -185T151 -175L157 -157Q164 -158 176 -160T203 -162Q219 -162 234 -158T260 -146T271 -123Q271 -97 240 -97Q232 -97 222 -98T204 -104L234 1H261Z" />
<glyph unicode="&#xe8;" glyph-name="egrave" horiz-adv-x="504" d="M285 532Q373 532 423 480T473 309H152L151 328H337Q339 377 333 418T314 485T278 510Q248 510 227 467T201 321L205 314Q203 303 203 292T203 267Q203 198 221 157T268 99T326 82Q343 82 364
87T408 108T452 155L469 149Q458 110 432 73T364 11T265 -14Q199 -14 147 13T65 100T34 256Q34 351 67 412T157 502T285 532ZM151 819Q172 837 198 833T241 809Q259 789 268 763T289 700T331 608L320 599Q275 639 243 661T187 698T148 733Q131 754 131 778T151
819Z" />
<glyph unicode="&#xe9;" glyph-name="eacute" horiz-adv-x="504" d="M285 532Q373 532 423 480T473 309H152L151 328H337Q339 377 333 418T314 485T278 510Q248 510 227 467T201 321L205 314Q203 303 203 292T203 267Q203 198 221 157T268 99T326 82Q343 82 364
87T408 108T452 155L469 149Q458 110 432 73T364 11T265 -14Q199 -14 147 13T65 100T34 256Q34 351 67 412T157 502T285 532ZM387 819Q406 804 406 779T390 733Q375 714 352 699T296 661T218 599L207 608Q236 663 248 700T270 763T297 809Q313 828 339 832T387
819Z" />
<glyph unicode="&#xea;" glyph-name="ecircumflex" horiz-adv-x="504" d="M285 532Q373 532 423 480T473 309H152L151 328H337Q339 377 333 418T314 485T278 510Q248 510 227 467T201 321L205 314Q203 303 203 292T203 267Q203 198 221 157T268 99T326 82Q343
82 364 87T408 108T452 155L469 149Q458 110 432 73T364 11T265 -14Q199 -14 147 13T65 100T34 256Q34 351 67 412T157 502T285 532ZM286 826Q315 769 363 714T469 622L461 608Q402 621 347 639T257 676Q230 658 185 640T93 608L85 622Q141 657 189 712T268 826H286Z"
/>
<glyph unicode="&#xeb;" glyph-name="edieresis" horiz-adv-x="504" d="M285 532Q373 532 423 480T473 309H152L151 328H337Q339 377 333 418T314 485T278 510Q248 510 227 467T201 321L205 314Q203 303 203 292T203 267Q203 198 221 157T268 99T326 82Q343 82
364 87T408 108T452 155L469 149Q458 110 432 73T364 11T265 -14Q199 -14 147 13T65 100T34 256Q34 351 67 412T157 502T285 532ZM395 766Q427 766 451 742T476 685Q476 651 452 628T394 604Q361 604 337 628T313 685Q313 718 337 742T395 766ZM162 766Q194 766
218 742T243 685Q243 651 219 628T162 604Q128 604 104 628T80 685Q80 718 104 742T162 766Z" />
<glyph unicode="&#xec;" glyph-name="igrave" horiz-adv-x="323" d="M245 529V93Q245 51 258 36T305 21V0Q285 1 246 2T167 4Q127 4 86 3T23 0V21Q56 21 69 36T83 93V409Q83 454 70 475T23 497V518Q55 515 85 515Q130 515 170 518T245 529ZM37 819Q58 837 84 833T127
809Q145 789 154 763T175 700T217 608L206 599Q161 639 129 661T73 698T34 733Q17 754 17 778T37 819Z" />
<glyph unicode="&#xed;" glyph-name="iacute" horiz-adv-x="323" d="M245 529V93Q245 51 258 36T305 21V0Q285 1 246 2T167 4Q127 4 86 3T23 0V21Q56 21 69 36T83 93V409Q83 454 70 475T23 497V518Q55 515 85 515Q130 515 170 518T245 529ZM273 819Q292 804 292
779T276 733Q261 714 238 699T182 661T104 599L93 608Q122 663 134 700T156 763T183 809Q199 828 225 832T273 819Z" />
<glyph unicode="&#xee;" glyph-name="icircumflex" horiz-adv-x="323" d="M245 529V93Q245 51 258 36T305 21V0Q285 1 246 2T167 4Q127 4 86 3T23 0V21Q56 21 69 36T83 93V409Q83 454 70 475T23 497V518Q55 515 85 515Q130 515 170 518T245 529ZM428 826Q457 769
505 714T611 622L603 608Q544 621 489 639T399 676Q372 658 327 640T235 608L227 622Q283 657 331 712T410 826H428Z" />
<glyph unicode="&#xef;" glyph-name="idieresis" horiz-adv-x="323" d="M245 529V93Q245 51 258 36T305 21V0Q285 1 246 2T167 4Q127 4 86 3T23 0V21Q56 21 69 36T83 93V409Q83 454 70 475T23 497V518Q55 515 85 515Q130 515 170 518T245 529ZM537 766Q569 766
593 742T618 685Q618 651 594 628T536 604Q503 604 479 628T455 685Q455 718 479 742T537 766ZM304 766Q336 766 360 742T385 685Q385 651 361 628T304 604Q270 604 246 628T222 685Q222 718 246 742T304 766Z" />
<glyph unicode="&#xf0;" glyph-name="eth" horiz-adv-x="571" d="M136 782Q218 756 290 713T417 610T503 474T534 305Q534 195 503 124T415 18T285 -16Q211 -16 155 10T68 93T35 246Q35 322 52 376T102 464T175 515T265 532Q308 532 339 515T390 460L377 457Q369
478 357 488T331 503T303 508Q271 508 249 482T216 401T204 259Q204 169 214 113T243 31T284 4Q307 4 326 31T356 123T368 299Q368 383 357 454T318 583T245 686T128 765L136 782ZM297 695L314 681L115 584L106 602L297 695ZM453 771L462 753L314 681L297 695L453
771Z" />
<glyph unicode="&#xf1;" glyph-name="ntilde" horiz-adv-x="619" d="M406 532Q450 532 476 521T517 493Q533 474 540 444T548 363V93Q548 51 561 36T608 21V0Q588 1 549 2T472 4Q431 4 393 3T336 0V21Q364 21 375 36T386 93V411Q386 434 381 450T364 475T330 484Q307
484 288 472T257 439T245 390V93Q245 51 256 36T295 21V0Q276 1 240 2T167 4Q126 4 85 3T23 0V21Q56 21 69 36T83 93V409Q83 454 70 475T23 497V518Q55 515 85 515Q130 515 170 518T245 529V448Q269 494 310 513T406 532ZM241 792Q273 792 295 782T335 759T372
736T416 726Q437 726 456 738T493 779L507 772Q490 691 456 656T381 621Q349 621 327 631T286 654T249 678T205 688Q184 688 165 676T128 634L114 641Q131 722 165 757T241 792Z" />
<glyph unicode="&#xf2;" glyph-name="ograve" horiz-adv-x="570" d="M285 532Q360 532 416 506T504 419T536 259Q536 159 505 99T417 13T285 -14Q211 -14 155 12T66 99T34 259Q34 359 66 419T154 505T285 532ZM285 512Q250 512 227 453T203 259Q203 125 226 66T285
6Q321 6 344 65T367 259Q367 393 344 452T285 512ZM160 819Q181 837 207 833T250 809Q268 789 277 763T298 700T340 608L329 599Q284 639 252 661T196 698T157 733Q140 754 140 778T160 819Z" />
<glyph unicode="&#xf3;" glyph-name="oacute" horiz-adv-x="570" d="M285 532Q360 532 416 506T504 419T536 259Q536 159 505 99T417 13T285 -14Q211 -14 155 12T66 99T34 259Q34 359 66 419T154 505T285 532ZM285 512Q250 512 227 453T203 259Q203 125 226 66T285
6Q321 6 344 65T367 259Q367 393 344 452T285 512ZM396 819Q415 804 415 779T399 733Q384 714 361 699T305 661T227 599L216 608Q245 663 257 700T279 763T306 809Q322 828 348 832T396 819Z" />
<glyph unicode="&#xf4;" glyph-name="ocircumflex" horiz-adv-x="570" d="M285 532Q360 532 416 506T504 419T536 259Q536 159 505 99T417 13T285 -14Q211 -14 155 12T66 99T34 259Q34 359 66 419T154 505T285 532ZM285 512Q250 512 227 453T203 259Q203 125 226
66T285 6Q321 6 344 65T367 259Q367 393 344 452T285 512ZM295 826Q324 769 372 714T478 622L470 608Q411 621 356 639T266 676Q239 658 194 640T102 608L94 622Q150 657 198 712T277 826H295Z" />
<glyph unicode="&#xf5;" glyph-name="otilde" horiz-adv-x="570" d="M285 532Q360 532 416 506T504 419T536 259Q536 159 505 99T417 13T285 -14Q211 -14 155 12T66 99T34 259Q34 359 66 419T154 505T285 532ZM285 512Q250 512 227 453T203 259Q203 125 226 66T285
6Q321 6 344 65T367 259Q367 393 344 452T285 512ZM211 792Q243 792 265 782T305 759T342 736T386 726Q407 726 426 738T463 779L477 772Q460 691 426 656T351 621Q319 621 297 631T256 654T219 678T175 688Q154 688 135 676T98 634L84 641Q101 722 135 757T211
792Z" />
<glyph unicode="&#xf6;" glyph-name="odieresis" horiz-adv-x="570" d="M285 532Q360 532 416 506T504 419T536 259Q536 159 505 99T417 13T285 -14Q211 -14 155 12T66 99T34 259Q34 359 66 419T154 505T285 532ZM285 512Q250 512 227 453T203 259Q203 125 226
66T285 6Q321 6 344 65T367 259Q367 393 344 452T285 512ZM404 766Q436 766 460 742T485 685Q485 651 461 628T403 604Q370 604 346 628T322 685Q322 718 346 742T404 766ZM171 766Q203 766 227 742T252 685Q252 651 228 628T171 604Q137 604 113 628T89 685Q89
718 113 742T171 766Z" />
<glyph unicode="&#xf7;" glyph-name="divide" horiz-adv-x="628" d="M315 266Q338 266 354 250T371 211Q371 188 355 172T315 155Q293 155 277 171T260 211Q260 234 276 250T315 266ZM315 554Q338 554 354 538T371 499Q371 476 355 460T315 444Q293 444 277 460T260
499Q260 522 276 538T315 554ZM567 370V340H66V370H567Z" />
<glyph unicode="&#xf8;" glyph-name="oslash" horiz-adv-x="570" d="M285 532Q360 532 416 506T504 419T536 259Q536 159 505 99T417 13T285 -14Q211 -14 155 12T66 99T34 259Q34 359 66 419T154 505T285 532ZM285 512Q250 512 227 453T203 259Q203 125 226 66T285
6Q321 6 344 65T367 259Q367 393 344 452T285 512ZM646 466L661 446L443 63L427 84L646 466ZM403 75L418 55L329 -73L310 -60L403 75ZM753 591L772 578L681 446L666 466L753 591Z" />
<glyph unicode="&#xf9;" glyph-name="ugrave" horiz-adv-x="614" d="M535 529V109Q535 64 548 43T595 21V0Q564 3 533 3Q487 3 448 0T373 -11V70Q349 25 308 6T213 -14Q169 -14 143 -3T102 26Q86 44 79 74T72 155V409Q72 454 59 475T12 497V518Q44 515 74 515Q120
515 160 518T234 529V107Q234 84 239 68T256 43T288 34Q311 34 330 46T361 79T373 128V409Q373 454 360 475T313 497V518Q345 515 375 515Q421 515 461 518T535 529ZM166 819Q187 837 213 833T256 809Q274 789 283 763T304 700T346 608L335 599Q290 639 258 661T202
698T163 733Q146 754 146 778T166 819Z" />
<glyph unicode="&#xfa;" glyph-name="uacute" horiz-adv-x="614" d="M535 529V109Q535 64 548 43T595 21V0Q564 3 533 3Q487 3 448 0T373 -11V70Q349 25 308 6T213 -14Q169 -14 143 -3T102 26Q86 44 79 74T72 155V409Q72 454 59 475T12 497V518Q44 515 74 515Q120
515 160 518T234 529V107Q234 84 239 68T256 43T288 34Q311 34 330 46T361 79T373 128V409Q373 454 360 475T313 497V518Q345 515 375 515Q421 515 461 518T535 529ZM402 819Q421 804 421 779T405 733Q390 714 367 699T311 661T233 599L222 608Q251 663 263 700T285
763T312 809Q328 828 354 832T402 819Z" />
<glyph unicode="&#xfb;" glyph-name="ucircumflex" horiz-adv-x="614" d="M535 529V109Q535 64 548 43T595 21V0Q564 3 533 3Q487 3 448 0T373 -11V70Q349 25 308 6T213 -14Q169 -14 143 -3T102 26Q86 44 79 74T72 155V409Q72 454 59 475T12 497V518Q44 515 74
515Q120 515 160 518T234 529V107Q234 84 239 68T256 43T288 34Q311 34 330 46T361 79T373 128V409Q373 454 360 475T313 497V518Q345 515 375 515Q421 515 461 518T535 529ZM301 826Q330 769 378 714T484 622L476 608Q417 621 362 639T272 676Q245 658 200 640T108
608L100 622Q156 657 204 712T283 826H301Z" />
<glyph unicode="&#xfc;" glyph-name="udieresis" horiz-adv-x="614" d="M535 529V109Q535 64 548 43T595 21V0Q564 3 533 3Q487 3 448 0T373 -11V70Q349 25 308 6T213 -14Q169 -14 143 -3T102 26Q86 44 79 74T72 155V409Q72 454 59 475T12 497V518Q44 515 74 515Q120
515 160 518T234 529V107Q234 84 239 68T256 43T288 34Q311 34 330 46T361 79T373 128V409Q373 454 360 475T313 497V518Q345 515 375 515Q421 515 461 518T535 529ZM410 766Q442 766 466 742T491 685Q491 651 467 628T409 604Q376 604 352 628T328 685Q328 718
352 742T410 766ZM177 766Q209 766 233 742T258 685Q258 651 234 628T177 604Q143 604 119 628T95 685Q95 718 119 742T177 766Z" />
<glyph unicode="&#xfd;" glyph-name="yacute" horiz-adv-x="524" d="M519 518V497Q500 491 483 472T449 406L316 22L272 -71L43 441Q26 479 10 488T-17 497V518Q20 515 59 514T133 512Q177 512 211 514T275 518V497Q256 497 239 495T216 484T219 450L346 146L336
139L397 316Q418 377 415 416T392 475T341 497V518Q356 517 374 516T411 515T442 514Q461 514 484 515T519 518ZM316 22L276 -92Q267 -117 257 -135T232 -164Q218 -175 197 -181T142 -188Q116 -188 88 -180T40 -152T20 -101Q20 -68 44 -49T109 -29Q146 -29 168
-46T191 -97Q191 -118 177 -138T133 -168Q140 -169 148 -169T162 -170Q193 -170 217 -151T255 -90L290 16L316 22ZM369 819Q388 804 388 779T372 733Q357 714 334 699T278 661T200 599L189 608Q218 663 230 700T252 763T279 809Q295 828 321 832T369 819Z" />
<glyph unicode="&#xfe;" glyph-name="thorn" horiz-adv-x="593" d="M228 782V-80Q228 -128 251 -144T316 -160V-181Q289 -180 241 -179T140 -177Q101 -177 64 -178T8 -181V-160Q40 -160 53 -146T66 -90V662Q66 707 53 728T6 750V771Q38 768 68 768Q113 768 153
771T228 782ZM381 532Q432 532 471 505T534 422T558 282Q558 203 541 147T492 55T418 3T325 -14Q289 -14 258 -4T208 30L218 43Q227 29 242 22T277 15Q318 15 342 43T378 127T389 261Q389 348 379 396T352 465T312 485Q280 485 254 461T226 394L224 436Q244 484
285 508T381 532Z" />
<glyph unicode="&#xff;" glyph-name="ydieresis" horiz-adv-x="524" d="M519 518V497Q500 491 483 472T449 406L316 22L272 -71L43 441Q26 479 10 488T-17 497V518Q20 515 59 514T133 512Q177 512 211 514T275 518V497Q256 497 239 495T216 484T219 450L346 146L336
139L397 316Q418 377 415 416T392 475T341 497V518Q356 517 374 516T411 515T442 514Q461 514 484 515T519 518ZM316 22L276 -92Q267 -117 257 -135T232 -164Q218 -175 197 -181T142 -188Q116 -188 88 -180T40 -152T20 -101Q20 -68 44 -49T109 -29Q146 -29 168
-46T191 -97Q191 -118 177 -138T133 -168Q140 -169 148 -169T162 -170Q193 -170 217 -151T255 -90L290 16L316 22ZM377 766Q409 766 433 742T458 685Q458 651 434 628T376 604Q343 604 319 628T295 685Q295 718 319 742T377 766ZM144 766Q176 766 200 742T225 685Q225
651 201 628T144 604Q110 604 86 628T62 685Q62 718 86 742T144 766Z" />
<glyph unicode="&#x2013;" glyph-name="endash" horiz-adv-x="613" d="M558 331V211H55V331H558Z" />
<glyph unicode="&#x2014;" glyph-name="emdash" horiz-adv-x="906" d="M851 331V211H55V331H851Z" />
<glyph unicode="&#x2018;" glyph-name="quoteleft" horiz-adv-x="262" d="M139 442Q114 442 95 451T64 478Q54 493 48 516T41 567Q41 617 66 660T146 729L155 711Q128 699 107 676T80 626Q73 601 78 578Q102 605 144 605Q181 605 204 584T227 524Q227 487 203
465T139 442Z" />
<glyph unicode="&#x2019;" glyph-name="quoteright" horiz-adv-x="255" d="M119 722Q144 722 163 713T194 686Q205 672 211 648T218 597Q218 547 192 504T112 435L103 453Q130 465 151 488T178 538Q186 563 180 586Q156 559 114 559Q77 559 54 580T31 641Q31 677
55 699T119 722Z" />
<glyph unicode="&#x201a;" glyph-name="quotesinglbase" horiz-adv-x="275" d="M133 149Q158 149 177 140T208 113Q219 99 225 75T232 24Q232 -26 206 -69T126 -138L117 -120Q144 -108 165 -85T192 -35Q200 -10 194 13Q170 -14 128 -14Q91 -14 68 7T45 68Q45 104
69 126T133 149Z" />
<glyph unicode="&#x201c;" glyph-name="quotedblleft" horiz-adv-x="480" d="M139 441Q114 441 95 450T64 477Q54 492 48 515T41 566Q41 616 66 659T146 728L155 710Q128 698 107 675T80 625Q73 600 78 577Q102 604 144 604Q181 604 204 583T227 523Q227 486 203
464T139 441ZM357 441Q332 441 313 450T282 477Q272 492 266 515T259 566Q259 616 284 659T364 728L373 710Q346 698 325 675T298 625Q291 600 296 577Q320 604 362 604Q399 604 422 583T445 523Q445 486 421 464T357 441Z" />
<glyph unicode="&#x201d;" glyph-name="quotedblright" horiz-adv-x="473" d="M337 722Q362 722 381 713T412 686Q423 672 429 648T436 597Q436 547 410 504T330 435L321 453Q348 465 369 488T396 538Q404 563 398 586Q374 559 332 559Q295 559 272 580T249 641Q249
677 273 699T337 722ZM119 722Q144 722 163 713T194 686Q205 672 211 648T218 597Q218 547 192 504T112 435L103 453Q130 465 151 488T178 538Q186 563 180 586Q156 559 114 559Q77 559 54 580T31 641Q31 677 55 699T119 722Z" />
<glyph unicode="&#x201e;" glyph-name="quotedblbase" horiz-adv-x="493" d="M351 149Q376 149 395 140T426 113Q437 99 443 75T450 24Q450 -26 424 -69T344 -138L335 -120Q362 -108 383 -85T410 -35Q418 -10 412 13Q388 -14 346 -14Q309 -14 286 7T263 68Q263
104 287 126T351 149ZM133 149Q158 149 177 140T208 113Q219 99 225 75T232 24Q232 -26 206 -69T126 -138L117 -120Q144 -108 165 -85T192 -35Q200 -10 194 13Q170 -14 128 -14Q91 -14 68 7T45 68Q45 104 69 126T133 149Z" />
<glyph unicode="&#x2022;" glyph-name="bullet" horiz-adv-x="500" d="M250 446Q299 446 339 423T403 359T427 269Q427 220 403 180T339 117T250 93Q201 93 161 116T97 180T73 269Q73 319 97 359T161 422T250 446Z" />
<glyph unicode="&#x2039;" glyph-name="guilsinglleft" horiz-adv-x="373" d="M315 534L329 529Q320 495 306 456T273 380T236 312T198 259Q217 239 236 208T273 139T305 63T329 -11L315 -16Q251 60 181 127T24 251V267Q110 323 180 390T315 534Z" />
<glyph unicode="&#x203a;" glyph-name="guilsinglright" horiz-adv-x="374" d="M59 534Q124 458 194 391T350 267V251Q264 195 194 128T59 -16L45 -11Q54 24 68 62T101 138T138 206T176 258Q158 279 139 310T101 379T69 455T45 529L59 534Z" />
</font>
</defs>
</svg>
