<?xml version="1.0" standalone="no"?>
<!DOCTYPE svg PUBLIC "-//W3C//DTD SVG 1.1//EN" "http://www.w3.org/Graphics/SVG/1.1/DTD/svg11.dtd">
<svg xmlns="http://www.w3.org/2000/svg">
<defs >
<font id="PlayfairDisplay" horiz-adv-x="579" ><font-face
    font-family="Playfair Display Medium"
    units-per-em="1000"
    panose-1="0 0 0 0 0 0 0 0 0 0"
    ascent="1082"
    descent="-251"
    alphabetic="0" />
<glyph unicode=" " glyph-name="space" horiz-adv-x="244" />
<glyph unicode="!" glyph-name="exclam" horiz-adv-x="271" d="M135 782Q159 782 176 765T193 712Q193 672 186 615T170 491T153 348T144 196V196H126Q126 273 119 348T102 490T85 615T77 712Q77 748 94 765T135 782ZM135 123Q166 123 186 104T206 54Q206 25 186
6T135 -14Q105 -14 85 5T64 54Q64 84 84 103T135 123Z" />
<glyph unicode="&quot;" glyph-name="quotedbl" horiz-adv-x="322" d="M98 730Q117 730 130 716T143 677Q143 645 138 618T124 556T105 468H91Q82 519 73 553T59 615T53 676Q53 701 66 715T98 730ZM224 730Q243 730 256 716T269 677Q269 645 264 618T250 556T231
468H217Q208 519 199 553T185 615T179 676Q179 701 192 715T224 730Z" />
<glyph unicode="#" glyph-name="numbersign" horiz-adv-x="631" d="M468 602L371 101H351L448 602H468ZM550 267L546 247H45L49 267H550ZM281 602L184 101H164L261 602H281ZM586 454L583 434H82L85 454H586Z" />
<glyph unicode="$" glyph-name="dollar" horiz-adv-x="540" d="M258 720Q311 720 339 708T388 682Q400 675 407 672T422 668Q432 668 436 679T444 712H467Q466 694 465 670T463 605T462 500H439Q434 553 416 598T362 672T269 700Q214 700 181 670T148 591Q148
561 159 538T193 494T248 452T324 403Q375 371 414 340T477 270T501 178Q501 113 470 71T389 7T277 -14Q221 -14 189 -2T134 23Q122 30 114 33T98 37Q88 37 84 26T76 -7H53Q55 15 55 44T56 122T57 243H80Q83 190 95 147T129 72T186 24T271 7Q308 7 337 20T384 60T402
130Q402 157 393 180T363 223T311 267T236 317Q189 347 148 377T83 448T58 543Q58 604 86 643T160 701T258 720ZM240 840V-132H220V840H240ZM328 840V-132H308V840H328Z" />
<glyph unicode="%" glyph-name="percent" horiz-adv-x="737" d="M188 761Q257 761 299 718T341 598Q341 548 321 510T267 451T188 430Q119 430 77 473T34 593Q34 643 54 681T109 740T188 761ZM546 299Q509 299 491 261T473 150Q473 77 494 41T550 4Q587 4 604
42T622 152Q622 226 602 262T546 299ZM548 317Q617 317 659 274T701 154Q701 104 681 66T627 7T548 -14Q479 -14 437 29T394 149Q394 199 414 237T469 296T548 317ZM186 743Q149 743 131 705T113 594Q113 521 134 485T190 448Q227 448 244 486T262 596Q262 670
242 706T186 743ZM657 824L676 811L91 -55L72 -42L657 824Z" />
<glyph unicode="&amp;" glyph-name="ampersand" horiz-adv-x="857" d="M315 705Q353 705 377 698T419 678Q433 669 442 657T458 632T464 605Q464 578 445 563T401 547Q377 547 360 561T342 601Q342 624 358 641T398 662Q393 673 374 681T326 689Q274 689 241 658T207
566Q207 540 216 512T254 456Q271 459 287 461T314 463Q332 463 342 457T353 438Q353 429 345 424T325 419Q306 419 286 427T255 442Q200 423 167 385T133 279Q133 211 169 165T267 94T409 70Q461 70 509 82T594 117T654 174T676 250Q676 268 669 296T640 351T570
394L580 404Q647 383 677 335T707 227Q707 164 669 109T559 20T388 -14Q317 -14 256 3T148 52T76 131T50 235Q50 290 71 328T125 392T189 431T241 450Q208 464 185 483T149 527T136 578Q136 605 149 628T185 668T241 695T315 705ZM688 722Q753 722 796 686T839
585Q839 545 823 516T777 466T708 432Q688 423 656 413T588 391T520 370T466 352Q416 337 385 317T354 262Q354 236 369 218T407 191T451 182Q459 182 471 184T492 190T504 200Q485 204 471 217T456 256Q456 282 474 297T520 312Q548 312 564 296T581 254Q581 225
562 205T514 176T454 166Q422 166 392 178T342 217T322 287Q322 328 341 357T397 409T488 445Q515 454 552 464T629 485T701 511Q758 533 783 556T808 608Q808 637 792 658T750 693T693 706Q682 706 675 705T664 698Q681 691 690 676T699 647Q699 622 680 608T635
593Q611 593 592 607T573 648Q573 674 590 690T633 714T688 722Z" />
<glyph unicode="&apos;" glyph-name="quotesingle" horiz-adv-x="196" d="M98 730Q117 730 130 716T143 677Q143 645 138 618T124 556T105 468H91Q82 519 73 553T59 615T53 676Q53 701 66 715T98 730Z" />
<glyph unicode="(" glyph-name="parenleft" horiz-adv-x="302" d="M271 806L285 793Q207 693 175 577T143 312Q143 164 175 48T285 -169L271 -182Q164 -91 103 31T41 312Q41 470 102 592T271 806Z" />
<glyph unicode=")" glyph-name="parenright" horiz-adv-x="302" d="M31 806Q138 715 199 593T261 312Q261 154 200 32T31 -182L17 -169Q95 -68 127 48T159 312Q159 461 127 577T17 793L31 806Z" />
<glyph unicode="*" glyph-name="asterisk" horiz-adv-x="488" d="M359 632Q385 647 402 642T427 623Q435 611 431 594T400 562Q375 548 338 541T244 517L243 520Q282 559 308 588T359 632ZM245 520Q299 505 337 497T401 475Q427 460 431 443T426 412Q420 400 403
395T360 405Q335 419 310 447T243 517L245 520ZM246 518Q261 465 273 427T286 361Q285 331 272 319T244 307Q229 307 217 318T204 361Q204 390 216 426T243 518H246ZM243 519L245 516Q206 478 180 448T129 404Q103 389 86 394T61 413Q54 425 58 442T88 474Q113
488 150 496T243 519ZM128 631Q153 617 178 589T244 519L243 516Q190 531 151 539T87 561Q62 576 58 593T62 624Q69 636 85 641T128 631ZM244 729Q260 729 272 717T284 675Q284 647 273 611T245 518H242Q228 571 216 609T203 675Q203 705 216 717T244 729Z" />
<glyph unicode="+" glyph-name="plus" horiz-adv-x="583" d="M310 606V370H542V340H310V105H274V340H41V370H274V606H310Z" />
<glyph unicode="," glyph-name="comma" horiz-adv-x="264" d="M128 123Q151 123 166 114T191 90Q202 74 205 54T209 18Q209 -31 184 -72T106 -138L97 -120Q127 -107 149 -80T173 -25Q174 -10 171 3Q153 -14 127 -14Q98 -14 78 4T58 54Q58 85 78 104T128 123Z" />
<glyph unicode="-" glyph-name="hyphen" horiz-adv-x="493" d="M427 303V236H66V303H427Z" />
<glyph unicode="." glyph-name="period" horiz-adv-x="258" d="M129 123Q159 123 179 104T200 54Q200 25 180 6T129 -14Q99 -14 79 5T58 54Q58 84 78 103T129 123Z" />
<glyph unicode="/" glyph-name="slash" horiz-adv-x="371" d="M338 722L66 -14H33L305 722H338Z" />
<glyph unicode="0" glyph-name="zero" horiz-adv-x="615" d="M313 530Q387 530 443 498T532 406T565 266Q565 186 532 123T440 23T302 -14Q230 -14 173 18T83 110T50 250Q50 329 82 392T174 493T313 530ZM304 512Q243 512 204 444T165 253Q165 163 185 109T238
29T311 4Q372 4 411 72T450 263Q450 353 430 408T377 487T304 512Z" />
<glyph unicode="1" glyph-name="one" horiz-adv-x="374" d="M263 527V101Q263 54 283 38T351 21V0Q331 1 293 2T213 4Q165 4 121 3T53 0V21Q101 21 128 37T155 103V346Q155 394 146 417T112 447T45 454V476Q121 478 172 489T263 527Z" />
<glyph unicode="2" glyph-name="two" horiz-adv-x="494" d="M254 530Q326 530 368 497T410 403Q410 364 391 330T342 264T276 204T209 148T153 91H361Q402 91 413 102T428 140H446Q446 82 447 51T450 -5Q441 -3 417 -2T362 -1T301 0H48V18Q77 50 119 87T200 168T266
264T293 378Q293 434 268 459T195 484Q154 484 121 462T61 395L45 405Q62 437 89 465T156 512T254 530Z" />
<glyph unicode="3" glyph-name="three" horiz-adv-x="463" d="M233 530Q278 530 312 517T366 478T386 415Q386 377 364 344T304 288T219 250Q273 251 319 234T393 184T422 98Q422 52 400 14T338 -55T249 -107T143 -140T34 -151V-132Q84 -131 133 -116T221 -72T285
0T309 98Q309 157 281 195T204 238Q189 231 177 227T155 222Q147 222 143 225T138 236Q138 246 147 251T166 256Q174 256 182 255T201 252Q243 282 260 318T278 392Q278 439 255 460T191 482Q150 482 116 461T59 396L41 405Q57 438 82 466T144 512T233 530Z" />
<glyph unicode="4" glyph-name="four" horiz-adv-x="505" d="M355 530L359 504L68 105L72 127H382Q423 127 434 138T449 176H467Q467 123 468 95T471 43Q464 45 448 45T408 47T361 48T314 48H14V69L355 530ZM371 530V-141H279V412L355 530H371Z" />
<glyph unicode="5" glyph-name="five" horiz-adv-x="430" d="M351 562Q351 502 352 469T355 408Q347 410 325 411T273 412T216 413H94L81 228Q103 241 133 251T209 261Q272 261 312 241T372 185T392 106Q392 48 361 1T279 -79T165 -130T40 -148V-130Q85 -130 127
-116T204 -72T258 -1T279 97Q279 160 248 195T157 230Q130 230 112 225T72 209L61 216L84 519Q95 517 109 516T138 515H268Q305 515 316 525T331 562H351Z" />
<glyph unicode="6" glyph-name="six" horiz-adv-x="532" d="M411 723L415 703Q381 692 346 675T279 628T222 552T182 436T167 270Q167 167 184 110T226 29T277 6Q304 6 328 26T366 93T381 214Q381 286 368 329T332 391T281 410Q261 410 237 400T192 367T161 302L152
299Q158 352 184 382T246 426T311 439Q360 439 402 413T470 339T496 221Q496 146 465 93T382 13T267 -14Q167 -14 110 60T52 270Q52 361 75 431T137 552T223 639T320 694T411 723Z" />
<glyph unicode="7" glyph-name="seven" horiz-adv-x="422" d="M26 520Q35 518 59 517T114 516T175 515H417V494Q396 445 367 392T309 277T261 145T243 -10Q243 -23 244 -37T246 -65T247 -90Q247 -114 233 -131T191 -148Q164 -148 151 -129T137 -81Q137 -18 155
42T203 159T267 271T335 376T395 476L368 418H115Q74 418 63 408T48 369H30Q30 427 29 461T26 520Z" />
<glyph unicode="8" glyph-name="eight" horiz-adv-x="534" d="M275 722Q324 722 363 706T426 659T450 584Q450 525 410 481T305 398L297 412Q320 433 333 459T352 514T358 573Q358 632 334 668T265 704Q227 704 203 678T178 605Q178 559 200 523T257 457T332 398T406
336T464 265T486 176Q486 120 457 77T377 10T260 -14Q204 -14 156 4T79 61T49 155Q49 206 72 246T135 316T223 368L231 354Q185 320 167 272T149 171Q149 127 160 89T197 28T266 4Q315 4 349 36T383 127Q383 175 362 212T306 282T233 344T160 406T104 476T82 564Q82
613 108 648T178 703T275 722Z" />
<glyph unicode="9" glyph-name="nine" horiz-adv-x="524" d="M264 530Q364 530 421 460T478 262Q478 180 455 117T394 6T308 -73T213 -123T121 -149L117 -129Q159 -117 202 -95T282 -31T341 82T363 262Q363 360 347 413T305 488T254 510Q227 510 203 490T164 423T149
302Q149 230 162 187T199 125T250 106Q270 106 294 116T340 149T369 214L379 217Q372 163 346 133T285 90T220 77Q171 77 129 102T60 176T34 295Q34 370 65 423T149 503T264 530Z" />
<glyph unicode=":" glyph-name="colon" horiz-adv-x="274" d="M137 529Q167 529 187 510T208 460Q208 431 188 412T137 392Q107 392 87 411T66 460Q66 490 86 509T137 529ZM137 123Q167 123 187 104T208 54Q208 25 188 6T137 -14Q107 -14 87 5T66 54Q66 84 86
103T137 123Z" />
<glyph unicode=";" glyph-name="semicolon" horiz-adv-x="289" d="M139 123Q162 123 177 114T202 90Q213 74 216 54T220 18Q220 -31 195 -72T117 -138L108 -120Q138 -107 160 -80T184 -25Q185 -10 182 3Q164 -14 138 -14Q109 -14 89 4T69 54Q69 85 89 104T139
123ZM146 529Q176 529 196 510T217 460Q217 431 197 412T146 392Q116 392 96 411T75 460Q75 490 95 509T146 529Z" />
<glyph unicode="&lt;" glyph-name="less" horiz-adv-x="606" d="M516 582L533 546L124 355L533 164L516 128L29 355L516 582Z" />
<glyph unicode="=" glyph-name="equal" horiz-adv-x="643" d="M572 440V410H71V440H572ZM572 300V270H71V300H572Z" />
<glyph unicode="&gt;" glyph-name="greater" horiz-adv-x="606" d="M90 582L577 355L90 128L73 164L482 355L73 546L90 582Z" />
<glyph unicode="?" glyph-name="question" horiz-adv-x="475" d="M222 782Q288 782 337 761T414 699T442 602Q442 546 413 502T330 428T207 380V234H187V389Q251 414 282 444T324 509T335 583Q335 678 298 720T201 762Q176 762 149 756T107 729Q128 724 140 710T153
671Q153 644 135 628T90 611Q64 611 48 628T31 669Q31 694 45 713T82 746Q104 760 138 771T222 782ZM198 123Q229 123 249 104T269 54Q269 25 249 6T198 -14Q168 -14 148 5T127 54Q127 84 147 103T198 123Z" />
<glyph unicode="@" glyph-name="at" horiz-adv-x="880" d="M533 668Q620 668 691 640T804 552T847 393Q847 309 820 241T749 125T654 52T555 26Q515 26 499 42T481 82T485 129T495 166L556 464Q581 464 608 467T658 478L575 113Q570 91 570 77T576 58T599 54Q628
57 667 80T742 147T803 252T827 394Q827 487 787 543T680 624T534 650Q460 650 391 624T263 551T161 440T93 301T68 145Q68 42 107 -21T214 -114T370 -143Q424 -143 475 -131T576 -89L583 -102Q546 -128 491 -144T369 -161Q275 -161 203 -129T89 -30T48 143Q48
224 72 300T140 443T245 560T378 639T533 668ZM473 478Q499 478 517 467T543 435T549 383L540 378Q541 401 535 417T516 442T484 451Q454 451 427 425T379 356T346 260T334 154Q334 106 347 84T383 62Q420 62 456 117T517 272L524 255Q503 175 477 125T419 50T342
26Q305 26 282 41T247 85T235 150Q235 206 255 263T310 369T386 448T473 478Z" />
<glyph unicode="A" glyph-name="A" horiz-adv-x="642" d="M338 712L582 84Q596 47 614 34T649 20V0Q625 2 593 2T527 3Q485 3 449 3T391 0V20Q442 22 455 37T449 104L269 590L285 608L119 174Q101 129 98 99T102 52T132 28T184 20V0Q154 2 124 2T66 3Q42 3 24
3T-10 0V20Q11 25 32 45T72 113L304 712Q312 712 321 712T338 712ZM443 288V268H145L155 288H443Z" />
<glyph unicode="B" glyph-name="B" horiz-adv-x="639" d="M39 708Q62 707 98 706T171 705Q219 705 262 706T324 707Q436 707 491 663T547 550Q547 515 531 481T477 419T379 375V373Q463 364 511 337T579 273T599 194Q599 135 569 92T483 24T347 0Q325 0 281 1T173
3Q135 3 99 3T39 0V20Q73 22 90 28T112 52T118 106V602Q118 639 113 656T90 680T39 688V708ZM303 688Q260 688 247 671T233 602V106Q233 71 239 53T260 29T306 23Q396 23 436 68T477 198Q477 275 437 317T303 359H206Q206 359 206 367T206 376H292Q347 376 377
398T418 458T429 539Q429 613 400 650T303 688Z" />
<glyph unicode="C" glyph-name="C" horiz-adv-x="694" d="M380 722Q446 722 488 703T564 657Q584 642 594 653T609 708H632Q630 670 629 617T628 474H605Q598 518 592 546T575 594T546 633Q517 669 475 685T386 701Q335 701 296 676T231 603T190 492T176 352Q176
274 191 211T234 102T303 32T394 7Q435 7 479 23T549 74Q577 104 587 141T605 244H628Q628 152 629 96T632 0H609Q605 43 596 54T564 51Q527 25 486 6T379 -14Q280 -14 206 29T91 153T50 348Q50 460 92 544T209 675T380 722Z" />
<glyph unicode="D" glyph-name="D" horiz-adv-x="741" d="M324 708Q509 708 599 619T689 362Q689 253 645 172T518 45T315 0Q300 0 275 1T222 2T173 3Q135 3 99 3T39 0V20Q73 22 90 28T112 52T118 106V602Q118 639 113 656T90 680T39 688V708Q62 707 98 706T171
705Q207 706 251 707T324 708ZM307 690Q261 690 247 673T233 604V104Q233 52 247 35T308 18Q409 18 465 57T544 173T567 358Q567 470 542 543T461 653T307 690Z" />
<glyph unicode="E" glyph-name="E" horiz-adv-x="617" d="M550 708Q546 670 545 635T543 580Q543 561 544 544T546 516H523Q516 580 502 617T459 669T379 685H310Q278 685 262 680T239 658T233 606V102Q233 68 239 51T261 29T310 23H375Q432 23 465 41T516 100T543
212H566Q563 183 563 136Q563 116 564 78T570 0Q519 2 455 2T341 3Q318 3 282 3T205 3T121 2T39 0V20Q73 22 90 28T112 52T118 106V602Q118 639 113 656T90 680T39 688V708Q78 707 120 707T204 706T282 705T341 705Q387 705 445 705T550 708ZM384 366Q384 366 384
356T384 346H203Q203 346 203 356T203 366H384ZM413 498Q409 441 409 411T410 356Q410 331 411 301T416 214H393Q388 247 380 277T352 327T288 346V366Q320 366 338 379T367 413T381 456T390 498H413Z" />
<glyph unicode="F" glyph-name="F" horiz-adv-x="577" d="M550 708Q546 668 545 630T543 572Q543 549 544 528T546 492H523Q514 565 499 606T452 666T363 685H310Q278 685 262 680T239 658T233 606V108Q233 71 241 53T271 28T336 21V0Q309 2 266 2T177 3Q137 3
101 3T39 0V20Q73 22 90 28T112 52T118 106V602Q118 639 113 656T90 680T39 688V708Q78 707 120 707T204 706T282 705T341 705Q387 705 445 705T550 708ZM397 358Q397 358 397 348T397 338H203Q203 338 203 348T203 358H397ZM418 490Q414 433 414 403T415 348Q415
323 416 293T421 206H398Q394 239 386 269T357 319T294 338V358Q326 358 344 371T373 405T387 448T395 490H418Z" />
<glyph unicode="G" glyph-name="G" horiz-adv-x="714" d="M386 722Q452 722 493 703T568 657Q581 647 588 647Q607 647 613 708H636Q634 670 633 617T632 474H609Q602 522 591 563T551 633Q524 665 481 683T392 701Q340 701 300 676T233 603T191 493T176 353Q176
173 231 90T399 6Q431 6 454 15T492 33Q509 45 514 56T519 87V184Q519 227 512 247T482 275T418 284V304Q437 303 463 303T517 302T569 301Q605 301 634 302T683 304V284Q662 283 652 277T638 253T634 198V0H614Q613 17 607 37T587 57Q580 57 573 54T547 39Q512
15 474 1T388 -14Q281 -14 205 28T90 151T50 343Q50 459 93 544T212 675T386 722Z" />
<glyph unicode="H" glyph-name="H" horiz-adv-x="771" d="M459 0V20Q493 22 510 28T532 52T538 106V602Q538 639 533 656T510 680T459 688V708Q484 707 521 706T596 705Q638 705 674 706T732 708V688Q699 687 682 681T659 657T653 602V106Q653 70 659 52T682 28T732
20V0Q710 2 674 2T596 3Q559 3 522 3T459 0ZM39 0V20Q73 22 90 28T112 52T118 106V602Q118 639 113 656T90 680T39 688V708Q62 707 98 706T177 705Q215 705 251 706T312 708V688Q279 687 262 681T239 657T233 602V106Q233 70 239 52T262 28T312 20V0Q288 2 252
2T177 3Q135 3 99 3T39 0ZM188 346V366H583V346H188Z" />
<glyph unicode="I" glyph-name="I" horiz-adv-x="351" d="M312 708V688Q279 687 262 681T239 657T233 602V106Q233 70 239 52T262 28T312 20V0Q288 2 252 2T177 3Q135 3 99 3T39 0V20Q73 22 90 28T112 52T118 106V602Q118 639 113 656T90 680T39 688V708Q62 707
98 706T177 705Q215 705 251 706T312 708Z" />
<glyph unicode="J" glyph-name="J" horiz-adv-x="339" d="M-21 -188V-169Q22 -167 52 -147T97 -78T112 53V602Q112 639 107 656T84 680T33 688V708Q56 707 92 706T168 705Q207 705 244 706T306 708V688Q273 687 256 681T233 657T227 602V236Q227 195 227 147T223
54T210 -25Q192 -95 134 -141T-21 -188Z" />
<glyph unicode="K" glyph-name="K" horiz-adv-x="675" d="M640 708V688Q608 683 577 666T513 608L321 368L355 429L595 81Q611 57 629 43T677 20V0Q650 2 612 2T545 3Q527 3 501 3T434 0V20Q471 22 479 32T472 65L327 290Q309 318 295 332T266 351T229 357V378Q271
379 301 397T359 446L442 551Q477 594 487 624T482 671T426 688V708Q447 707 467 707T509 706T552 705Q579 705 601 706T640 708ZM312 708V688Q279 687 262 681T239 657T233 602V106Q233 70 239 52T262 28T312 20V0Q288 2 252 2T177 3Q135 3 99 3T39 0V20Q73 22
90 28T112 52T118 106V602Q118 639 113 656T90 680T39 688V708Q62 707 98 706T177 705Q215 705 251 706T312 708Z" />
<glyph unicode="L" glyph-name="L" horiz-adv-x="596" d="M314 708V688Q280 687 263 681T239 657T233 602V102Q233 68 238 51T260 29T308 23H373Q416 23 445 35T495 71T526 133T543 222H566Q563 190 563 138Q563 118 564 80T570 0Q519 2 455 2T341 3Q318 3 282
3T205 3T121 2T39 0V20Q73 22 90 28T112 52T118 106V602Q118 639 113 656T90 680T39 688V708Q62 707 98 706T177 705Q215 705 252 706T314 708Z" />
<glyph unicode="M" glyph-name="M" horiz-adv-x="890" d="M851 708V688Q817 687 800 681T778 657T772 602V106Q772 70 777 52T800 28T851 20V0Q826 2 789 2T714 3Q672 3 635 3T576 0V20Q610 22 627 28T651 52T657 106V653L662 651L416 -4H400L142 644V132Q142
90 148 67T174 33T235 20V0Q216 2 187 2T131 3Q106 3 81 3T40 0V20Q73 23 90 32T113 65T119 128V602Q119 639 113 656T90 680T40 688V708Q56 707 81 706T131 705Q160 705 189 706T240 708L461 140L442 127L659 705Q672 705 686 705T714 705Q752 705 789 706T851
708Z" />
<glyph unicode="N" glyph-name="N" horiz-adv-x="711" d="M678 708V688Q644 686 627 676T605 644T599 580V-4Q591 -4 583 -4T566 -4L142 612V132Q142 90 148 67T174 33T235 20V0Q216 2 187 2T131 3Q106 3 81 3T40 0V20Q73 23 90 32T113 65T119 128V602Q119 639
113 656T90 680T40 688V708Q56 707 81 706T131 705Q153 705 174 706T211 708L576 186V576Q576 619 570 642T543 675T483 688V708Q501 707 531 706T587 705Q612 705 637 706T678 708Z" />
<glyph unicode="O" glyph-name="O" horiz-adv-x="758" d="M380 722Q478 722 552 679T668 556T709 360Q709 248 667 164T550 33T379 -14Q280 -14 206 29T91 153T50 348Q50 460 92 544T209 675T380 722ZM376 704Q314 704 268 659T197 535T172 352Q172 246 200 168T276
47T383 4Q445 4 490 49T561 173T587 356Q587 463 559 541T483 661T376 704Z" />
<glyph unicode="P" glyph-name="P" horiz-adv-x="604" d="M39 708Q62 707 98 706T171 705Q219 705 262 706T324 707Q451 707 514 652T577 510Q577 474 565 435T521 362T437 307T302 286H204V306H292Q359 306 394 333T442 404T455 499Q455 594 421 641T303 688Q260
688 247 671T233 602V108Q233 71 241 53T271 28T336 21V0Q309 2 266 2T177 3Q137 3 101 3T39 0V20Q73 22 90 28T112 52T118 106V602Q118 639 113 656T90 680T39 688V708Z" />
<glyph unicode="Q" glyph-name="Q" horiz-adv-x="758" d="M753 -11L769 -17Q759 -63 743 -94T704 -145Q685 -162 652 -175T571 -188Q518 -188 468 -171T364 -129T247 -82Q240 -80 234 -78T223 -75Q204 -83 182 -87T140 -92Q120 -92 107 -87T94 -70Q94 -47 148
-47Q183 -47 223 -57Q260 -47 286 -35T340 -11T407 3L408 -13Q378 -16 356 -24T311 -43T258 -62Q315 -70 375 -79T489 -94T583 -98Q651 -96 691 -76T753 -11ZM380 722Q478 722 552 679T668 556T709 360Q709 248 667 164T550 33T379 -14Q280 -14 206 29T91 153T50
348Q50 460 92 544T209 675T380 722ZM376 704Q314 704 268 659T197 535T172 352Q172 246 200 168T276 47T383 4Q445 4 490 49T561 173T587 356Q587 463 559 541T483 661T376 704Z" />
<glyph unicode="R" glyph-name="R" horiz-adv-x="663" d="M39 708Q62 707 98 706T171 705Q219 705 262 706T324 707Q409 707 465 685T549 624T577 533Q577 502 565 468T521 404T437 355T302 336H206V356H292Q359 356 394 378T442 438T455 522Q455 601 421 644T303
688Q260 688 247 671T233 602V106Q233 70 239 52T262 28T312 20V0Q288 2 252 2T177 3Q135 3 99 3T39 0V20Q73 22 90 28T112 52T118 106V602Q118 639 113 656T90 680T39 688V708ZM208 353Q259 351 290 349T342 344T381 339Q456 329 490 299T538 207L563 105Q572
62 582 44T614 26Q630 27 640 35T663 59L677 48Q654 17 629 2T562 -14Q519 -14 489 8T445 94L425 194Q416 237 405 268T375 318T318 336H210L208 353Z" />
<glyph unicode="S" glyph-name="S" horiz-adv-x="555" d="M265 720Q318 720 346 708T395 682Q407 675 414 672T429 668Q439 668 443 679T451 712H474Q473 694 472 670T470 605T469 500H446Q443 549 425 595T371 670T280 699Q229 699 196 669T162 588Q162 544 184
515T244 460T332 403Q382 371 422 340T485 270T508 178Q508 113 478 71T396 7T284 -14Q228 -14 195 -2T139 23Q117 37 105 37Q95 37 91 26T83 -7H60Q62 15 62 44T63 122T64 243H87Q91 181 109 127T166 41T269 8Q303 8 332 21T379 62T397 134Q397 175 378 206T324
263T243 318Q196 348 155 378T90 448T65 543Q65 604 93 643T167 701T265 720Z" />
<glyph unicode="T" glyph-name="T" horiz-adv-x="637" d="M609 708Q605 666 604 627T602 566Q602 543 603 522T605 486H582Q572 561 556 604T508 666T419 685H376V115Q376 75 383 55T413 29T479 20V0Q451 2 407 2T317 3Q269 3 227 3T158 0V20Q201 22 223 28T253
55T261 115V685H217Q161 685 129 666T81 604T55 486H32Q34 501 34 522T35 566Q35 587 34 626T28 708Q71 707 122 706T225 705T319 705Q361 705 412 705T515 706T609 708Z" />
<glyph unicode="U" glyph-name="U" horiz-adv-x="684" d="M660 708V688Q627 686 610 676T587 644T581 580V291Q581 223 572 170T540 79Q515 37 467 12T351 -14Q303 -14 258 -3T179 39Q149 66 132 98T109 175T103 288V602Q103 639 98 656T75 680T24 688V708Q47
707 83 706T162 705Q200 705 237 706T299 708V688Q265 687 248 681T224 657T218 602V256Q218 205 223 162T244 88T290 39T370 21Q444 21 484 54T541 146T558 280V576Q558 619 550 642T522 675T465 688V708Q484 707 514 706T569 705Q595 705 619 706T660 708Z" />
<glyph unicode="V" glyph-name="V" horiz-adv-x="643" d="M651 708V688Q631 683 609 661T567 590L340 -4Q336 -4 332 -4T323 -4Q319 -4 315 -4T307 -4L59 624Q44 661 26 674T-8 688V708Q15 707 48 706T114 705Q155 705 191 706T250 708V688Q217 687 199 680T180
656T191 604L376 121L358 101L520 527Q543 588 543 622T521 672T457 688V708Q488 707 518 706T575 705Q600 705 618 706T651 708Z" />
<glyph unicode="W" glyph-name="W" horiz-adv-x="926" d="M929 708V688Q909 683 886 662T847 590L663 -4Q659 -4 655 -4T646 -4Q641 -4 637 -4T629 -4L417 627Q405 664 390 675T360 688V708Q381 707 412 706T472 705Q513 705 548 706T605 708V688Q575 687 558
682T538 659T547 604L694 152L677 130L803 527Q823 589 822 623T799 672T736 688V708Q766 707 796 706T854 705Q879 705 896 706T929 708ZM225 708V688Q201 686 191 677T181 650T191 604L346 141L320 112L456 535L471 510L308 -4Q304 -4 300 -4T291 -4Q287 -4 283
-4T274 -4L58 624Q45 662 26 674T-9 688V708Q15 707 48 706T112 705Q148 705 177 706T225 708Z" />
<glyph unicode="X" glyph-name="X" horiz-adv-x="653" d="M262 708V687Q214 687 203 678T205 645L586 71Q606 42 618 33T652 21V0Q637 1 609 2T549 4Q508 4 466 3T402 0V21Q450 21 464 27T464 55L78 637Q59 666 47 676T12 687V708Q28 707 57 706T117 704Q160 704
197 705T262 708ZM302 362Q302 362 304 356T308 343T311 336L195 168Q158 114 156 83T176 37T242 20V0Q228 1 209 1T170 2T132 3T100 3Q74 3 51 3T12 0V20Q45 27 75 52T136 122L302 362ZM623 708V688Q592 682 563 657T506 592L345 360Q345 360 342 373T338 386L449
545Q485 597 491 628T479 673T417 688V708Q436 707 457 707T498 706T536 705Q563 705 585 706T623 708Z" />
<glyph unicode="Y" glyph-name="Y" horiz-adv-x="602" d="M598 708V688Q578 683 558 661T512 590L315 199H288L54 631Q34 667 21 677T-4 687V708Q18 707 42 706T94 705Q130 705 172 705T250 708V687Q225 687 206 682T180 663T187 621L352 304L336 287L459 532Q490
593 490 626T469 673T404 688V708Q435 707 465 706T522 705Q547 705 565 706T598 708ZM368 322V106Q368 70 374 52T397 28T447 20V0Q423 2 386 2T311 3Q270 3 233 3T174 0V20Q208 22 225 28T247 52T253 106V311L318 249L368 322Z" />
<glyph unicode="Z" glyph-name="Z" horiz-adv-x="597" d="M552 708V688L172 23H338Q380 23 411 33T464 66T499 127T517 220H540Q537 188 537 136Q537 116 538 78T544 0Q507 2 463 2T376 3T295 3Q234 3 167 3T41 0V20L423 685H257Q213 685 183 675T132 643T99 584T81
492H58Q60 507 60 528T61 572Q61 592 60 630T54 708Q90 707 132 706T217 705T295 705Q356 705 425 705T552 708Z" />
<glyph unicode="[" glyph-name="bracketleft" horiz-adv-x="305" d="M270 772V753H197V-162H270V-181H89V772H270Z" />
<glyph unicode="\" glyph-name="backslash" horiz-adv-x="371" d="M32 722H65L337 -14H304L32 722Z" />
<glyph unicode="]" glyph-name="bracketright" horiz-adv-x="305" d="M35 772H216V-181H35V-162H108V753H35V772Z" />
<glyph unicode="^" glyph-name="asciicircum" horiz-adv-x="534" d="M276 528Q301 471 351 418T467 332L459 318Q398 338 340 367T247 426Q218 396 171 367T75 318L67 332Q131 365 181 418T258 528H276Z" />
<glyph unicode="_" glyph-name="underscore" horiz-adv-x="591" d="M533 -105V-164H68V-105H533Z" />
<glyph unicode="`" glyph-name="grave" horiz-adv-x="287" d="M65 814Q79 826 98 823T133 801Q148 782 160 756T189 695T237 608L226 599Q185 641 155 666T103 709T64 747Q49 767 50 785T65 814Z" />
<glyph unicode="a" glyph-name="a" horiz-adv-x="505" d="M168 -7Q126 -7 96 9T51 53T36 117Q36 161 56 188T107 233T174 261T241 283T293 308T314 345V413Q314 449 303 470T272 501T225 510Q202 510 176 504T135 478Q157 472 171 455T186 411Q186 383 168 367T121
351Q90 351 75 370T60 416Q60 443 73 460T109 492Q133 508 170 519T254 530Q297 530 328 521T381 490Q406 467 414 433T422 349V73Q422 48 428 38T450 27Q460 27 469 32T492 47L502 30Q481 13 460 3T405 -7Q373 -7 353 3T324 32T314 79Q288 37 252 15T168 -7ZM216
41Q244 41 268 57T314 105V304Q303 288 282 277T237 253T192 226T156 186T142 125Q142 86 162 64T216 41Z" />
<glyph unicode="b" glyph-name="b" horiz-adv-x="571" d="M340 530Q420 530 473 464T527 262Q527 167 496 106T414 16T302 -14Q255 -14 212 9T146 81L164 76Q186 42 219 25T286 8Q349 8 380 69T412 257Q412 340 400 393T363 470T301 495Q258 495 222 458T179 351L169
372Q183 447 229 488T340 530ZM185 783V41Q168 35 150 26T116 7T86 -16L70 -8Q74 6 75 20T77 49V663Q77 708 62 729T5 751V772Q37 769 67 769Q100 769 130 772T185 783Z" />
<glyph unicode="c" glyph-name="c" horiz-adv-x="489" d="M281 530Q315 530 346 522T400 498Q424 483 436 462T449 416Q449 386 432 369T388 352Q361 352 343 367T325 410Q325 436 340 452T375 474Q366 489 344 499T295 510Q268 510 244 496T200 453T170 378T158
267Q158 183 177 134T229 63T298 42Q322 42 347 51T396 81T438 138L457 131Q446 98 423 64T361 8T268 -14Q205 -14 154 17T73 107T43 253Q43 337 73 399T158 496T281 530Z" />
<glyph unicode="d" glyph-name="d" horiz-adv-x="587" d="M495 784V109Q495 64 510 43T567 21V0Q536 3 505 3Q471 3 442 0T387 -11V664Q387 709 372 730T315 752V773Q347 770 377 770Q410 770 440 773T495 784ZM270 530Q314 530 350 511T402 447L390 436Q376 472
349 488T288 505Q231 505 195 445T160 258Q160 175 174 123T215 45T282 20Q321 20 352 53T390 148L399 127Q389 59 351 23T249 -14Q188 -14 142 15T70 105T45 258Q45 349 75 409T157 500T270 530Z" />
<glyph unicode="e" glyph-name="e" horiz-adv-x="505" d="M275 530Q363 530 413 477T463 309H118L116 328H357Q358 377 349 418T321 485T271 510Q228 510 197 465T158 319L161 314Q160 300 159 284T158 251Q158 182 179 135T234 65T303 41Q330 41 355 49T404 78T445
135L465 127Q453 93 428 60T364 7T273 -14Q203 -14 151 17T71 108T43 248Q43 337 72 400T153 496T275 530Z" />
<glyph unicode="f" glyph-name="f" horiz-adv-x="339" d="M280 782Q310 782 333 774T374 753Q388 741 397 724T406 687Q406 662 390 645T347 628Q321 628 303 644T285 688Q285 711 297 726T332 747Q329 755 318 760T288 766Q266 766 251 757T226 733Q215 714 212
677T208 562V515H315V495H208V103Q208 54 235 38T310 21V0Q286 1 243 2T150 4Q115 4 81 3T28 0V21Q67 21 83 36T100 93V495H24V515H100Q100 574 105 613T123 681T155 732Q176 754 208 768T280 782Z" />
<glyph unicode="g" glyph-name="g" horiz-adv-x="536" d="M215 -188Q159 -188 112 -177T36 -144T7 -86Q7 -53 35 -28T114 10L121 -6Q100 -15 89 -35T77 -79Q77 -123 118 -147T226 -171Q271 -171 311 -160T377 -122T403 -55Q403 -23 380 -2T289 20H219Q184 20 154
26T106 49T87 99Q87 135 117 167T218 230L230 221Q201 205 179 189T156 148Q156 116 202 116H321Q368 116 406 104T467 64T490 -7Q490 -54 460 -95T368 -162T215 -188ZM221 213Q170 213 128 229T62 281T38 371Q38 426 62 461T128 513T221 530Q274 530 315 514T380
462T404 371Q404 316 380 281T315 230T221 213ZM221 231Q256 231 275 261T294 371Q294 451 275 481T221 512Q188 512 168 482T148 371Q148 291 168 261T221 231ZM369 446L351 453Q365 488 399 514T470 540Q498 540 514 525T531 481Q531 450 515 437T480 424Q464
424 451 435T435 469T450 530L461 526Q421 510 403 493T369 446Z" />
<glyph unicode="h" glyph-name="h" horiz-adv-x="595" d="M200 783V419Q225 481 270 505T367 530Q407 530 432 520T475 491Q493 472 501 442T509 361V93Q509 51 525 36T581 21V0Q563 1 527 2T457 4Q422 4 389 3T339 0V21Q373 21 387 36T401 93V389Q401 418 396
441T375 479T326 494Q290 494 262 474T217 417T200 335V93Q200 51 214 36T262 21V0Q245 1 213 2T146 4Q111 4 75 3T20 0V21Q59 21 75 36T92 93V663Q92 708 77 729T20 751V772Q52 769 82 769Q115 769 145 772T200 783Z" />
<glyph unicode="i" glyph-name="i" horiz-adv-x="300" d="M147 768Q178 768 199 749T220 700Q220 671 199 652T147 632Q116 632 95 651T74 700Q74 729 95 748T147 768ZM207 527V93Q207 51 223 36T279 21V0Q262 1 227 2T154 4Q119 4 82 3T27 0V21Q66 21 82 36T99
93V407Q99 452 84 473T27 495V516Q59 513 89 513Q123 513 152 516T207 527Z" />
<glyph unicode="j" glyph-name="j" horiz-adv-x="277" d="M-25 -188V-172Q33 -170 63 -124T93 7V407Q93 452 78 473T21 495V516Q53 513 83 513Q116 513 146 516T201 527V108Q201 56 194 12T171 -67T129 -129Q104 -155 66 -171T-25 -188ZM138 768Q169 768 190 749T211
700Q211 671 190 652T138 632Q107 632 86 651T65 700Q65 729 86 748T138 768Z" />
<glyph unicode="k" glyph-name="k" horiz-adv-x="562" d="M200 784V93Q200 51 214 36T264 21V0Q247 1 214 2T146 4Q111 4 75 3T20 0V21Q59 21 75 36T92 93V664Q92 709 77 730T20 752V773Q52 770 82 770Q115 770 145 773T200 784ZM520 516V496Q493 492 468 478T419
439L299 313L312 338L493 73Q508 52 522 39T557 21V0Q544 1 519 2T468 4Q435 4 401 3T351 0V21Q371 21 378 31T376 55L266 227Q249 251 235 258T195 266V286Q224 289 242 297T277 323L352 399Q384 431 384 452T364 484T309 496V516Q336 515 368 514T423 512Q441
512 459 512T494 514T520 516Z" />
<glyph unicode="l" glyph-name="l" horiz-adv-x="294" d="M201 784V93Q201 51 217 36T273 21V0Q256 1 220 2T148 4Q112 4 76 3T21 0V21Q60 21 76 36T93 93V664Q93 709 78 730T21 752V773Q53 770 83 770Q116 770 146 773T201 784Z" />
<glyph unicode="m" glyph-name="m" horiz-adv-x="894" d="M368 530Q406 530 432 520T474 491Q492 472 499 441T506 361V93Q506 51 522 36T576 21V0Q559 1 524 2T454 4Q420 4 388 3T338 0V21Q371 21 384 36T398 93V389Q398 418 394 441T376 479T330 494Q295 494
268 473T224 416T207 334V93Q207 51 221 36T267 21V0Q251 1 219 2T153 4Q119 4 82 3T27 0V21Q66 21 82 36T99 93V407Q99 452 84 473T27 495V516Q59 513 89 513Q123 513 152 516T207 527V418Q233 478 276 504T368 530ZM669 530Q707 530 733 520T775 491Q793 472
800 441T807 361V93Q807 51 823 36T879 21V0Q862 1 826 2T755 4Q721 4 689 3T639 0V21Q672 21 685 36T699 93V389Q699 418 695 441T676 479T629 494Q594 494 567 473T523 415T506 333L502 416Q529 482 574 506T669 530Z" />
<glyph unicode="n" glyph-name="n" horiz-adv-x="603" d="M375 530Q415 530 440 520T483 491Q501 472 508 442T516 361V93Q516 51 532 36T588 21V0Q571 1 535 2T464 4Q430 4 397 3T346 0V21Q380 21 394 36T408 93V389Q408 418 403 441T382 479T334 494Q297 494
269 473T224 416T207 334V93Q207 51 221 36T269 21V0Q253 1 221 2T153 4Q119 4 82 3T27 0V21Q66 21 82 36T99 93V407Q99 452 84 473T27 495V516Q59 513 89 513Q123 513 152 516T207 527V418Q233 480 278 505T375 530Z" />
<glyph unicode="o" glyph-name="o" horiz-adv-x="554" d="M277 530Q344 530 396 502T479 414T510 257Q510 160 479 101T396 14T277 -14Q211 -14 158 13T75 100T44 257Q44 354 74 414T158 502T277 530ZM277 510Q225 510 192 451T159 257Q159 123 192 65T277 6Q328
6 361 64T395 257Q395 391 362 450T277 510Z" />
<glyph unicode="p" glyph-name="p" horiz-adv-x="587" d="M201 527V-86Q201 -130 226 -145T295 -160V-181Q272 -180 231 -179T143 -177Q110 -177 78 -178T29 -181V-160Q64 -160 78 -147T93 -96V407Q93 452 78 473T21 495V516Q53 513 83 513Q116 513 146 516T201
527ZM360 530Q412 530 453 502T519 418T543 281Q543 221 529 168T487 74T415 10T313 -14Q269 -14 236 5T188 53L198 67Q211 42 234 26T293 10Q345 10 374 43T416 134T428 265Q428 347 416 397T380 471T322 495Q277 495 241 459T196 351L186 372Q199 447 246 488T360
530Z" />
<glyph unicode="q" glyph-name="q" horiz-adv-x="570" d="M259 530Q316 530 353 508T412 434L394 440Q376 475 346 491T277 507Q221 507 190 446T159 258Q159 176 173 123T216 45T283 20Q322 20 354 57T391 164L401 143Q391 68 350 27T249 -14Q192 -14 146 15T72
105T44 258Q44 349 72 409T149 500T259 530ZM484 532L501 524Q497 511 496 497T494 467V-96Q494 -133 508 -146T558 -160V-181Q541 -180 510 -179T444 -177Q398 -177 357 -178T292 -181V-160Q336 -160 361 -145T386 -86V462Q404 470 421 481T454 505T484 532Z"
/>
<glyph unicode="r" glyph-name="r" horiz-adv-x="452" d="M349 530Q378 530 398 518T429 488T440 446Q440 417 423 397T376 376Q351 376 334 391T316 432Q316 454 327 469T354 494Q344 502 330 501Q303 500 280 484T241 442T216 387T207 333V103Q207 54 234 38T309
21V0Q286 1 244 2T154 4Q118 4 82 3T27 0V21Q66 21 82 36T99 93V407Q99 452 84 473T27 495V516Q59 513 89 513Q123 513 152 516T207 527V412Q219 441 239 468T287 512T349 530Z" />
<glyph unicode="s" glyph-name="s" horiz-adv-x="452" d="M213 530Q253 530 282 518T325 495Q358 469 366 529H388Q386 501 385 462T384 357H362Q356 394 342 429T300 487T228 510Q195 510 173 492T151 437Q151 407 169 385T215 344T277 303Q314 278 343 254T390
199T408 129Q408 83 384 51T319 3T231 -14Q207 -14 186 -10T147 2Q136 8 126 14T105 27Q95 34 87 25T75 -7H53Q55 25 56 71T57 193H79Q86 138 100 96T141 31T217 7Q236 7 255 15T286 43T299 94Q299 138 269 166T190 227Q156 251 126 274T76 327T57 398Q57 443 78
472T136 515T213 530Z" />
<glyph unicode="t" glyph-name="t" horiz-adv-x="353" d="M202 681V515H340V495H202V102Q202 61 217 44T260 27Q286 27 306 48T342 119L361 112Q349 59 319 23T229 -14Q195 -14 172 -6T132 19Q110 42 102 74T94 159V495H2V515H94V661Q125 662 152 666T202 681Z" />
<glyph unicode="u" glyph-name="u" horiz-adv-x="589" d="M496 527V108Q496 63 511 42T568 20V-1Q537 2 506 2Q473 2 443 -1T388 -12V97Q363 37 319 12T225 -14Q188 -14 162 -4T119 24Q101 44 94 75T87 155V407Q87 452 72 473T15 495V516Q47 513 77 513Q110 513
140 516T195 527V127Q195 98 199 74T218 36T266 22Q301 22 328 43T372 100T388 181V407Q388 452 373 473T316 495V516Q348 513 378 513Q411 513 441 516T496 527Z" />
<glyph unicode="v" glyph-name="v" horiz-adv-x="495" d="M493 516V496Q474 493 458 477T427 420L269 -4Q261 -4 253 -4T236 -4L54 439Q38 478 23 486T-4 495V516Q20 514 45 513T102 511Q133 511 167 512T232 516V495Q208 495 190 492T166 475T172 425L295 115L287
107L390 380Q405 420 402 444T381 481T329 496V516Q346 515 360 515T388 514T417 513Q439 513 458 514T493 516Z" />
<glyph unicode="w" glyph-name="w" horiz-adv-x="776" d="M234 516V495Q210 495 192 492T168 473T175 420L276 122L267 118L404 519L424 510L251 -4Q243 -4 235 -4T218 -4L56 439Q40 479 25 487T-2 495V516Q22 513 47 512T104 510Q135 510 169 512T234 516ZM774
516V496Q755 493 738 477T708 420L567 -4Q559 -4 551 -4T534 -4L379 397L404 519Q414 518 423 518T443 519L593 109L584 108L672 380Q685 421 682 445T661 481T607 496V516Q625 515 639 515T668 514T698 513Q720 513 739 514T774 516Z" />
<glyph unicode="x" glyph-name="x" horiz-adv-x="525" d="M223 516V495Q204 495 192 486T190 461L456 71Q471 48 484 37T516 21V0Q504 1 481 2T433 4Q400 4 364 3T311 0V21Q331 21 343 30T344 55L78 445Q59 472 48 482T18 495V516Q31 515 56 514T105 512Q138 512
172 513T223 516ZM234 254Q234 254 235 248T239 235T242 228L173 139Q146 104 144 78T162 37T217 20V0Q199 1 176 1T131 2T93 3Q70 3 52 3T19 0V20Q39 24 59 40T108 92L234 254ZM493 516V496Q473 492 451 474T404 423L290 271Q290 271 289 277T285 290T283 296L352
391Q375 424 381 446T374 481T325 496V516Q352 515 373 514T419 513Q442 513 460 514T493 516Z" />
<glyph unicode="y" glyph-name="y" horiz-adv-x="509" d="M500 516V496Q481 493 465 477T434 420L278 2L254 -22L59 439Q40 478 23 486T-7 495V516Q18 513 46 512T104 510Q138 510 172 512T237 516V495Q213 495 195 492T171 473T180 420L304 115L297 112L398 380Q413
420 410 444T389 481T336 496V516Q353 515 367 515T396 514T424 513Q446 513 465 514T500 516ZM278 2L242 -92Q232 -117 222 -134T199 -162Q184 -176 162 -182T118 -188Q97 -188 79 -181T48 -158T36 -121Q36 -95 53 -79T98 -63Q123 -63 140 -76T157 -116Q157 -134
148 -147T123 -167Q126 -168 129 -168T134 -168Q162 -168 184 -150T221 -90L257 6L278 2Z" />
<glyph unicode="z" glyph-name="z" horiz-adv-x="475" d="M441 521L165 15H255Q295 15 326 31T377 84T401 182H424Q424 115 425 70T428 -4Q383 -2 335 -1T240 0Q189 0 137 -1T36 -5L312 501H220Q177 501 146 485T98 432T75 334H53Q53 402 52 446T49 520Q93 518
141 517T237 516Q287 516 339 517T441 521Z" />
<glyph unicode="{" glyph-name="braceleft" horiz-adv-x="314" d="M291 782V763Q267 762 252 755T228 727T217 664T213 551Q213 484 200 439T165 366T113 323T52 299Q83 291 112 276T164 232T200 159T213 47Q213 -27 216 -70T228 -134T251 -162T291 -169V-188Q222
-188 181 -168T123 -96T105 47Q105 141 99 192T76 266T29 290H24V308H29Q60 310 76 331T98 405T105 551Q105 639 122 689T181 761T291 782Z" />
<glyph unicode="|" glyph-name="bar" horiz-adv-x="232" d="M144 858V-195H88V858H144Z" />
<glyph unicode="}" glyph-name="braceright" horiz-adv-x="314" d="M23 782Q93 782 133 761T191 690T209 551Q209 457 215 405T238 332T285 308H290V290H285Q255 288 239 266T216 193T209 47Q209 -45 192 -96T134 -167T23 -188V-169Q46 -169 62 -163T86 -135T97
-70T101 47Q101 114 114 159T149 232T201 275T262 299Q231 307 202 322T150 366T114 439T101 551Q101 622 98 664T86 727T62 755T23 763V782Z" />
<glyph unicode="~" glyph-name="asciitilde" horiz-adv-x="655" d="M214 373Q253 373 285 361T347 333T409 304T476 292Q508 292 532 306T570 354L588 349Q583 312 563 285T511 242T442 227Q404 227 372 239T309 267T248 296T180 308Q149 308 125 294T86 246L69
251Q73 288 94 315T146 358T214 373Z" />
<glyph unicode="&#xa0;" glyph-name="uni00A0" horiz-adv-x="244" />
<glyph unicode="&#xa1;" glyph-name="exclamdown" horiz-adv-x="258" d="M138 318Q138 253 145 189T162 68T179 -38T187 -119Q187 -155 171 -171T129 -188Q104 -188 88 -172T71 -119Q71 -86 78 -38T94 67T111 189T120 318H138ZM130 530Q160 530 180 511T201 461Q201
432 181 413T130 393Q99 393 79 412T59 461Q59 491 79 510T130 530Z" />
<glyph unicode="&#xa2;" glyph-name="cent" horiz-adv-x="482" d="M246 -181V21H268V-181H246ZM246 520V708H268V520H246ZM271 530Q306 530 336 522T390 498Q414 483 427 462T440 416Q440 386 423 369T378 352Q352 352 334 367T316 410Q316 436 331 452T366 474Q357
489 335 499T286 510Q259 510 235 496T191 453T160 378T148 267Q148 183 168 134T220 63T289 42Q312 42 337 51T387 81T429 138L447 131Q437 98 414 64T352 8T258 -14Q195 -14 145 17T64 107T33 253Q33 337 63 399T148 496T271 530Z" />
<glyph unicode="&#xa3;" glyph-name="sterling" horiz-adv-x="621" d="M368 736Q401 736 425 729T467 710Q484 698 493 682T503 648Q503 623 487 607T448 591Q426 591 410 605T393 643Q393 663 403 677T433 699Q429 708 411 714T372 720Q327 720 302 701T265 646T250
565T247 465V324Q247 286 241 255T224 196T197 141T162 83Q191 102 216 110T269 118Q306 118 337 108T401 87T471 77Q506 77 522 94T539 134Q539 168 517 188T458 216L462 232Q494 227 523 211T571 169T590 105Q590 73 577 46T536 3T467 -14Q426 -14 391 1T323
36T257 66Q247 70 235 72T208 74Q180 74 153 64Q130 26 104 6T52 -14Q45 -14 40 -12T34 -2Q34 8 46 22T79 49T123 70Q129 93 132 118T135 176T136 258V439Q136 501 147 554T185 649T256 713T368 736ZM384 317V297H59V317H384ZM384 417V397H59V417H384Z" />
<glyph unicode="&#xa4;" glyph-name="currency" horiz-adv-x="562" d="M445 511L492 464L442 414Q460 390 470 361T480 300Q480 268 470 239T442 186L491 138L444 90L395 139Q371 122 342 112T281 102Q216 102 167 138L119 90L71 138L119 186Q102 209 92 238T82
300Q82 332 92 361T120 415L71 464L118 511L167 462Q191 480 220 489T281 499Q314 499 342 489T395 461L445 511ZM282 444Q244 444 213 424T163 372T144 300Q144 261 162 229T212 177T282 157Q320 157 351 176T400 228T419 300Q419 339 401 371T351 424T282 444Z"
/>
<glyph unicode="&#xa5;" glyph-name="yen" horiz-adv-x="657" d="M534 298V278H149V298H534ZM534 198V178H149V198H534ZM628 708V688Q608 683 588 661T543 590L345 199H318L84 631Q65 667 51 677T26 687V708Q49 707 72 706T124 705Q161 705 203 705T280 708V687Q255
687 236 682T210 663T217 621L383 304L367 287L490 532Q521 593 521 626T499 673T435 688V708Q465 707 495 706T553 705Q578 705 595 706T628 708ZM399 322V106Q399 70 405 52T428 28T478 20V0Q454 2 417 2T342 3Q300 3 264 3T205 0V20Q238 22 255 28T278 52T284
106V311L349 249L399 322Z" />
<glyph unicode="&#xa6;" glyph-name="brokenbar" horiz-adv-x="235" d="M145 326V-195H89V326H145ZM145 858V384H89V858H145Z" />
<glyph unicode="&#xa7;" glyph-name="section" horiz-adv-x="532" d="M278 782Q313 782 337 776T377 763Q411 748 430 725T450 672Q450 648 435 631T390 613Q365 613 347 629T328 671Q328 691 339 708T374 731Q368 744 352 750T318 760T283 763Q243 763 219 748T185
712T175 667Q175 627 199 597T260 539T339 483Q389 449 424 420T476 358T494 284Q494 233 464 188T355 105L346 115Q386 137 404 165T422 226Q422 259 403 286T351 339T272 396Q217 434 175 466T109 536T85 622Q85 670 109 706T177 762T278 782ZM177 491L187 479Q148
458 130 430T111 368Q111 336 130 309T183 255T261 198Q317 161 359 128T424 58T448 -28Q448 -75 424 -111T357 -168T255 -188Q221 -188 197 -182T156 -169Q122 -154 103 -131T83 -78Q83 -54 99 -37T143 -19Q170 -19 187 -35T205 -77Q205 -97 194 -113T159 -137Q165
-149 181 -156T216 -166T251 -169Q291 -169 314 -154T347 -117T358 -73Q358 -33 335 -3T274 55T194 111Q144 145 110 174T57 236T39 310Q39 362 68 407T177 491Z" />
<glyph unicode="&#xa8;" glyph-name="dieresis" horiz-adv-x="445" d="M331 749Q356 749 375 730T394 685Q394 659 375 640T331 621Q304 621 286 640T267 685Q267 710 285 729T331 749ZM113 749Q139 749 158 730T177 685Q177 659 158 640T113 621Q87 621 69 640T50
685Q50 710 68 729T113 749Z" />
<glyph unicode="&#xa9;" glyph-name="copyright" horiz-adv-x="890" d="M445 782Q528 782 600 751T726 666T812 539T843 384Q843 302 812 230T727 103T600 17T445 -14Q363 -14 291 17T164 102T78 229T47 384Q47 467 78 539T163 665T290 751T445 782ZM464 656Q500
656 532 647T586 622Q607 609 619 589T632 542Q632 513 615 496T570 478Q544 478 526 494T508 539Q508 564 522 579T558 600Q548 616 525 626T474 637Q455 637 436 630T399 605Q382 589 369 562T348 493T340 392Q340 306 360 256T411 185T479 163Q504 163 529 172T578
203T620 265L639 258Q629 224 605 190T543 135T451 113Q388 113 337 143T255 233T225 379Q225 464 255 526T340 622T464 656ZM445 750Q371 750 306 722T192 643T115 526T87 384Q87 308 115 242T192 126T306 47T445 18Q519 18 584 46T698 125T775 242T803 384Q803
460 775 526T698 642T584 721T445 750Z" />
<glyph unicode="&#xaa;" glyph-name="ordfeminine" horiz-adv-x="469" d="M230 722Q300 722 331 692T362 595V430Q362 411 367 404T385 397Q407 397 422 412L433 397Q416 381 392 371T335 360Q297 360 283 372T266 407Q241 382 211 371T148 360Q112 360 83 379T53
438Q53 481 89 503T186 547Q214 557 240 570T266 603V621Q266 666 249 684T200 703Q185 703 167 699T133 684Q149 679 159 666T170 634Q170 612 154 599T118 585Q94 585 79 598T64 634Q64 657 78 673T114 699Q138 710 165 716T230 722ZM266 572Q262 564 252 557T215
535Q183 519 168 501T152 457Q152 431 166 415T202 399Q236 399 266 427V572Z" />
<glyph unicode="&#xab;" glyph-name="guillemotleft" horiz-adv-x="524" d="M275 530L292 524Q276 478 258 440T219 369T176 310T130 261Q154 239 176 212T218 150T257 77T292 -8L275 -14Q228 74 170 141T30 255V260Q112 307 170 374T275 530ZM458 522L475 516Q454
457 430 410T378 326T319 261Q350 232 377 195T429 109T475 0L458 -6Q413 79 357 144T221 255V260Q300 305 356 371T458 522Z" />
<glyph unicode="&#xac;" glyph-name="logicalnot" horiz-adv-x="651" d="M580 370V165H544V340H79V370H580Z" />
<glyph unicode="&#xad;" glyph-name="uni00AD" horiz-adv-x="493" />
<glyph unicode="&#xae;" glyph-name="registered" horiz-adv-x="674" d="M337 782Q395 782 445 761T534 701T594 612T616 503Q616 445 595 395T535 306T446 246T337 224Q279 224 229 245T140 305T80 394T58 503Q58 561 79 611T139 700T228 760T337 782ZM269 521Q303
521 317 520T339 518T358 514Q407 510 425 496T448 455L461 395Q464 383 466 374T478 365Q486 365 490 373L499 365Q492 354 481 350T452 345Q424 345 411 355T393 386L376 460Q373 480 365 490T336 503T271 506L269 521ZM337 750Q271 750 218 717T132 627T100
503Q100 436 132 380T217 290T337 256Q403 256 457 289T542 379T574 503Q574 571 543 627T457 716T337 750ZM347 676Q406 676 435 656T465 597Q465 578 454 559T412 526T324 509L264 506Q264 506 264 514T264 522H317Q365 522 380 540T395 588Q395 625 381 643T331
661Q310 661 304 655T297 630V404Q297 381 301 375T320 367V352Q309 352 295 352T265 353Q248 353 233 353T208 352V367Q222 369 226 375T231 404V623Q231 647 227 653T208 661V676Q218 675 232 675T261 675Q289 675 313 675T347 676Z" />
<glyph unicode="&#xaf;" glyph-name="overscore" horiz-adv-x="420" d="M370 712V687H50V712H370Z" />
<glyph unicode="&#xb0;" glyph-name="degree" horiz-adv-x="326" d="M162 820Q211 820 247 788T284 700Q284 644 248 612T162 579Q114 579 78 611T41 700Q41 756 77 788T162 820ZM162 803Q140 803 118 791T81 756T66 699Q66 664 80 641T117 607T162 596Q185 596
207 607T244 641T259 699Q259 733 244 756T207 791T162 803Z" />
<glyph unicode="&#xb1;" glyph-name="plusminus" horiz-adv-x="591" d="M550 30V0H49V30H550ZM310 606V370H542V340H310V105H274V340H41V370H274V606H310Z" />
<glyph unicode="&#xb2;" glyph-name="uni00B2" horiz-adv-x="342" d="M176 755Q221 755 250 737T279 680Q279 650 262 627T220 583T166 542T116 501H249Q273 501 281 510T296 535L313 532Q306 504 303 480T298 435Q289 437 280 437T260 438H32V458Q54 477 83 498T141
545T187 601T206 666Q206 694 190 706T143 719Q114 719 91 707T50 667L35 675Q53 706 87 730T176 755Z" />
<glyph unicode="&#xb3;" glyph-name="uni00B3" horiz-adv-x="326" d="M169 756Q215 756 244 737T274 683Q274 649 246 625T173 589Q206 590 233 579T278 548T295 499Q295 463 272 436T209 389T123 359T29 348V365Q82 368 126 386T197 434T224 500Q224 534 206
555T155 578Q144 573 136 569T119 564Q103 564 103 576Q103 587 116 589T147 590Q180 604 190 626T201 664Q201 689 184 705T135 721Q107 721 83 708T42 668L27 676Q44 707 78 731T169 756Z" />
<glyph unicode="&#xb4;" glyph-name="acute" horiz-adv-x="287" d="M222 814Q235 803 236 785T223 747Q207 727 185 709T133 666T61 599L50 608Q81 659 98 694T127 756T154 801Q169 821 188 823T222 814Z" />
<glyph unicode="&#xb6;" glyph-name="paragraph" horiz-adv-x="674" d="M402 709Q467 709 523 707T633 708V689Q585 687 572 671T558 621V-75Q558 -111 564 -129T587 -153T637 -161V-181Q612 -179 573 -179T494 -178Q448 -178 408 -178T342 -181V-161Q384 -159
406 -150T435 -121T443 -65V-13Q330 -13 252 15T126 93T56 212T34 360Q34 462 78 541T204 664T402 709ZM444 656Q441 656 433 617T418 512T409 368Q330 368 266 365T162 357T123 351Q123 349 162 345T265 338T409 335Q410 255 417 190T433 86T444 48Q444 48 444
80T444 167T444 285T444 415T444 534T444 621T444 656Z" />
<glyph unicode="&#xb7;" glyph-name="middot" horiz-adv-x="269" d="M134 341Q164 341 184 322T205 272Q205 243 185 224T134 204Q104 204 84 223T63 272Q63 302 83 321T134 341Z" />
<glyph unicode="&#xb8;" glyph-name="cedilla" horiz-adv-x="306" d="M154 5L129 -70Q143 -66 159 -64T192 -61Q222 -61 239 -74T256 -110Q256 -138 237 -155T190 -180T134 -188Q106 -188 85 -185T50 -177L54 -159Q59 -160 70 -161T94 -162Q113 -162 132 -158T164
-145T178 -118Q178 -91 139 -91Q131 -91 118 -92T93 -98L127 5H154Z" />
<glyph unicode="&#xb9;" glyph-name="uni00B9" horiz-adv-x="270" d="M186 753V507Q186 478 201 468T253 458V437Q238 438 210 438T150 439Q117 439 87 439T39 437V458Q74 458 93 468T113 507V636Q113 680 96 690T32 701V722Q86 723 121 730T186 753Z" />
<glyph unicode="&#xba;" glyph-name="ordmasculine" horiz-adv-x="459" d="M230 722Q277 722 318 702T386 641T412 541Q412 482 386 442T319 381T230 360Q182 360 140 380T72 441T46 541Q46 601 72 641T140 701T230 722ZM229 704Q195 704 171 666T146 541Q146
454 170 416T229 378Q263 378 288 416T313 541Q313 628 288 666T229 704Z" />
<glyph unicode="&#xbb;" glyph-name="guillemotright" horiz-adv-x="524" d="M249 529Q296 441 355 374T494 259V255Q414 208 355 141T249 -15L233 -9Q249 37 267 75T305 146T348 206T395 254Q371 277 349 304T306 365T267 438T233 523L249 529ZM66 521Q111 436
168 371T303 259V255Q225 210 168 144T66 -7L50 -1Q71 59 95 106T147 189T205 254Q175 283 148 320T96 407T50 515L66 521Z" />
<glyph unicode="&#xbc;" glyph-name="onequarter" horiz-adv-x="698" d="M654 824L673 811L88 -55L69 -42L654 824ZM202 753V507Q202 478 217 468T269 458V437Q254 438 226 438T166 439Q133 439 103 439T55 437V458Q90 458 109 468T129 507V636Q129 680 112 690T48
701V722Q102 723 137 730T202 753ZM532 306L540 291L326 47L329 65H563Q587 65 595 73T610 99L627 96Q623 80 620 66T616 39T613 15Q604 17 595 17T575 18H297V39L532 306ZM553 306V-99H492V248L532 306H553Z" />
<glyph unicode="&#xbd;" glyph-name="onehalf" horiz-adv-x="707" d="M638 824L657 811L72 -55L53 -42L638 824ZM208 753V507Q208 478 223 468T275 458V437Q260 438 232 438T172 439Q139 439 109 439T61 437V458Q96 458 115 468T135 507V636Q135 680 118 690T54
701V722Q108 723 143 730T208 753ZM532 318Q577 318 606 300T635 243Q635 213 618 190T576 146T522 105T472 64H605Q629 64 637 73T652 98L669 95Q662 67 659 43T654 -2Q645 0 636 0T616 1H388V21Q410 40 439 61T497 108T543 164T562 229Q562 257 546 269T499 282Q470
282 447 270T406 230L391 238Q409 269 443 293T532 318Z" />
<glyph unicode="&#xbe;" glyph-name="threequarters" horiz-adv-x="747" d="M699 824L718 811L133 -55L114 -42L699 824ZM191 756Q237 756 266 737T296 683Q296 649 268 625T195 589Q228 590 255 579T300 548T317 499Q317 463 294 436T231 389T145 359T51 348V365Q104
368 148 386T219 434T246 500Q246 534 228 555T177 578Q166 573 158 569T141 564Q125 564 125 576Q125 587 138 589T169 590Q202 604 212 626T223 664Q223 689 206 705T157 721Q129 721 105 708T64 668L49 676Q66 707 100 731T191 756ZM578 306L586 291L372 47L375
65H609Q633 65 641 73T656 99L673 96Q669 80 666 66T662 39T659 15Q650 17 641 17T621 18H343V39L578 306ZM599 306V-99H538V248L578 306H599Z" />
<glyph unicode="&#xbf;" glyph-name="questiondown" horiz-adv-x="470" d="M285 321V185Q223 162 191 133T148 70T137 -1Q137 -89 174 -128T271 -168Q296 -168 323 -163T366 -143Q344 -138 332 -124T319 -85Q319 -57 337 -41T382 -25Q408 -25 424 -42T441 -83Q441
-108 428 -126T391 -158Q370 -170 336 -179T250 -188Q185 -188 136 -168T58 -109T30 -16Q30 37 60 79T142 150T265 194V321H285ZM274 531Q305 531 325 512T345 462Q345 433 325 414T274 394Q244 394 224 413T203 462Q203 492 223 511T274 531Z" />
<glyph unicode="&#xc0;" glyph-name="Agrave" horiz-adv-x="642" d="M338 712L582 84Q596 47 614 34T649 20V0Q625 2 593 2T527 3Q485 3 449 3T391 0V20Q442 22 455 37T449 104L269 590L285 608L119 174Q101 129 98 99T102 52T132 28T184 20V0Q154 2 124 2T66
3Q42 3 24 3T-10 0V20Q11 25 32 45T72 113L304 712Q312 712 321 712T338 712ZM443 288V268H145L155 288H443ZM221 929Q243 916 263 896T312 849T387 785L380 772Q328 796 290 809T226 831T177 853Q155 867 150 884T153 917Q163 933 182 937T221 929Z" />
<glyph unicode="&#xc1;" glyph-name="Aacute" horiz-adv-x="642" d="M338 712L582 84Q596 47 614 34T649 20V0Q625 2 593 2T527 3Q485 3 449 3T391 0V20Q442 22 455 37T449 104L269 590L285 608L119 174Q101 129 98 99T102 52T132 28T184 20V0Q154 2 124 2T66
3Q42 3 24 3T-10 0V20Q11 25 32 45T72 113L304 712Q312 712 321 712T338 712ZM443 288V268H145L155 288H443ZM421 929Q441 941 460 937T489 917Q497 902 492 885T465 853Q444 841 417 832T352 809T262 772L255 785Q302 821 330 848T379 896T421 929Z" />
<glyph unicode="&#xc2;" glyph-name="Acircumflex" horiz-adv-x="642" d="M338 712L582 84Q596 47 614 34T649 20V0Q625 2 593 2T527 3Q485 3 449 3T391 0V20Q442 22 455 37T449 104L269 590L285 608L119 174Q101 129 98 99T102 52T132 28T184 20V0Q154 2 124
2T66 3Q42 3 24 3T-10 0V20Q11 25 32 45T72 113L304 712Q312 712 321 712T338 712ZM443 288V268H145L155 288H443ZM329 924Q354 884 405 847T522 784L517 770Q455 782 396 801T300 838Q271 820 222 801T123 770L118 784Q183 809 234 846T311 924H329Z" />
<glyph unicode="&#xc3;" glyph-name="Atilde" horiz-adv-x="642" d="M338 712L582 84Q596 47 614 34T649 20V0Q625 2 593 2T527 3Q485 3 449 3T391 0V20Q442 22 455 37T449 104L269 590L285 608L119 174Q101 129 98 99T102 52T132 28T184 20V0Q154 2 124 2T66
3Q42 3 24 3T-10 0V20Q11 25 32 45T72 113L304 712Q312 712 321 712T338 712ZM443 288V268H145L155 288H443ZM237 909Q267 909 292 898T339 872T385 846T436 834Q457 834 475 846T505 890L520 886Q513 830 479 801T401 771Q371 771 346 782T298 808T252 834T202
846Q180 846 162 834T133 790L118 794Q126 850 160 879T237 909Z" />
<glyph unicode="&#xc4;" glyph-name="Adieresis" horiz-adv-x="642" d="M338 712L582 84Q596 47 614 34T649 20V0Q625 2 593 2T527 3Q485 3 449 3T391 0V20Q442 22 455 37T449 104L269 590L285 608L119 174Q101 129 98 99T102 52T132 28T184 20V0Q154 2 124 2T66
3Q42 3 24 3T-10 0V20Q11 25 32 45T72 113L304 712Q312 712 321 712T338 712ZM443 288V268H145L155 288H443ZM431 898Q456 898 475 879T494 834Q494 807 475 789T431 770Q404 770 386 788T367 834Q367 859 385 878T431 898ZM209 898Q235 898 254 879T273 834Q273
807 254 789T209 770Q183 770 165 788T146 834Q146 859 164 878T209 898Z" />
<glyph unicode="&#xc5;" glyph-name="Aring" horiz-adv-x="642" d="M338 712L582 84Q596 47 614 34T649 20V0Q625 2 593 2T527 3Q485 3 449 3T391 0V20Q442 22 455 37T449 104L269 590L285 608L119 174Q101 129 98 99T102 52T132 28T184 20V0Q154 2 124 2T66 3Q42
3 24 3T-10 0V20Q11 25 32 45T72 113L304 712Q312 712 321 712T338 712ZM443 288V268H145L155 288H443ZM320 929Q361 929 391 904T421 836Q421 792 391 767T320 742Q280 742 250 767T220 836Q220 879 250 904T320 929ZM320 908Q295 908 272 890T248 835Q248 799
271 781T320 763Q346 763 369 781T393 835Q393 871 370 889T320 908Z" />
<glyph unicode="&#xc6;" glyph-name="AE" horiz-adv-x="866" d="M495 772L96 104Q68 58 82 40T147 20V0Q132 2 108 2T56 3Q38 3 20 3T-11 0V20Q5 21 21 35T58 84L471 772H495ZM799 708Q795 671 794 637T792 584Q792 565 793 548T795 520H772Q766 582 755 618T721
670T660 685H607Q574 685 557 680T534 657T528 602V106Q528 70 533 52T556 29T607 23H672Q716 23 739 40T774 98T792 208H815Q812 179 812 132Q812 112 813 76T819 0Q772 2 712 2T606 3Q579 3 536 3T443 3T350 0V20Q377 22 390 28T408 52T413 106V602Q413 639 407
656T384 680T334 688V708Q380 707 432 706T531 705T606 705Q648 705 702 705T799 708ZM446 366V346H228L238 366H446ZM666 366Q666 366 666 356T666 346H498Q498 346 498 356T498 366H666ZM695 480Q691 430 691 404T692 356Q692 334 693 309T698 232H675Q671 260
666 286T645 329T594 346V366Q620 366 634 377T656 407T666 445T672 480H695Z" />
<glyph unicode="&#xc7;" glyph-name="Ccedilla" horiz-adv-x="694" d="M380 722Q446 722 488 703T564 657Q584 642 594 653T609 708H632Q630 670 629 617T628 474H605Q598 518 592 546T575 594T546 633Q517 669 475 685T386 701Q335 701 296 676T231 603T190 492T176
352Q176 274 191 211T234 102T303 32T394 7Q435 7 479 23T549 74Q577 104 587 141T605 244H628Q628 152 629 96T632 0H609Q605 43 596 54T564 51Q527 25 486 6T379 -14Q280 -14 206 29T91 153T50 348Q50 460 92 544T209 675T380 722ZM395 5L370 -70Q384 -66 400
-64T435 -61Q466 -61 483 -74T501 -110Q501 -138 481 -155T432 -180T373 -188Q344 -188 323 -185T286 -177L291 -159Q296 -160 307 -161T333 -162Q353 -162 373 -158T408 -145T423 -118Q423 -104 412 -98T380 -91Q372 -91 358 -92T334 -98L368 5H395Z" />
<glyph unicode="&#xc8;" glyph-name="Egrave" horiz-adv-x="617" d="M550 708Q546 670 545 635T543 580Q543 561 544 544T546 516H523Q516 580 502 617T459 669T379 685H310Q278 685 262 680T239 658T233 606V102Q233 68 239 51T261 29T310 23H375Q432 23 465
41T516 100T543 212H566Q563 183 563 136Q563 116 564 78T570 0Q519 2 455 2T341 3Q318 3 282 3T205 3T121 2T39 0V20Q73 22 90 28T112 52T118 106V602Q118 639 113 656T90 680T39 688V708Q78 707 120 707T204 706T282 705T341 705Q387 705 445 705T550 708ZM384
366Q384 366 384 356T384 346H203Q203 346 203 356T203 366H384ZM413 498Q409 441 409 411T410 356Q410 331 411 301T416 214H393Q388 247 380 277T352 327T288 346V366Q320 366 338 379T367 413T381 456T390 498H413ZM210 929Q232 916 252 896T301 849T376 785L369
772Q317 796 279 809T215 831T166 853Q144 867 139 884T142 917Q152 933 171 937T210 929Z" />
<glyph unicode="&#xc9;" glyph-name="Eacute" horiz-adv-x="617" d="M550 708Q546 670 545 635T543 580Q543 561 544 544T546 516H523Q516 580 502 617T459 669T379 685H310Q278 685 262 680T239 658T233 606V102Q233 68 239 51T261 29T310 23H375Q432 23 465
41T516 100T543 212H566Q563 183 563 136Q563 116 564 78T570 0Q519 2 455 2T341 3Q318 3 282 3T205 3T121 2T39 0V20Q73 22 90 28T112 52T118 106V602Q118 639 113 656T90 680T39 688V708Q78 707 120 707T204 706T282 705T341 705Q387 705 445 705T550 708ZM384
366Q384 366 384 356T384 346H203Q203 346 203 356T203 366H384ZM413 498Q409 441 409 411T410 356Q410 331 411 301T416 214H393Q388 247 380 277T352 327T288 346V366Q320 366 338 379T367 413T381 456T390 498H413ZM410 929Q430 941 449 937T478 917Q486 902
481 885T454 853Q433 841 406 832T341 809T251 772L244 785Q291 821 319 848T368 896T410 929Z" />
<glyph unicode="&#xca;" glyph-name="Ecircumflex" horiz-adv-x="617" d="M550 708Q546 670 545 635T543 580Q543 561 544 544T546 516H523Q516 580 502 617T459 669T379 685H310Q278 685 262 680T239 658T233 606V102Q233 68 239 51T261 29T310 23H375Q432 23
465 41T516 100T543 212H566Q563 183 563 136Q563 116 564 78T570 0Q519 2 455 2T341 3Q318 3 282 3T205 3T121 2T39 0V20Q73 22 90 28T112 52T118 106V602Q118 639 113 656T90 680T39 688V708Q78 707 120 707T204 706T282 705T341 705Q387 705 445 705T550 708ZM384
366Q384 366 384 356T384 346H203Q203 346 203 356T203 366H384ZM413 498Q409 441 409 411T410 356Q410 331 411 301T416 214H393Q388 247 380 277T352 327T288 346V366Q320 366 338 379T367 413T381 456T390 498H413ZM318 924Q343 884 394 847T511 784L506 770Q444
782 385 801T289 838Q260 820 211 801T112 770L107 784Q172 809 223 846T300 924H318Z" />
<glyph unicode="&#xcb;" glyph-name="Edieresis" horiz-adv-x="617" d="M550 708Q546 670 545 635T543 580Q543 561 544 544T546 516H523Q516 580 502 617T459 669T379 685H310Q278 685 262 680T239 658T233 606V102Q233 68 239 51T261 29T310 23H375Q432 23 465
41T516 100T543 212H566Q563 183 563 136Q563 116 564 78T570 0Q519 2 455 2T341 3Q318 3 282 3T205 3T121 2T39 0V20Q73 22 90 28T112 52T118 106V602Q118 639 113 656T90 680T39 688V708Q78 707 120 707T204 706T282 705T341 705Q387 705 445 705T550 708ZM384
366Q384 366 384 356T384 346H203Q203 346 203 356T203 366H384ZM413 498Q409 441 409 411T410 356Q410 331 411 301T416 214H393Q388 247 380 277T352 327T288 346V366Q320 366 338 379T367 413T381 456T390 498H413ZM420 898Q445 898 464 879T483 834Q483 807
464 789T420 770Q393 770 375 788T356 834Q356 859 374 878T420 898ZM198 898Q224 898 243 879T262 834Q262 807 243 789T198 770Q172 770 154 788T135 834Q135 859 153 878T198 898Z" />
<glyph unicode="&#xcc;" glyph-name="Igrave" horiz-adv-x="351" d="M312 708V688Q279 687 262 681T239 657T233 602V106Q233 70 239 52T262 28T312 20V0Q288 2 252 2T177 3Q135 3 99 3T39 0V20Q73 22 90 28T112 52T118 106V602Q118 639 113 656T90 680T39 688V708Q62
707 98 706T177 705Q215 705 251 706T312 708ZM334 929Q356 916 376 896T425 849T500 785L493 772Q441 796 403 809T339 831T290 853Q268 867 263 884T266 917Q276 933 295 937T334 929Z" />
<glyph unicode="&#xcd;" glyph-name="Iacute" horiz-adv-x="351" d="M312 708V688Q279 687 262 681T239 657T233 602V106Q233 70 239 52T262 28T312 20V0Q288 2 252 2T177 3Q135 3 99 3T39 0V20Q73 22 90 28T112 52T118 106V602Q118 639 113 656T90 680T39 688V708Q62
707 98 706T177 705Q215 705 251 706T312 708ZM278 929Q298 941 317 937T346 917Q354 902 349 885T322 853Q301 841 274 832T209 809T119 772L112 785Q159 821 187 848T236 896T278 929Z" />
<glyph unicode="&#xce;" glyph-name="Icircumflex" horiz-adv-x="351" d="M312 708V688Q279 687 262 681T239 657T233 602V106Q233 70 239 52T262 28T312 20V0Q288 2 252 2T177 3Q135 3 99 3T39 0V20Q73 22 90 28T112 52T118 106V602Q118 639 113 656T90 680T39
688V708Q62 707 98 706T177 705Q215 705 251 706T312 708ZM442 924Q467 884 518 847T635 784L630 770Q568 782 509 801T413 838Q384 820 335 801T236 770L231 784Q296 809 347 846T424 924H442Z" />
<glyph unicode="&#xcf;" glyph-name="Idieresis" horiz-adv-x="351" d="M312 708V688Q279 687 262 681T239 657T233 602V106Q233 70 239 52T262 28T312 20V0Q288 2 252 2T177 3Q135 3 99 3T39 0V20Q73 22 90 28T112 52T118 106V602Q118 639 113 656T90 680T39
688V708Q62 707 98 706T177 705Q215 705 251 706T312 708ZM544 898Q569 898 588 879T607 834Q607 807 588 789T544 770Q517 770 499 788T480 834Q480 859 498 878T544 898ZM322 898Q348 898 367 879T386 834Q386 807 367 789T322 770Q296 770 278 788T259 834Q259
859 277 878T322 898Z" />
<glyph unicode="&#xd0;" glyph-name="Eth" horiz-adv-x="741" d="M324 708Q509 708 599 619T689 362Q689 253 645 172T518 45T315 0Q300 0 275 1T222 2T173 3Q135 3 99 3T39 0V20Q73 22 90 28T112 52T118 106V602Q118 639 113 656T90 680T39 688V708Q62 707 98
706T171 705Q207 706 251 707T324 708ZM307 690Q261 690 247 673T233 604V104Q233 52 247 35T308 18Q409 18 465 57T544 173T567 358Q567 470 542 543T461 653T307 690ZM373 366V346H9V366H373Z" />
<glyph unicode="&#xd1;" glyph-name="Ntilde" horiz-adv-x="711" d="M678 708V688Q644 686 627 676T605 644T599 580V-4Q591 -4 583 -4T566 -4L142 612V132Q142 90 148 67T174 33T235 20V0Q216 2 187 2T131 3Q106 3 81 3T40 0V20Q73 23 90 32T113 65T119 128V602Q119
639 113 656T90 680T40 688V708Q56 707 81 706T131 705Q153 705 174 706T211 708L576 186V576Q576 619 570 642T543 675T483 688V708Q501 707 531 706T587 705Q612 705 637 706T678 708ZM293 909Q323 909 348 898T395 872T441 846T492 834Q513 834 531 846T561
890L576 886Q569 830 535 801T457 771Q427 771 402 782T354 808T308 834T258 846Q236 846 218 834T189 790L174 794Q182 850 216 879T293 909Z" />
<glyph unicode="&#xd2;" glyph-name="Ograve" horiz-adv-x="758" d="M380 722Q478 722 552 679T668 556T709 360Q709 248 667 164T550 33T379 -14Q280 -14 206 29T91 153T50 348Q50 460 92 544T209 675T380 722ZM376 704Q314 704 268 659T197 535T172 352Q172
246 200 168T276 47T383 4Q445 4 490 49T561 173T587 356Q587 463 559 541T483 661T376 704ZM279 929Q301 916 321 896T370 849T445 785L438 772Q386 796 348 809T284 831T235 853Q213 867 208 884T211 917Q221 933 240 937T279 929Z" />
<glyph unicode="&#xd3;" glyph-name="Oacute" horiz-adv-x="758" d="M380 722Q478 722 552 679T668 556T709 360Q709 248 667 164T550 33T379 -14Q280 -14 206 29T91 153T50 348Q50 460 92 544T209 675T380 722ZM376 704Q314 704 268 659T197 535T172 352Q172
246 200 168T276 47T383 4Q445 4 490 49T561 173T587 356Q587 463 559 541T483 661T376 704ZM479 929Q499 941 518 937T547 917Q555 902 550 885T523 853Q502 841 475 832T410 809T320 772L313 785Q360 821 388 848T437 896T479 929Z" />
<glyph unicode="&#xd4;" glyph-name="Ocircumflex" horiz-adv-x="758" d="M380 722Q478 722 552 679T668 556T709 360Q709 248 667 164T550 33T379 -14Q280 -14 206 29T91 153T50 348Q50 460 92 544T209 675T380 722ZM376 704Q314 704 268 659T197 535T172 352Q172
246 200 168T276 47T383 4Q445 4 490 49T561 173T587 356Q587 463 559 541T483 661T376 704ZM387 924Q412 884 463 847T580 784L575 770Q513 782 454 801T358 838Q329 820 280 801T181 770L176 784Q241 809 292 846T369 924H387Z" />
<glyph unicode="&#xd5;" glyph-name="Otilde" horiz-adv-x="758" d="M380 722Q478 722 552 679T668 556T709 360Q709 248 667 164T550 33T379 -14Q280 -14 206 29T91 153T50 348Q50 460 92 544T209 675T380 722ZM376 704Q314 704 268 659T197 535T172 352Q172
246 200 168T276 47T383 4Q445 4 490 49T561 173T587 356Q587 463 559 541T483 661T376 704ZM295 909Q325 909 350 898T397 872T443 846T494 834Q515 834 533 846T563 890L578 886Q571 830 537 801T459 771Q429 771 404 782T356 808T310 834T260 846Q238 846 220
834T191 790L176 794Q184 850 218 879T295 909Z" />
<glyph unicode="&#xd6;" glyph-name="Odieresis" horiz-adv-x="758" d="M380 722Q478 722 552 679T668 556T709 360Q709 248 667 164T550 33T379 -14Q280 -14 206 29T91 153T50 348Q50 460 92 544T209 675T380 722ZM376 704Q314 704 268 659T197 535T172 352Q172
246 200 168T276 47T383 4Q445 4 490 49T561 173T587 356Q587 463 559 541T483 661T376 704ZM489 898Q514 898 533 879T552 834Q552 807 533 789T489 770Q462 770 444 788T425 834Q425 859 443 878T489 898ZM267 898Q293 898 312 879T331 834Q331 807 312 789T267
770Q241 770 223 788T204 834Q204 859 222 878T267 898Z" />
<glyph unicode="&#xd7;" glyph-name="multiply" horiz-adv-x="504" d="M78 552L253 377L426 550L448 528L275 356L448 183L426 161L253 334L79 160L57 182L231 355L56 530L78 552Z" />
<glyph unicode="&#xd8;" glyph-name="Oslash" horiz-adv-x="758" d="M380 722Q478 722 552 679T668 556T709 360Q709 248 667 164T550 33T379 -14Q280 -14 206 29T91 153T50 348Q50 460 92 544T209 675T380 722ZM376 704Q314 704 268 659T197 535T172 352Q172
246 200 168T276 47T383 4Q445 4 490 49T561 173T587 356Q587 463 559 541T483 661T376 704ZM546 634L561 614L213 77L195 95L546 634ZM186 95L204 77L99 -75L78 -61L186 95ZM650 775L669 762L568 614L553 634L650 775Z" />
<glyph unicode="&#xd9;" glyph-name="Ugrave" horiz-adv-x="684" d="M660 708V688Q627 686 610 676T587 644T581 580V291Q581 223 572 170T540 79Q515 37 467 12T351 -14Q303 -14 258 -3T179 39Q149 66 132 98T109 175T103 288V602Q103 639 98 656T75 680T24 688V708Q47
707 83 706T162 705Q200 705 237 706T299 708V688Q265 687 248 681T224 657T218 602V256Q218 205 223 162T244 88T290 39T370 21Q444 21 484 54T541 146T558 280V576Q558 619 550 642T522 675T465 688V708Q484 707 514 706T569 705Q595 705 619 706T660 708ZM255
929Q277 916 297 896T346 849T421 785L414 772Q362 796 324 809T260 831T211 853Q189 867 184 884T187 917Q197 933 216 937T255 929Z" />
<glyph unicode="&#xda;" glyph-name="Uacute" horiz-adv-x="684" d="M660 708V688Q627 686 610 676T587 644T581 580V291Q581 223 572 170T540 79Q515 37 467 12T351 -14Q303 -14 258 -3T179 39Q149 66 132 98T109 175T103 288V602Q103 639 98 656T75 680T24 688V708Q47
707 83 706T162 705Q200 705 237 706T299 708V688Q265 687 248 681T224 657T218 602V256Q218 205 223 162T244 88T290 39T370 21Q444 21 484 54T541 146T558 280V576Q558 619 550 642T522 675T465 688V708Q484 707 514 706T569 705Q595 705 619 706T660 708ZM455
929Q475 941 494 937T523 917Q531 902 526 885T499 853Q478 841 451 832T386 809T296 772L289 785Q336 821 364 848T413 896T455 929Z" />
<glyph unicode="&#xdb;" glyph-name="Ucircumflex" horiz-adv-x="684" d="M660 708V688Q627 686 610 676T587 644T581 580V291Q581 223 572 170T540 79Q515 37 467 12T351 -14Q303 -14 258 -3T179 39Q149 66 132 98T109 175T103 288V602Q103 639 98 656T75 680T24
688V708Q47 707 83 706T162 705Q200 705 237 706T299 708V688Q265 687 248 681T224 657T218 602V256Q218 205 223 162T244 88T290 39T370 21Q444 21 484 54T541 146T558 280V576Q558 619 550 642T522 675T465 688V708Q484 707 514 706T569 705Q595 705 619 706T660
708ZM363 924Q388 884 439 847T556 784L551 770Q489 782 430 801T334 838Q305 820 256 801T157 770L152 784Q217 809 268 846T345 924H363Z" />
<glyph unicode="&#xdc;" glyph-name="Udieresis" horiz-adv-x="684" d="M660 708V688Q627 686 610 676T587 644T581 580V291Q581 223 572 170T540 79Q515 37 467 12T351 -14Q303 -14 258 -3T179 39Q149 66 132 98T109 175T103 288V602Q103 639 98 656T75 680T24
688V708Q47 707 83 706T162 705Q200 705 237 706T299 708V688Q265 687 248 681T224 657T218 602V256Q218 205 223 162T244 88T290 39T370 21Q444 21 484 54T541 146T558 280V576Q558 619 550 642T522 675T465 688V708Q484 707 514 706T569 705Q595 705 619 706T660
708ZM465 898Q490 898 509 879T528 834Q528 807 509 789T465 770Q438 770 420 788T401 834Q401 859 419 878T465 898ZM243 898Q269 898 288 879T307 834Q307 807 288 789T243 770Q217 770 199 788T180 834Q180 859 198 878T243 898Z" />
<glyph unicode="&#xdd;" glyph-name="Yacute" horiz-adv-x="602" d="M598 708V688Q578 683 558 661T512 590L315 199H288L54 631Q34 667 21 677T-4 687V708Q18 707 42 706T94 705Q130 705 172 705T250 708V687Q225 687 206 682T180 663T187 621L352 304L336 287L459
532Q490 593 490 626T469 673T404 688V708Q435 707 465 706T522 705Q547 705 565 706T598 708ZM368 322V106Q368 70 374 52T397 28T447 20V0Q423 2 386 2T311 3Q270 3 233 3T174 0V20Q208 22 225 28T247 52T253 106V311L318 249L368 322ZM414 929Q434 941 453 937T482
917Q490 902 485 885T458 853Q437 841 410 832T345 809T255 772L248 785Q295 821 323 848T372 896T414 929Z" />
<glyph unicode="&#xde;" glyph-name="Thorn" horiz-adv-x="594" d="M313 562Q398 562 454 537T538 469T566 368Q566 328 554 289T510 215T426 161T291 141H195Q195 141 195 151T195 161H281Q348 161 383 188T431 262T444 361Q444 450 409 496T288 543Q267 543
243 543T197 542T164 541L162 560Q209 560 252 561T313 562ZM312 708V688Q279 687 262 681T239 657T233 602V106Q233 70 239 52T262 28T312 20V0Q288 2 252 2T177 3Q135 3 99 3T39 0V20Q73 22 90 28T112 52T118 106V602Q118 639 113 656T90 680T39 688V708Q62 707
98 706T177 705Q215 705 251 706T312 708Z" />
<glyph unicode="&#xdf;" glyph-name="germandbls" horiz-adv-x="608" d="M306 782Q398 782 446 743T494 637Q494 599 476 566T429 505T369 460T310 433Q385 419 443 383T536 295T571 177Q571 116 544 74T472 9T377 -14Q347 -14 318 -5T268 25T248 78Q248 105 263
122T307 140Q333 140 349 125T365 85Q365 62 352 46T316 22Q319 14 332 8T363 2Q389 2 411 18T448 68T462 159Q462 206 451 249T418 326T366 386T296 423Q288 418 278 414T259 409Q252 409 246 413T239 426Q239 445 262 445Q269 445 278 443T297 437Q348 475 368
521T388 631Q388 697 364 732T293 767Q271 767 250 755T214 707T200 606V-11Q177 -3 149 0T89 3Q73 3 57 3T20 0V21Q62 21 77 41T92 106V533Q92 622 118 677T193 757T306 782Z" />
<glyph unicode="&#xe0;" glyph-name="agrave" horiz-adv-x="505" d="M168 -7Q126 -7 96 9T51 53T36 117Q36 161 56 188T107 233T174 261T241 283T293 308T314 345V413Q314 449 303 470T272 501T225 510Q202 510 176 504T135 478Q157 472 171 455T186 411Q186 383
168 367T121 351Q90 351 75 370T60 416Q60 443 73 460T109 492Q133 508 170 519T254 530Q297 530 328 521T381 490Q406 467 414 433T422 349V73Q422 48 428 38T450 27Q460 27 469 32T492 47L502 30Q481 13 460 3T405 -7Q373 -7 353 3T324 32T314 79Q288 37 252
15T168 -7ZM216 41Q244 41 268 57T314 105V304Q303 288 282 277T237 253T192 226T156 186T142 125Q142 86 162 64T216 41ZM127 814Q141 826 160 823T195 801Q210 782 222 756T251 695T299 608L288 599Q247 641 217 666T165 709T126 747Q111 767 112 785T127 814Z"
/>
<glyph unicode="&#xe1;" glyph-name="aacute" horiz-adv-x="505" d="M168 -7Q126 -7 96 9T51 53T36 117Q36 161 56 188T107 233T174 261T241 283T293 308T314 345V413Q314 449 303 470T272 501T225 510Q202 510 176 504T135 478Q157 472 171 455T186 411Q186 383
168 367T121 351Q90 351 75 370T60 416Q60 443 73 460T109 492Q133 508 170 519T254 530Q297 530 328 521T381 490Q406 467 414 433T422 349V73Q422 48 428 38T450 27Q460 27 469 32T492 47L502 30Q481 13 460 3T405 -7Q373 -7 353 3T324 32T314 79Q288 37 252
15T168 -7ZM216 41Q244 41 268 57T314 105V304Q303 288 282 277T237 253T192 226T156 186T142 125Q142 86 162 64T216 41ZM359 814Q372 803 373 785T360 747Q344 727 322 709T270 666T198 599L187 608Q218 659 235 694T264 756T291 801Q306 821 325 823T359 814Z"
/>
<glyph unicode="&#xe2;" glyph-name="acircumflex" horiz-adv-x="505" d="M168 -7Q126 -7 96 9T51 53T36 117Q36 161 56 188T107 233T174 261T241 283T293 308T314 345V413Q314 449 303 470T272 501T225 510Q202 510 176 504T135 478Q157 472 171 455T186 411Q186
383 168 367T121 351Q90 351 75 370T60 416Q60 443 73 460T109 492Q133 508 170 519T254 530Q297 530 328 521T381 490Q406 467 414 433T422 349V73Q422 48 428 38T450 27Q460 27 469 32T492 47L502 30Q481 13 460 3T405 -7Q373 -7 353 3T324 32T314 79Q288 37
252 15T168 -7ZM216 41Q244 41 268 57T314 105V304Q303 288 282 277T237 253T192 226T156 186T142 125Q142 86 162 64T216 41ZM260 808Q282 756 327 708T431 628L423 614Q368 631 316 656T231 706Q205 681 164 656T79 614L71 628Q129 659 174 707T242 808H260Z"
/>
<glyph unicode="&#xe3;" glyph-name="atilde" horiz-adv-x="505" d="M168 -7Q126 -7 96 9T51 53T36 117Q36 161 56 188T107 233T174 261T241 283T293 308T314 345V413Q314 449 303 470T272 501T225 510Q202 510 176 504T135 478Q157 472 171 455T186 411Q186 383
168 367T121 351Q90 351 75 370T60 416Q60 443 73 460T109 492Q133 508 170 519T254 530Q297 530 328 521T381 490Q406 467 414 433T422 349V73Q422 48 428 38T450 27Q460 27 469 32T492 47L502 30Q481 13 460 3T405 -7Q373 -7 353 3T324 32T314 79Q288 37 252
15T168 -7ZM216 41Q244 41 268 57T314 105V304Q303 288 282 277T237 253T192 226T156 186T142 125Q142 86 162 64T216 41ZM176 774Q204 774 224 764T260 741T293 718T333 708Q354 708 373 720T410 761L424 754Q408 693 376 666T304 639Q276 639 256 649T219 672T186
696T146 706Q125 706 106 694T69 652L55 659Q71 721 104 747T176 774Z" />
<glyph unicode="&#xe4;" glyph-name="adieresis" horiz-adv-x="505" d="M168 -7Q126 -7 96 9T51 53T36 117Q36 161 56 188T107 233T174 261T241 283T293 308T314 345V413Q314 449 303 470T272 501T225 510Q202 510 176 504T135 478Q157 472 171 455T186 411Q186
383 168 367T121 351Q90 351 75 370T60 416Q60 443 73 460T109 492Q133 508 170 519T254 530Q297 530 328 521T381 490Q406 467 414 433T422 349V73Q422 48 428 38T450 27Q460 27 469 32T492 47L502 30Q481 13 460 3T405 -7Q373 -7 353 3T324 32T314 79Q288 37
252 15T168 -7ZM216 41Q244 41 268 57T314 105V304Q303 288 282 277T237 253T192 226T156 186T142 125Q142 86 162 64T216 41ZM361 749Q386 749 405 730T424 685Q424 659 405 640T361 621Q334 621 316 640T297 685Q297 710 315 729T361 749ZM143 749Q169 749 188
730T207 685Q207 659 188 640T143 621Q117 621 99 640T80 685Q80 710 98 729T143 749Z" />
<glyph unicode="&#xe5;" glyph-name="aring" horiz-adv-x="505" d="M168 -7Q126 -7 96 9T51 53T36 117Q36 161 56 188T107 233T174 261T241 283T293 308T314 345V413Q314 449 303 470T272 501T225 510Q202 510 176 504T135 478Q157 472 171 455T186 411Q186 383
168 367T121 351Q90 351 75 370T60 416Q60 443 73 460T109 492Q133 508 170 519T254 530Q297 530 328 521T381 490Q406 467 414 433T422 349V73Q422 48 428 38T450 27Q460 27 469 32T492 47L502 30Q481 13 460 3T405 -7Q373 -7 353 3T324 32T314 79Q288 37 252
15T168 -7ZM216 41Q244 41 268 57T314 105V304Q303 288 282 277T237 253T192 226T156 186T142 125Q142 86 162 64T216 41ZM251 793Q292 793 322 768T352 700Q352 656 322 631T251 606Q211 606 181 631T151 700Q151 743 181 768T251 793ZM251 772Q226 772 203 754T179
699Q179 663 202 645T251 627Q277 627 300 645T324 699Q324 735 301 753T251 772Z" />
<glyph unicode="&#xe6;" glyph-name="ae" horiz-adv-x="744" d="M161 -7Q95 -7 66 26T36 112Q36 155 56 182T107 226T174 256T241 280T293 307T314 345V413Q314 449 303 470T272 501T225 510Q202 510 176 504T135 478Q157 472 171 455T186 411Q186 383 168 367T121
351Q90 351 75 370T60 416Q60 443 73 460T109 492Q133 508 170 519T254 530Q297 530 328 521T381 490Q406 467 413 432T420 349L342 121Q314 67 284 39T222 2T161 -7ZM215 41Q243 41 269 58T319 115L315 306Q303 289 283 277T238 254T192 228T156 189T142 128Q142
83 163 62T215 41ZM525 -14Q460 -14 413 16T341 104T316 248Q316 338 341 401T413 497T527 530Q610 530 657 477T704 309H387L386 328H598Q600 377 592 418T567 485T522 510Q484 510 456 465T421 319L424 314Q423 300 422 284T421 251Q421 182 440 135T490 65T555
41Q578 41 600 49T642 78T679 135L698 127Q688 93 665 60T607 7T525 -14Z" />
<glyph unicode="&#xe7;" glyph-name="ccedilla" horiz-adv-x="489" d="M281 530Q315 530 346 522T400 498Q424 483 436 462T449 416Q449 386 432 369T388 352Q361 352 343 367T325 410Q325 436 340 452T375 474Q366 489 344 499T295 510Q268 510 244 496T200 453T170
378T158 267Q158 183 177 134T229 63T298 42Q322 42 347 51T396 81T438 138L457 131Q446 98 423 64T361 8T268 -14Q205 -14 154 17T73 107T43 253Q43 337 73 399T158 496T281 530ZM264 5L239 -70Q253 -66 269 -64T302 -61Q332 -61 349 -74T366 -110Q366 -138 347
-155T300 -180T244 -188Q216 -188 195 -185T160 -177L164 -159Q169 -160 180 -161T204 -162Q223 -162 242 -158T274 -145T288 -118Q288 -91 249 -91Q241 -91 228 -92T203 -98L237 5H264Z" />
<glyph unicode="&#xe8;" glyph-name="egrave" horiz-adv-x="505" d="M275 530Q363 530 413 477T463 309H118L116 328H357Q358 377 349 418T321 485T271 510Q228 510 197 465T158 319L161 314Q160 300 159 284T158 251Q158 182 179 135T234 65T303 41Q330 41 355
49T404 78T445 135L465 127Q453 93 428 60T364 7T273 -14Q203 -14 151 17T71 108T43 248Q43 337 72 400T153 496T275 530ZM149 814Q163 826 182 823T217 801Q232 782 244 756T273 695T321 608L310 599Q269 641 239 666T187 709T148 747Q133 767 134 785T149 814Z"
/>
<glyph unicode="&#xe9;" glyph-name="eacute" horiz-adv-x="505" d="M275 530Q363 530 413 477T463 309H118L116 328H357Q358 377 349 418T321 485T271 510Q228 510 197 465T158 319L161 314Q160 300 159 284T158 251Q158 182 179 135T234 65T303 41Q330 41 355
49T404 78T445 135L465 127Q453 93 428 60T364 7T273 -14Q203 -14 151 17T71 108T43 248Q43 337 72 400T153 496T275 530ZM381 814Q394 803 395 785T382 747Q366 727 344 709T292 666T220 599L209 608Q240 659 257 694T286 756T313 801Q328 821 347 823T381 814Z"
/>
<glyph unicode="&#xea;" glyph-name="ecircumflex" horiz-adv-x="505" d="M275 530Q363 530 413 477T463 309H118L116 328H357Q358 377 349 418T321 485T271 510Q228 510 197 465T158 319L161 314Q160 300 159 284T158 251Q158 182 179 135T234 65T303 41Q330
41 355 49T404 78T445 135L465 127Q453 93 428 60T364 7T273 -14Q203 -14 151 17T71 108T43 248Q43 337 72 400T153 496T275 530ZM282 808Q304 756 349 708T453 628L445 614Q390 631 338 656T253 706Q227 681 186 656T101 614L93 628Q151 659 196 707T264 808H282Z"
/>
<glyph unicode="&#xeb;" glyph-name="edieresis" horiz-adv-x="505" d="M275 530Q363 530 413 477T463 309H118L116 328H357Q358 377 349 418T321 485T271 510Q228 510 197 465T158 319L161 314Q160 300 159 284T158 251Q158 182 179 135T234 65T303 41Q330 41
355 49T404 78T445 135L465 127Q453 93 428 60T364 7T273 -14Q203 -14 151 17T71 108T43 248Q43 337 72 400T153 496T275 530ZM383 749Q408 749 427 730T446 685Q446 659 427 640T383 621Q356 621 338 640T319 685Q319 710 337 729T383 749ZM165 749Q191 749 210
730T229 685Q229 659 210 640T165 621Q139 621 121 640T102 685Q102 710 120 729T165 749Z" />
<glyph unicode="&#xec;" glyph-name="igrave" horiz-adv-x="300" d="M207 527V93Q207 51 223 36T279 21V0Q262 1 227 2T154 4Q119 4 82 3T27 0V21Q66 21 82 36T99 93V407Q99 452 84 473T27 495V516Q59 513 89 513Q123 513 152 516T207 527ZM278 814Q292 826 311
823T346 801Q361 782 373 756T402 695T450 608L439 599Q398 641 368 666T316 709T277 747Q262 767 263 785T278 814Z" />
<glyph unicode="&#xed;" glyph-name="iacute" horiz-adv-x="300" d="M207 527V93Q207 51 223 36T279 21V0Q262 1 227 2T154 4Q119 4 82 3T27 0V21Q66 21 82 36T99 93V407Q99 452 84 473T27 495V516Q59 513 89 513Q123 513 152 516T207 527ZM254 814Q267 803 268
785T255 747Q239 727 217 709T165 666T93 599L82 608Q113 659 130 694T159 756T186 801Q201 821 220 823T254 814Z" />
<glyph unicode="&#xee;" glyph-name="icircumflex" horiz-adv-x="300" d="M207 527V93Q207 51 223 36T279 21V0Q262 1 227 2T154 4Q119 4 82 3T27 0V21Q66 21 82 36T99 93V407Q99 452 84 473T27 495V516Q59 513 89 513Q123 513 152 516T207 527ZM411 808Q433 756
478 708T582 628L574 614Q519 631 467 656T382 706Q356 681 315 656T230 614L222 628Q280 659 325 707T393 808H411Z" />
<glyph unicode="&#xef;" glyph-name="idieresis" horiz-adv-x="300" d="M207 527V93Q207 51 223 36T279 21V0Q262 1 227 2T154 4Q119 4 82 3T27 0V21Q66 21 82 36T99 93V407Q99 452 84 473T27 495V516Q59 513 89 513Q123 513 152 516T207 527ZM512 749Q537 749
556 730T575 685Q575 659 556 640T512 621Q485 621 467 640T448 685Q448 710 466 729T512 749ZM294 749Q320 749 339 730T358 685Q358 659 339 640T294 621Q268 621 250 640T231 685Q231 710 249 729T294 749Z" />
<glyph unicode="&#xf0;" glyph-name="eth" horiz-adv-x="558" d="M138 782Q212 754 278 713T397 613T478 478T507 303Q507 195 475 125T390 20T274 -14Q207 -14 155 14T73 102T43 253Q43 309 58 359T101 447T170 508T264 530Q332 530 368 492T415 375L396 371Q392
430 373 459T328 498T279 508Q245 508 217 484T174 403T158 254Q158 165 173 110T214 31T270 6Q302 6 330 32T376 122T394 301Q394 409 374 485T318 613T234 702T130 765L138 782ZM284 693L301 679L102 582L93 600L284 693ZM440 769L449 751L301 679L284 693L440
769Z" />
<glyph unicode="&#xf1;" glyph-name="ntilde" horiz-adv-x="603" d="M375 530Q415 530 440 520T483 491Q501 472 508 442T516 361V93Q516 51 532 36T588 21V0Q571 1 535 2T464 4Q430 4 397 3T346 0V21Q380 21 394 36T408 93V389Q408 418 403 441T382 479T334 494Q297
494 269 473T224 416T207 334V93Q207 51 221 36T269 21V0Q253 1 221 2T153 4Q119 4 82 3T27 0V21Q66 21 82 36T99 93V407Q99 452 84 473T27 495V516Q59 513 89 513Q123 513 152 516T207 527V418Q233 480 278 505T375 530ZM234 774Q262 774 282 764T318 741T351
718T391 708Q412 708 431 720T468 761L482 754Q466 693 434 666T362 639Q334 639 314 649T277 672T244 696T204 706Q183 706 164 694T127 652L113 659Q129 721 162 747T234 774Z" />
<glyph unicode="&#xf2;" glyph-name="ograve" horiz-adv-x="554" d="M277 530Q344 530 396 502T479 414T510 257Q510 160 479 101T396 14T277 -14Q211 -14 158 13T75 100T44 257Q44 354 74 414T158 502T277 530ZM277 510Q225 510 192 451T159 257Q159 123 192
65T277 6Q328 6 361 64T395 257Q395 391 362 450T277 510ZM155 814Q169 826 188 823T223 801Q238 782 250 756T279 695T327 608L316 599Q275 641 245 666T193 709T154 747Q139 767 140 785T155 814Z" />
<glyph unicode="&#xf3;" glyph-name="oacute" horiz-adv-x="554" d="M277 530Q344 530 396 502T479 414T510 257Q510 160 479 101T396 14T277 -14Q211 -14 158 13T75 100T44 257Q44 354 74 414T158 502T277 530ZM277 510Q225 510 192 451T159 257Q159 123 192
65T277 6Q328 6 361 64T395 257Q395 391 362 450T277 510ZM387 814Q400 803 401 785T388 747Q372 727 350 709T298 666T226 599L215 608Q246 659 263 694T292 756T319 801Q334 821 353 823T387 814Z" />
<glyph unicode="&#xf4;" glyph-name="ocircumflex" horiz-adv-x="554" d="M277 530Q344 530 396 502T479 414T510 257Q510 160 479 101T396 14T277 -14Q211 -14 158 13T75 100T44 257Q44 354 74 414T158 502T277 530ZM277 510Q225 510 192 451T159 257Q159 123
192 65T277 6Q328 6 361 64T395 257Q395 391 362 450T277 510ZM288 808Q310 756 355 708T459 628L451 614Q396 631 344 656T259 706Q233 681 192 656T107 614L99 628Q157 659 202 707T270 808H288Z" />
<glyph unicode="&#xf5;" glyph-name="otilde" horiz-adv-x="554" d="M277 530Q344 530 396 502T479 414T510 257Q510 160 479 101T396 14T277 -14Q211 -14 158 13T75 100T44 257Q44 354 74 414T158 502T277 530ZM277 510Q225 510 192 451T159 257Q159 123 192
65T277 6Q328 6 361 64T395 257Q395 391 362 450T277 510ZM205 774Q233 774 253 764T289 741T322 718T362 708Q383 708 402 720T439 761L453 754Q437 693 405 666T333 639Q305 639 285 649T248 672T215 696T175 706Q154 706 135 694T98 652L84 659Q100 721 133
747T205 774Z" />
<glyph unicode="&#xf6;" glyph-name="odieresis" horiz-adv-x="554" d="M277 530Q344 530 396 502T479 414T510 257Q510 160 479 101T396 14T277 -14Q211 -14 158 13T75 100T44 257Q44 354 74 414T158 502T277 530ZM277 510Q225 510 192 451T159 257Q159 123 192
65T277 6Q328 6 361 64T395 257Q395 391 362 450T277 510ZM389 749Q414 749 433 730T452 685Q452 659 433 640T389 621Q362 621 344 640T325 685Q325 710 343 729T389 749ZM171 749Q197 749 216 730T235 685Q235 659 216 640T171 621Q145 621 127 640T108 685Q108
710 126 729T171 749Z" />
<glyph unicode="&#xf7;" glyph-name="divide" horiz-adv-x="644" d="M322 266Q345 266 361 250T378 211Q378 188 362 172T322 155Q300 155 284 171T267 211Q267 234 283 250T322 266ZM322 554Q345 554 361 538T378 499Q378 476 362 460T322 444Q300 444 284 460T267
499Q267 522 283 538T322 554ZM572 370V340H71V370H572Z" />
<glyph unicode="&#xf8;" glyph-name="oslash" horiz-adv-x="554" d="M277 530Q344 530 396 502T479 414T510 257Q510 160 479 101T396 14T277 -14Q211 -14 158 13T75 100T44 257Q44 354 74 414T158 502T277 530ZM277 510Q225 510 192 451T159 257Q159 123 192
65T277 6Q328 6 361 64T395 257Q395 391 362 450T277 510ZM648 466L663 446L428 63L412 84L648 466ZM399 82L415 61L323 -73L302 -59L399 82ZM744 588L763 575L675 446L660 466L744 588Z" />
<glyph unicode="&#xf9;" glyph-name="ugrave" horiz-adv-x="589" d="M496 527V108Q496 63 511 42T568 20V-1Q537 2 506 2Q473 2 443 -1T388 -12V97Q363 37 319 12T225 -14Q188 -14 162 -4T119 24Q101 44 94 75T87 155V407Q87 452 72 473T15 495V516Q47 513 77
513Q110 513 140 516T195 527V127Q195 98 199 74T218 36T266 22Q301 22 328 43T372 100T388 181V407Q388 452 373 473T316 495V516Q348 513 378 513Q411 513 441 516T496 527ZM159 814Q173 826 192 823T227 801Q242 782 254 756T283 695T331 608L320 599Q279 641
249 666T197 709T158 747Q143 767 144 785T159 814Z" />
<glyph unicode="&#xfa;" glyph-name="uacute" horiz-adv-x="589" d="M496 527V108Q496 63 511 42T568 20V-1Q537 2 506 2Q473 2 443 -1T388 -12V97Q363 37 319 12T225 -14Q188 -14 162 -4T119 24Q101 44 94 75T87 155V407Q87 452 72 473T15 495V516Q47 513 77
513Q110 513 140 516T195 527V127Q195 98 199 74T218 36T266 22Q301 22 328 43T372 100T388 181V407Q388 452 373 473T316 495V516Q348 513 378 513Q411 513 441 516T496 527ZM391 814Q404 803 405 785T392 747Q376 727 354 709T302 666T230 599L219 608Q250 659
267 694T296 756T323 801Q338 821 357 823T391 814Z" />
<glyph unicode="&#xfb;" glyph-name="ucircumflex" horiz-adv-x="589" d="M496 527V108Q496 63 511 42T568 20V-1Q537 2 506 2Q473 2 443 -1T388 -12V97Q363 37 319 12T225 -14Q188 -14 162 -4T119 24Q101 44 94 75T87 155V407Q87 452 72 473T15 495V516Q47 513
77 513Q110 513 140 516T195 527V127Q195 98 199 74T218 36T266 22Q301 22 328 43T372 100T388 181V407Q388 452 373 473T316 495V516Q348 513 378 513Q411 513 441 516T496 527ZM292 808Q314 756 359 708T463 628L455 614Q400 631 348 656T263 706Q237 681 196
656T111 614L103 628Q161 659 206 707T274 808H292Z" />
<glyph unicode="&#xfc;" glyph-name="udieresis" horiz-adv-x="589" d="M496 527V108Q496 63 511 42T568 20V-1Q537 2 506 2Q473 2 443 -1T388 -12V97Q363 37 319 12T225 -14Q188 -14 162 -4T119 24Q101 44 94 75T87 155V407Q87 452 72 473T15 495V516Q47 513
77 513Q110 513 140 516T195 527V127Q195 98 199 74T218 36T266 22Q301 22 328 43T372 100T388 181V407Q388 452 373 473T316 495V516Q348 513 378 513Q411 513 441 516T496 527ZM393 749Q418 749 437 730T456 685Q456 659 437 640T393 621Q366 621 348 640T329
685Q329 710 347 729T393 749ZM175 749Q201 749 220 730T239 685Q239 659 220 640T175 621Q149 621 131 640T112 685Q112 710 130 729T175 749Z" />
<glyph unicode="&#xfd;" glyph-name="yacute" horiz-adv-x="509" d="M500 516V496Q481 493 465 477T434 420L278 2L254 -22L59 439Q40 478 23 486T-7 495V516Q18 513 46 512T104 510Q138 510 172 512T237 516V495Q213 495 195 492T171 473T180 420L304 115L297
112L398 380Q413 420 410 444T389 481T336 496V516Q353 515 367 515T396 514T424 513Q446 513 465 514T500 516ZM278 2L242 -92Q232 -117 222 -134T199 -162Q184 -176 162 -182T118 -188Q97 -188 79 -181T48 -158T36 -121Q36 -95 53 -79T98 -63Q123 -63 140 -76T157
-116Q157 -134 148 -147T123 -167Q126 -168 129 -168T134 -168Q162 -168 184 -150T221 -90L257 6L278 2ZM363 814Q376 803 377 785T364 747Q348 727 326 709T274 666T202 599L191 608Q222 659 239 694T268 756T295 801Q310 821 329 823T363 814Z" />
<glyph unicode="&#xfe;" glyph-name="thorn" horiz-adv-x="567" d="M181 783V-86Q181 -130 206 -145T275 -160V-181Q252 -180 211 -179T123 -177Q91 -177 59 -178T9 -181V-160Q44 -160 58 -147T73 -96V663Q73 708 58 729T1 751V772Q33 769 63 769Q97 769 126 772T181
783ZM340 530Q392 530 433 502T499 418T523 281Q523 221 509 168T467 74T395 10T294 -14Q249 -14 216 5T168 53L178 67Q191 42 215 26T273 10Q325 10 354 43T396 134T408 265Q408 347 396 397T360 471T302 495Q257 495 221 459T176 351L166 372Q180 447 227 488T340
530Z" />
<glyph unicode="&#xff;" glyph-name="ydieresis" horiz-adv-x="509" d="M500 516V496Q481 493 465 477T434 420L278 2L254 -22L59 439Q40 478 23 486T-7 495V516Q18 513 46 512T104 510Q138 510 172 512T237 516V495Q213 495 195 492T171 473T180 420L304 115L297
112L398 380Q413 420 410 444T389 481T336 496V516Q353 515 367 515T396 514T424 513Q446 513 465 514T500 516ZM278 2L242 -92Q232 -117 222 -134T199 -162Q184 -176 162 -182T118 -188Q97 -188 79 -181T48 -158T36 -121Q36 -95 53 -79T98 -63Q123 -63 140 -76T157
-116Q157 -134 148 -147T123 -167Q126 -168 129 -168T134 -168Q162 -168 184 -150T221 -90L257 6L278 2ZM365 749Q390 749 409 730T428 685Q428 659 409 640T365 621Q338 621 320 640T301 685Q301 710 319 729T365 749ZM147 749Q173 749 192 730T211 685Q211 659
192 640T147 621Q121 621 103 640T84 685Q84 710 102 729T147 749Z" />
<glyph unicode="&#x2013;" glyph-name="endash" horiz-adv-x="581" d="M523 299V240H58V299H523Z" />
<glyph unicode="&#x2014;" glyph-name="emdash" horiz-adv-x="873" d="M815 299V240H58V299H815Z" />
<glyph unicode="&#x2018;" glyph-name="quoteleft" horiz-adv-x="251" d="M133 463Q110 463 95 472T70 496Q60 512 56 532T51 568Q51 617 76 658T155 724L164 706Q134 693 112 666T88 611Q86 596 90 583Q108 600 134 600Q163 600 183 582T203 531Q203 501 183
482T133 463Z" />
<glyph unicode="&#x2019;" glyph-name="quoteright" horiz-adv-x="248" d="M119 722Q142 722 157 713T182 689Q193 673 196 653T200 617Q200 568 175 527T97 461L88 479Q118 492 140 519T164 574Q165 589 162 602Q144 585 118 585Q89 585 69 603T49 653Q49 684
69 703T119 722Z" />
<glyph unicode="&#x201a;" glyph-name="quotesinglbase" horiz-adv-x="264" d="M128 123Q151 123 166 114T191 90Q202 74 205 54T209 18Q209 -31 184 -72T106 -138L97 -120Q127 -107 149 -80T173 -25Q174 -10 171 3Q153 -14 127 -14Q98 -14 78 4T58 54Q58 85 78
104T128 123Z" />
<glyph unicode="&#x201c;" glyph-name="quotedblleft" horiz-adv-x="433" d="M133 463Q110 463 95 472T70 496Q60 512 56 532T51 568Q51 617 76 658T155 724L164 706Q134 693 112 666T88 611Q86 596 90 583Q108 600 134 600Q163 600 183 582T203 531Q203 501 183
482T133 463ZM315 463Q292 463 277 472T252 496Q242 512 238 532T233 568Q233 617 258 658T337 724L346 706Q316 693 294 666T270 611Q268 596 272 583Q290 600 316 600Q345 600 365 582T385 531Q385 501 365 482T315 463Z" />
<glyph unicode="&#x201d;" glyph-name="quotedblright" horiz-adv-x="430" d="M301 722Q324 722 339 713T364 689Q375 673 378 653T382 617Q382 568 357 527T279 461L270 479Q300 492 322 519T346 574Q347 589 344 602Q326 585 300 585Q271 585 251 603T231 653Q231
684 251 703T301 722ZM119 722Q142 722 157 713T182 689Q193 673 196 653T200 617Q200 568 175 527T97 461L88 479Q118 492 140 519T164 574Q165 589 162 602Q144 585 118 585Q89 585 69 603T49 653Q49 684 69 703T119 722Z" />
<glyph unicode="&#x201e;" glyph-name="quotedblbase" horiz-adv-x="446" d="M310 123Q333 123 348 114T373 90Q384 74 387 54T391 18Q391 -31 366 -72T288 -138L279 -120Q309 -107 331 -80T355 -25Q356 -10 353 3Q335 -14 309 -14Q280 -14 260 4T240 54Q240 85
260 104T310 123ZM128 123Q151 123 166 114T191 90Q202 74 205 54T209 18Q209 -31 184 -72T106 -138L97 -120Q127 -107 149 -80T173 -25Q174 -10 171 3Q153 -14 127 -14Q98 -14 78 4T58 54Q58 85 78 104T128 123Z" />
<glyph unicode="&#x2022;" glyph-name="bullet" horiz-adv-x="456" d="M227 421Q270 421 304 400T358 345T379 269Q379 228 359 194T304 139T227 118Q186 118 152 138T97 193T77 269Q77 311 97 345T151 400T227 421Z" />
<glyph unicode="&#x2039;" glyph-name="guilsinglleft" horiz-adv-x="339" d="M275 530L292 524Q276 478 258 440T219 369T176 310T130 261Q154 239 176 212T218 150T257 77T292 -8L275 -14Q228 74 170 141T30 255V260Q112 307 170 374T275 530Z" />
<glyph unicode="&#x203a;" glyph-name="guilsinglright" horiz-adv-x="339" d="M64 530Q110 442 169 375T309 260V255Q228 209 169 142T64 -14L47 -8Q63 38 81 76T120 147T163 206T209 255Q185 277 163 304T121 366T82 439T47 524L64 530Z" />
</font>
</defs>
</svg>
