<?xml version="1.0" standalone="no"?>
<!DOCTYPE svg PUBLIC "-//W3C//DTD SVG 1.1//EN" "http://www.w3.org/Graphics/SVG/1.1/DTD/svg11.dtd">
<svg xmlns="http://www.w3.org/2000/svg">
<defs >
<font id="Nunito" horiz-adv-x="566" ><font-face
    font-family="Nunito Black"
    units-per-em="1000"
    panose-1="0 0 0 0 0 0 0 0 0 0"
    ascent="1011"
    descent="-353"
    alphabetic="0" />
<glyph unicode=" " glyph-name="space" horiz-adv-x="286" />
<glyph unicode="!" glyph-name="exclam" horiz-adv-x="272" d="M136 231Q110 231 95 248T75 295L40 597Q33 649 59 681T136 714Q188 714 213 682T231 597L197 295Q193 265 178 248T136 231ZM136 -6Q91 -6 65 21T38 92Q38 135 64 161T136 188Q183 188 208 162T234
92Q234 48 209 21T136 -6Z" />
<glyph unicode="&quot;" glyph-name="quotedbl" horiz-adv-x="515" d="M135 389Q108 389 89 407T66 457L46 612Q41 655 66 684T135 714Q163 714 184 701T216 664T223 612L202 457Q199 427 180 408T135 389ZM382 389Q355 389 336 407T313 457L293 612Q288 655 313
684T382 714Q410 714 431 701T463 664T470 612L449 457Q446 427 427 408T382 389Z" />
<glyph unicode="#" glyph-name="numbersign" horiz-adv-x="600" d="M132 -9Q101 -9 90 8T84 56L105 169L162 159H106Q88 159 75 165T54 183T47 213Q47 238 62 251T106 265H182L122 254L162 458L201 448H129Q110 448 97 454T76 472T69 501Q69 527 84 540T129 554H222L177
543L201 661Q206 688 222 701T265 714Q293 714 306 697T313 649L294 554H381L402 661Q408 688 424 701T467 714Q496 714 509 697T515 649L494 543L455 554H494Q513 554 526 548T546 531T553 501Q553 476 538 462T494 448H434L478 458L438 254L398 265H471Q491 265
504 259T524 242T531 213Q531 187 516 173T471 159H378L422 169L397 44Q392 16 376 4T334 -9Q305 -9 292 8T285 56L305 159H219L196 44Q191 16 175 4T132 -9ZM239 265H325L361 448H275L239 265Z" />
<glyph unicode="$" glyph-name="dollar" horiz-adv-x="600" d="M309 -124Q280 -124 260 -104T240 -54V20L270 -7Q203 -4 154 10T74 38Q48 50 38 72T29 117T46 159T82 184T135 178Q155 167 195 156T296 144Q338 144 362 152T397 173T408 203Q408 218 401 228T376
247T329 263L216 287Q123 308 78 357T32 486Q32 546 61 593T144 671T270 709L240 692V759Q240 789 260 809T309 829Q339 829 359 809T379 759V692L349 711Q387 710 431 699T508 667Q531 655 540 634T548 592T532 553T496 531T442 538Q419 548 391 554T318 561Q265
561 237 542T208 493Q208 473 224 460T285 436L399 411Q494 390 539 342T585 216Q585 156 556 110T476 35T356 -3L379 21V-54Q379 -84 360 -104T309 -124Z" />
<glyph unicode="%" glyph-name="percent" horiz-adv-x="964" d="M363 18Q350 -5 330 -12T291 -15T258 4T241 39T251 83L601 686Q615 710 634 717T672 720T705 701T722 666T712 622L363 18ZM218 285Q128 285 79 344T29 502Q29 568 52 616T117 690T218 716Q307 716
356 658T406 502Q406 437 384 388T319 312T218 285ZM218 395Q233 395 243 405T259 439T265 502Q265 561 253 584T218 607Q202 607 192 598T176 565T170 502Q170 442 182 419T218 395ZM746 -11Q657 -11 608 48T558 205Q558 272 580 320T645 394T746 420Q835 420
885 361T935 205Q935 140 913 92T848 16T746 -11ZM746 98Q762 98 772 108T788 142T794 205Q794 264 782 287T746 310Q731 310 721 301T705 269T699 205Q699 145 711 122T746 98Z" />
<glyph unicode="&amp;" glyph-name="ampersand" horiz-adv-x="766" d="M317 -11Q236 -11 176 14T84 85T51 192Q51 226 60 255T88 308T132 353T189 390L224 408L197 374Q159 409 140 449T120 533Q120 587 147 628T224 693T341 716Q430 716 482 671T535 548Q535
508 520 473T473 409T394 356V390L544 245H506Q518 263 526 284T541 328T553 376Q561 410 579 427T631 444Q667 444 685 424T698 367Q692 324 679 285T648 211T608 147V186L692 106Q720 81 720 54T701 9T644 -9Q612 -9 593 3T549 38L509 78H547Q499 37 440 13T317
-11ZM329 123Q366 123 395 136T451 176L446 135L248 325L324 324L298 311Q275 299 259 283T235 248T227 205Q227 167 254 145T329 123ZM341 600Q313 600 297 583T281 538Q281 522 286 508T304 478T338 442L302 443Q338 459 358 474T388 505T398 543Q398 571 383
585T341 600Z" />
<glyph unicode="&apos;" glyph-name="quotesingle" horiz-adv-x="269" d="M135 389Q108 389 89 407T66 457L46 612Q41 655 66 684T135 714Q163 714 184 701T216 664T223 612L202 457Q199 427 180 408T135 389Z" />
<glyph unicode="(" glyph-name="parenleft" horiz-adv-x="407" d="M222 -155Q154 -57 126 48T97 263Q97 336 109 407T149 547T222 681Q239 705 265 711T314 708T349 672T347 607Q326 546 313 491T294 380T288 263Q288 202 294 147T313 36T347 -81Q360 -121 349
-146T314 -181T264 -185T222 -155Z" />
<glyph unicode=")" glyph-name="parenright" horiz-adv-x="407" d="M184 -155Q168 -178 143 -184T93 -181T58 -146T60 -81Q81 -19 93 36T112 146T118 263Q118 324 112 379T94 490T60 607Q47 646 58 672T92 707T142 711T184 681Q252 584 280 479T309 263Q309 190
297 119T257 -21T184 -155Z" />
<glyph unicode="*" glyph-name="asterisk" horiz-adv-x="456" d="M123 347Q99 361 96 383T109 430L165 512L191 475L90 468Q61 465 43 479T25 521Q25 549 43 563T90 575L191 566L167 527L110 612Q93 638 97 660T125 696Q149 711 170 701T203 663L238 583H218L252
663Q264 691 285 700T331 695Q356 680 359 658T346 611L290 529L265 566L365 574Q395 577 412 563T430 521Q430 493 413 479T365 468L265 475L290 512L346 430Q363 406 360 384T331 347Q307 333 286 341T253 378L218 460H238L202 379Q190 351 169 342T123 347Z"
/>
<glyph unicode="+" glyph-name="plus" horiz-adv-x="600" d="M300 31Q270 31 254 47T238 94V228H107Q78 228 63 243T47 287Q47 316 62 331T107 346H238V475Q238 505 254 521T301 537Q331 537 346 521T362 475V346H493Q522 346 537 331T553 287Q553 258 538 243T493
228H362V94Q362 64 347 48T300 31Z" />
<glyph unicode="," glyph-name="comma" horiz-adv-x="272" d="M161 -120Q145 -142 126 -144T92 -137T77 -108T93 -67Q118 -38 126 -9T134 43L140 -6Q94 -6 66 20T38 92Q38 135 64 161T136 188Q183 188 209 157T235 69Q235 41 230 12T209 -49T161 -120Z" />
<glyph unicode="-" glyph-name="hyphen" horiz-adv-x="445" d="M124 199Q94 199 74 219T54 269Q54 299 74 318T124 338H322Q352 338 372 319T392 269Q392 239 372 219T322 199H124Z" />
<glyph unicode="." glyph-name="period" horiz-adv-x="272" d="M136 -6Q91 -6 65 21T38 92Q38 135 64 161T136 188Q183 188 208 162T234 92Q234 48 209 21T136 -6Z" />
<glyph unicode="/" glyph-name="slash" horiz-adv-x="349" d="M129 -22Q120 -48 102 -60T63 -72T25 -61T-1 -30T-1 18L221 710Q229 736 247 748T286 760T325 749T351 718T350 670L129 -22Z" />
<glyph unicode="0" glyph-name="zero" horiz-adv-x="600" d="M300 -11Q170 -11 101 84T31 355Q31 473 62 553T153 675T300 716Q431 716 500 624T569 356Q569 239 538 157T447 32T300 -11ZM300 135Q348 135 371 187T395 356Q395 471 372 520T300 570Q252 570 229
521T205 356Q205 240 228 188T300 135Z" />
<glyph unicode="1" glyph-name="one" horiz-adv-x="600" d="M157 0Q120 0 101 19T81 75Q81 111 100 130T157 149H247V558H331L186 469Q160 453 137 456T98 476T77 515T81 561T117 600L255 686Q277 700 300 707T350 714Q388 714 409 695T430 638V149H510Q547 149
566 130T586 75Q586 39 567 20T510 0H157Z" />
<glyph unicode="2" glyph-name="two" horiz-adv-x="600" d="M144 0Q100 0 81 20T61 81Q61 109 73 131T106 174L281 357Q320 399 336 429T353 489Q353 527 328 546T256 565Q232 565 205 559T147 536Q120 524 99 529T63 551T45 590T51 633T87 669Q133 694 182 705T282
716Q364 716 419 692T504 623T533 510Q533 468 521 428T481 348T407 263L245 103V149H492Q529 149 548 130T568 75Q568 39 549 20T492 0H144Z" />
<glyph unicode="3" glyph-name="three" horiz-adv-x="600" d="M279 -11Q228 -11 177 -1T89 27Q57 42 45 64T34 109T50 150T88 174T142 168Q179 152 210 146T272 140Q308 140 332 148T368 172T380 214Q380 249 356 265T284 282H230Q192 282 172 301T152 355Q152
390 172 409T230 428H266Q295 428 315 436T347 459T358 498Q358 531 335 548T265 565Q237 565 208 559T146 538Q120 527 99 533T64 556T47 595T54 638T92 673Q134 694 183 705T283 716Q362 716 418 693T503 627T533 522Q533 482 518 448T474 392T406 359V373Q476
362 515 315T555 196Q555 132 522 85T427 14T279 -11Z" />
<glyph unicode="4" glyph-name="four" horiz-adv-x="600" d="M406 -9Q364 -9 341 14T317 82V118H116Q72 118 48 138T23 199Q23 223 32 245T64 300L308 656Q328 686 353 700T412 714Q450 714 472 692T494 623V257H518Q556 257 575 239T595 188Q595 154 576 136T518
118H494V82Q494 38 472 15T406 -9ZM317 257V493H345L157 214V257H317Z" />
<glyph unicode="5" glyph-name="five" horiz-adv-x="600" d="M295 -11Q247 -11 194 0T96 34Q69 48 59 70T51 116T69 157T106 180T156 172Q189 156 224 148T291 140Q325 140 349 150T385 179T398 224Q398 264 371 287T299 310Q279 310 256 304T207 281Q196 275
177 268T138 260Q102 260 85 277T68 325V627Q68 665 88 685T146 705H460Q497 705 517 686T537 630Q537 594 517 575T460 556H241V399H199Q223 427 262 441T347 456Q414 456 465 428T544 348T573 229Q573 157 540 103T444 19T295 -11Z" />
<glyph unicode="6" glyph-name="six" horiz-adv-x="600" d="M328 -11Q235 -11 171 31T72 152T38 346Q38 433 60 502T124 618T226 691T362 716Q403 716 445 706T525 676Q549 664 558 644T565 601T549 561T515 536T466 541Q436 555 410 560T360 565Q310 565 277
545T227 483T210 379V327H195Q204 370 228 400T287 447T367 463Q426 463 472 434T545 352T572 234Q572 162 541 107T455 21T328 -11ZM318 129Q344 129 363 141T393 175T404 226Q404 256 394 277T364 311T318 324Q293 324 274 312T243 278T232 226Q232 197 243 175T273
141T318 129Z" />
<glyph unicode="7" glyph-name="seven" horiz-adv-x="600" d="M177 -9Q143 -9 122 6T98 48T112 105L389 608V555H108Q71 555 51 574T30 630Q30 667 50 686T108 705H484Q521 705 545 685T570 628Q570 596 561 573T537 523L281 49Q265 18 241 5T177 -9Z" />
<glyph unicode="8" glyph-name="eight" horiz-adv-x="600" d="M300 -11Q215 -11 153 13T58 84T25 193Q25 244 45 283T102 346T184 376V347Q122 360 83 408T44 523Q44 584 75 627T164 693T300 716Q379 716 436 693T525 627T556 523Q556 478 539 441T491 379T420
348V376Q488 366 531 317T575 193Q575 130 542 84T448 14T300 -11ZM300 127Q353 127 381 147T409 207Q409 247 381 267T300 287Q247 287 219 267T191 207Q191 168 219 148T300 127ZM300 426Q329 426 349 435T379 461T390 502Q390 537 366 557T300 578Q258 578 235
558T211 502Q211 467 234 447T300 426Z" />
<glyph unicode="9" glyph-name="nine" horiz-adv-x="600" d="M238 -11Q197 -11 155 -1T75 29Q51 41 42 61T35 104T51 144T85 169T134 164Q164 150 190 145T240 140Q290 140 323 160T373 222T390 326V378H405Q397 336 373 305T313 258T233 242Q175 242 129 271T55
353T28 471Q28 543 59 598T145 684T272 716Q365 716 429 674T528 553T562 359Q562 272 540 203T476 87T374 14T238 -11ZM282 382Q308 382 327 394T357 428T368 479Q368 509 358 531T328 564T282 576Q256 576 237 565T207 531T196 479Q196 450 207 429T237 395T282
382Z" />
<glyph unicode=":" glyph-name="colon" horiz-adv-x="272" d="M136 -6Q91 -6 65 21T38 92Q38 135 64 161T136 188Q183 188 208 162T234 92Q234 48 209 21T136 -6ZM136 304Q91 304 65 331T38 401Q38 445 64 471T136 498Q183 498 208 472T234 401Q234 359 209 332T136 304Z" />
<glyph unicode=";" glyph-name="semicolon" horiz-adv-x="272" d="M161 -120Q145 -142 126 -144T92 -137T77 -108T93 -67Q118 -38 126 -9T134 43L140 -6Q94 -6 66 20T38 92Q38 135 64 161T136 188Q183 188 209 157T235 69Q235 41 230 12T209 -49T161 -120ZM136
304Q91 304 65 331T38 401Q38 445 64 471T136 498Q183 498 208 472T234 401Q234 359 209 332T136 304Z" />
<glyph unicode="&lt;" glyph-name="less" horiz-adv-x="600" d="M479 55L110 200Q48 224 48 288Q48 320 63 341T110 374L479 519Q503 528 521 522T549 501T561 466T554 431T521 405L100 243V330L521 168Q544 159 553 143T562 108T550 74T521 52T479 55Z" />
<glyph unicode="=" glyph-name="equal" horiz-adv-x="600" d="M107 328Q78 328 63 343T47 387Q47 416 62 431T107 446H493Q522 446 537 431T553 387Q553 358 538 343T493 328H107ZM107 128Q78 128 63 143T47 187Q47 216 62 231T107 246H493Q522 246 537 231T553
187Q553 158 538 143T493 128H107Z" />
<glyph unicode="&gt;" glyph-name="greater" horiz-adv-x="600" d="M121 55Q97 46 80 52T51 73T39 107T47 142T79 168L501 330V243L79 405Q57 414 48 430T39 466T51 500T79 522T121 519L490 374Q552 350 552 288Q552 256 537 235T490 200L121 55Z" />
<glyph unicode="?" glyph-name="question" horiz-adv-x="478" d="M240 233Q214 233 199 250T184 295Q184 322 190 345T211 392T250 440Q266 457 275 470T289 494T293 518Q293 541 276 553T227 565Q195 565 167 558T113 537Q83 521 60 526T24 550T10 592T22 639T68
677Q109 697 155 706T241 716Q310 716 362 694T444 633T473 540Q473 510 464 483T435 431T379 379Q348 356 331 339T307 305T295 270Q291 254 278 244T240 233ZM237 -6Q191 -6 165 21T138 92Q138 135 164 161T237 188Q283 188 309 162T335 92Q335 48 309 21T237
-6Z" />
<glyph unicode="@" glyph-name="at" horiz-adv-x="954" d="M487 -167Q390 -167 309 -136T169 -48T78 87T46 262Q46 365 78 448T172 592T319 684T508 716Q630 716 719 670T859 539T909 339Q909 253 884 190T815 93T710 58Q648 58 611 90T564 184L609 213Q585 135
539 97T435 58Q351 58 306 110T260 252Q260 325 287 381T362 470T472 503Q524 503 556 478T603 399H579L586 437Q597 493 656 493Q688 493 703 476T711 425L684 273Q681 253 679 238T677 210Q677 182 687 170T719 157Q744 157 764 179T795 243T806 339Q806 429
771 490T670 583T508 615Q402 615 324 572T204 450T161 262Q161 160 201 87T315 -26T487 -66Q544 -66 593 -54T685 -19Q710 -5 728 -13T753 -39T753 -79T722 -113Q678 -138 618 -152T487 -167ZM463 164Q494 164 516 183T552 236T565 318Q565 356 549 376T498 397Q467
397 444 379T407 329T394 254Q394 209 412 187T463 164Z" />
<glyph unicode="A" glyph-name="A" horiz-adv-x="763" d="M97 -9Q66 -9 45 5T19 45T28 103L277 639Q295 678 321 696T382 714Q416 714 441 696T486 639L735 103Q751 71 747 45T722 5T671 -9Q631 -9 610 9T571 67L517 194L587 143H175L246 194L192 67Q174 27 155
9T97 -9ZM380 513L264 236L236 284H527L499 236L382 513H380Z" />
<glyph unicode="B" glyph-name="B" horiz-adv-x="702" d="M160 0Q113 0 89 24T64 95V610Q64 656 88 680T160 705H404Q480 705 533 683T615 619T643 523Q643 461 608 417T511 357V373Q583 360 622 315T662 200Q662 107 596 54T414 0H160ZM240 135H389Q440 135 463
154T487 213Q487 252 464 271T389 290H240V135ZM240 425H371Q421 425 444 443T468 498Q468 535 445 552T371 570H240V425Z" />
<glyph unicode="C" glyph-name="C" horiz-adv-x="688" d="M420 -11Q303 -11 219 34T91 161T46 353Q46 435 71 502T145 617T263 690T420 716Q466 716 515 706T603 674Q631 659 642 636T650 589T632 546T596 521T548 527Q518 541 489 548T427 556Q365 556 324 533T261
464T240 353Q240 287 261 242T323 173T427 149Q453 149 483 155T542 176Q572 189 595 183T633 159T652 118T646 71T609 34Q574 13 523 1T420 -11Z" />
<glyph unicode="D" glyph-name="D" horiz-adv-x="786" d="M160 0Q113 0 89 24T64 95V610Q64 656 88 680T160 705H356Q540 705 640 613T741 353Q741 269 715 204T640 93T520 24T356 0H160ZM248 149H344Q397 149 435 162T499 200T537 263T550 353Q550 457 499 506T344
556H248V149Z" />
<glyph unicode="E" glyph-name="E" horiz-adv-x="614" d="M160 0Q113 0 89 24T64 95V610Q64 656 88 680T160 705H499Q535 705 553 687T571 635Q571 600 553 582T499 563H240V429H477Q512 429 530 411T549 358Q549 323 531 305T477 287H240V142H499Q535 142 553
124T571 71Q571 36 553 18T499 0H160Z" />
<glyph unicode="F" glyph-name="F" horiz-adv-x="579" d="M157 -9Q113 -9 89 15T64 86V610Q64 656 88 680T160 705H493Q529 705 547 687T565 635Q565 600 547 582T493 563H248V421H471Q506 421 524 403T543 351Q543 316 525 298T471 280H248V86Q248 -9 157 -9Z" />
<glyph unicode="G" glyph-name="G" horiz-adv-x="747" d="M424 -11Q303 -11 219 34T90 160T46 349Q46 433 72 500T149 616T271 690T436 716Q486 716 538 707T640 671Q666 659 675 638T682 593T665 550T628 524T576 530Q546 544 511 551T437 559Q370 559 326 535T259
464T237 349Q237 247 287 195T435 143Q465 143 500 149T572 166L538 97V268H468Q434 268 416 285T397 333Q397 364 415 380T468 397H616Q651 397 669 379T688 325V104Q688 74 676 53T636 23Q589 7 534 -2T424 -11Z" />
<glyph unicode="H" glyph-name="H" horiz-adv-x="786" d="M156 -9Q112 -9 88 15T64 85V620Q64 666 88 690T156 714Q201 714 224 690T248 620V433H539V620Q539 666 562 690T631 714Q675 714 698 690T722 620V85Q722 40 699 16T631 -9Q586 -9 563 15T539 85V282H248V85Q248
40 225 16T156 -9Z" />
<glyph unicode="I" glyph-name="I" horiz-adv-x="312" d="M156 -9Q112 -9 88 15T64 85V620Q64 666 88 690T156 714Q201 714 224 690T248 620V85Q248 40 225 16T156 -9Z" />
<glyph unicode="J" glyph-name="J" horiz-adv-x="390" d="M68 -8Q28 -10 7 12T-15 70Q-15 97 0 117T45 139L73 141Q109 143 126 158T143 210V621Q143 667 167 690T235 714Q279 714 303 691T327 621V213Q327 144 302 97T228 24T104 -6L68 -8Z" />
<glyph unicode="K" glyph-name="K" horiz-adv-x="712" d="M156 -9Q112 -9 88 15T64 84V621Q64 667 88 690T156 714Q201 714 224 691T248 621V403H250L493 671Q512 691 533 702T582 714Q624 714 642 693T660 643T636 590L394 333V408L648 121Q674 92 674 62T654
11T593 -9Q559 -9 539 4T494 45L250 318H248V84Q248 40 225 16T156 -9Z" />
<glyph unicode="L" glyph-name="L" horiz-adv-x="585" d="M157 0Q113 0 89 24T64 93V613Q64 658 88 682T156 706Q201 706 224 682T248 613V153H492Q530 153 550 134T571 77Q571 40 551 20T492 0H157Z" />
<glyph unicode="M" glyph-name="M" horiz-adv-x="884" d="M149 -9Q109 -9 88 13T66 75V630Q66 671 89 692T154 714Q189 714 209 701T247 656L462 270H427L641 656Q659 687 679 700T735 714Q775 714 796 693T818 630V75Q818 35 797 13T735 -9Q695 -9 674 13T652
75V419H673L512 139Q498 117 483 106T441 95Q416 95 400 106T371 139L209 420H232V75Q232 35 211 13T149 -9Z" />
<glyph unicode="N" glyph-name="N" horiz-adv-x="758" d="M150 -9Q108 -9 86 13T64 78V623Q64 667 86 690T144 714Q176 714 194 702T234 662L551 266H523V628Q523 670 544 692T608 714Q650 714 671 692T693 628V74Q693 36 673 14T619 -9Q585 -9 566 3T524 43L207
440H235V78Q235 35 214 13T150 -9Z" />
<glyph unicode="O" glyph-name="O" horiz-adv-x="807" d="M404 -11Q297 -11 216 34T91 162T46 353Q46 435 71 502T144 617T258 690T404 716Q511 716 591 671T717 545T762 353Q762 271 737 204T664 89T550 15T404 -11ZM404 143Q457 143 494 168T551 240T571 353Q571
452 527 507T404 562Q352 562 315 538T257 467T237 353Q237 254 281 199T404 143Z" />
<glyph unicode="P" glyph-name="P" horiz-adv-x="676" d="M156 -9Q112 -9 88 15T64 84V612Q64 657 88 681T157 705H403Q523 705 588 644T654 474Q654 366 589 305T403 243H248V84Q248 40 225 16T156 -9ZM248 384H371Q423 384 451 406T479 474Q479 520 451 542T371
564H248V384Z" />
<glyph unicode="Q" glyph-name="Q" horiz-adv-x="807" d="M706 -89Q724 -119 719 -143T695 -185T649 -207T596 -202T553 -164L479 -45Q468 -27 450 -19T403 -11L540 40Q585 40 616 24T669 -30L706 -89ZM404 -11Q297 -11 216 34T91 162T46 353Q46 435 71 502T144
617T258 690T404 716Q511 716 591 671T717 545T762 353Q762 271 737 204T664 89T550 15T404 -11ZM404 143Q457 143 494 168T551 240T571 353Q571 452 527 507T404 562Q352 562 315 538T257 467T237 353Q237 254 281 199T404 143Z" />
<glyph unicode="R" glyph-name="R" horiz-adv-x="706" d="M156 -9Q112 -9 88 15T64 84V612Q64 657 88 681T157 705H403Q523 705 588 647T654 484Q654 417 625 368T540 292T403 265L411 283H459Q502 283 535 263T590 200L640 110Q656 81 655 54T634 9T574 -9Q535
-9 511 7T467 57L376 224Q364 246 346 254T303 263H248V84Q248 40 225 16T156 -9ZM248 393H370Q423 393 451 414T479 479Q479 521 451 542T370 564H248V393Z" />
<glyph unicode="S" glyph-name="S" horiz-adv-x="651" d="M326 -11Q286 -11 243 -6T160 11T90 37Q63 50 52 71T44 117T61 159T98 184T150 178Q188 160 236 150T326 140Q392 140 418 157T445 201Q445 224 427 238T361 262L244 287Q148 307 101 357T54 486Q54 538
75 580T136 653T230 699T352 716Q404 716 457 705T550 670Q573 658 583 637T591 594T576 554T540 532T486 539Q457 552 421 558T350 565Q313 565 287 557T248 532T234 495Q234 474 251 460T316 435L432 410Q529 389 577 341T625 216Q625 164 604 122T544 51T450
5T326 -11Z" />
<glyph unicode="T" glyph-name="T" horiz-adv-x="644" d="M322 -9Q278 -9 254 15T230 84V555H73Q36 555 17 574T-3 630Q-3 667 16 686T73 705H571Q608 705 627 686T647 630Q647 594 628 575T571 555H414V84Q414 40 391 16T322 -9Z" />
<glyph unicode="U" glyph-name="U" horiz-adv-x="748" d="M376 -11Q299 -11 240 8T141 67T80 164T59 300V621Q59 667 83 690T151 714Q196 714 219 691T243 621V298Q243 221 277 182T376 143Q440 143 474 182T508 298V621Q508 667 531 690T599 714Q643 714 666
691T689 621V300Q689 197 654 128T548 24T376 -11Z" />
<glyph unicode="V" glyph-name="V" horiz-adv-x="742" d="M372 -9Q334 -9 311 7T271 58L29 592Q13 627 19 655T47 698T102 714Q143 714 163 696T199 643L403 171H347L551 644Q566 679 587 696T646 714Q677 714 698 699T724 655T714 592L471 58Q456 23 433 7T372 -9Z" />
<glyph unicode="W" glyph-name="W" horiz-adv-x="1128" d="M338 -9Q301 -9 278 8T242 63L47 606Q31 651 52 682T129 714Q166 714 187 697T220 642L369 195H322L482 642Q496 679 517 696T571 714Q604 714 624 697T657 641L807 195H767L920 642Q932 679 952 696T1010
714Q1056 714 1077 683T1082 606L885 62Q872 26 850 9T790 -9Q752 -9 730 8T694 63L553 459H578L434 62Q420 26 398 9T338 -9Z" />
<glyph unicode="X" glyph-name="X" horiz-adv-x="698" d="M129 -9Q94 -9 71 10T45 58T64 117L276 397V314L70 587Q47 618 50 647T77 695T135 714Q164 714 186 700T230 655L379 448H319L469 655Q491 687 513 700T564 714Q600 714 623 696T649 648T629 587L422 314V397L634
117Q658 87 655 58T628 10T569 -9Q541 -9 519 4T474 50L320 263H378L225 50Q202 18 180 5T129 -9Z" />
<glyph unicode="Y" glyph-name="Y" horiz-adv-x="645" d="M322 -9Q278 -9 254 15T230 86V360L268 259L38 590Q21 614 23 643T47 693T109 714Q137 714 160 701T203 655L343 449H307L447 656Q468 688 490 701T542 714Q580 714 601 695T623 647T605 588L377 259L414
360V86Q414 -9 322 -9Z" />
<glyph unicode="Z" glyph-name="Z" horiz-adv-x="625" d="M129 0Q94 0 72 15T41 55T41 111T74 173L419 606V554H115Q76 554 56 573T36 630Q36 667 56 686T115 705H505Q540 705 562 690T593 650T593 594T560 532L215 99V151H535Q573 151 593 132T614 76Q614 39
594 20T535 0H129Z" />
<glyph unicode="[" glyph-name="bracketleft" horiz-adv-x="401" d="M176 -180Q144 -180 123 -160T102 -107V632Q102 664 123 684T176 705H321Q353 705 373 687T393 639Q393 611 373 593T321 574H280V-49H321Q353 -49 373 -67T393 -114Q393 -143 373 -161T321 -180H176Z" />
<glyph unicode="\" glyph-name="backslash" horiz-adv-x="349" d="M221 -22L-1 670Q-9 698 -1 718T24 748T63 759T102 748T129 710L350 18Q359 -9 351 -29T325 -60T286 -71T247 -60T221 -22Z" />
<glyph unicode="]" glyph-name="bracketright" horiz-adv-x="401" d="M79 -180Q48 -180 28 -162T8 -114Q8 -86 28 -68T79 -49H120V574H79Q48 574 28 592T8 639Q8 668 28 686T79 705H225Q257 705 277 685T298 632V-107Q298 -139 278 -159T225 -180H79Z" />
<glyph unicode="^" glyph-name="asciicircum" horiz-adv-x="600" d="M125 131Q84 131 71 155T71 212L215 578Q228 609 248 623T300 637Q362 637 385 578L529 212Q542 179 529 155T475 131Q453 131 438 141T411 183L257 584H343L189 183Q178 152 163 142T125 131Z" />
<glyph unicode="_" glyph-name="underscore" horiz-adv-x="500" d="M63 -101Q41 -101 26 -87T11 -51Q11 -29 26 -15T63 0H438Q460 0 474 -14T489 -51Q489 -73 475 -87T438 -101H63Z" />
<glyph unicode="`" glyph-name="grave" horiz-adv-x="399" d="M202 564L112 685Q96 706 99 726T118 761T154 782T195 781T227 750L293 617Q303 595 296 578T272 551T235 543T202 564Z" />
<glyph unicode="a" glyph-name="a" horiz-adv-x="568" d="M223 -11Q166 -11 123 10T55 67T30 151Q30 205 58 236T148 280T313 294H368V210H313Q274 210 249 205T211 188T199 158Q199 135 215 120T263 105Q288 105 307 116T339 146T351 192V308Q351 344 333 359T269
374Q245 374 215 369T148 349Q121 339 102 346T73 370T62 407T75 445T114 473Q162 491 202 497T277 503Q359 503 412 480T492 408T519 283V81Q519 37 498 14T437 -9Q396 -9 375 14T353 81V107L359 93Q354 61 336 38T289 2T223 -11Z" />
<glyph unicode="b" glyph-name="b" horiz-adv-x="620" d="M376 -11Q319 -11 275 16T216 89L227 130V81Q227 37 205 14T140 -9Q97 -9 75 14T52 81V624Q52 668 75 691T140 714Q183 714 206 691T230 624V410H218Q233 451 277 477T376 503Q440 503 488 472T564 384T591
246Q591 167 564 109T489 20T376 -11ZM320 120Q347 120 367 133T400 174T412 246Q412 313 386 342T320 372Q293 372 272 359T239 319T227 246Q227 180 253 150T320 120Z" />
<glyph unicode="c" glyph-name="c" horiz-adv-x="484" d="M303 -11Q220 -11 159 20T63 109T29 247Q29 307 48 354T103 435T190 485T303 503Q332 503 364 498T430 477Q454 468 463 450T472 410T460 372T431 349T389 354Q373 362 356 365T322 369Q295 369 275 361T240
338T219 299T211 247Q211 189 240 156T322 123Q338 123 355 126T389 138Q412 149 430 143T459 119T471 82T462 43T428 15Q395 0 364 -5T303 -11Z" />
<glyph unicode="d" glyph-name="d" horiz-adv-x="620" d="M244 -11Q181 -11 133 20T57 109T29 246Q29 327 56 384T132 472T244 503Q299 503 343 477T402 410H391V624Q391 668 414 691T480 714Q522 714 545 691T569 624V81Q569 37 547 14T481 -9Q439 -9 416 14T393
81V138L404 89Q390 44 346 17T244 -11ZM301 120Q328 120 349 133T381 174T393 246Q393 313 367 342T301 372Q274 372 253 359T220 319T208 246Q208 180 234 150T301 120Z" />
<glyph unicode="e" glyph-name="e" horiz-adv-x="555" d="M320 -11Q230 -11 165 20T64 110T29 247Q29 323 62 380T154 470T288 503Q343 503 388 486T465 435T513 354T530 249Q530 229 519 220T484 210H178V294H400L384 281Q384 318 374 341T345 376T296 388Q265
388 243 374T208 331T196 261V252Q196 181 227 151T325 120Q347 120 375 125T430 141Q456 151 475 145T504 123T516 88T507 50T474 21Q439 5 400 -3T320 -11Z" />
<glyph unicode="f" glyph-name="f" horiz-adv-x="402" d="M183 -9Q140 -9 117 14T94 81V361H68Q36 361 19 378T1 427Q1 459 18 475T68 492H145L94 445V473Q94 584 149 639T315 706L344 709Q376 713 395 702T421 672T425 633T409 599T377 583L363 582Q312 578 292
560T272 507V474L250 492H329Q362 492 379 476T396 427Q396 395 379 378T329 361H272V81Q272 -9 183 -9Z" />
<glyph unicode="g" glyph-name="g" horiz-adv-x="626" d="M296 -191Q241 -191 193 -184T110 -162Q81 -152 69 -133T58 -93T69 -55T98 -31T138 -31Q182 -49 218 -54T279 -60Q340 -60 370 -35T401 45V108H409Q394 66 348 40T248 13Q182 13 133 43T57 129T29 258Q29
314 45 359T89 436T158 485T248 503Q304 503 348 477T408 409L398 368V412Q398 455 421 478T487 501Q529 501 551 478T574 412V66Q574 -62 502 -126T296 -191ZM303 144Q333 144 354 157T387 196T399 258Q399 312 373 342T303 372Q275 372 253 359T220 320T208 258Q208
204 234 174T303 144Z" />
<glyph unicode="h" glyph-name="h" horiz-adv-x="606" d="M140 -9Q98 -9 75 14T52 81V624Q52 668 75 691T140 714Q183 714 206 691T230 624V406H214Q238 453 282 478T384 503Q443 503 481 481T538 411T557 291V81Q557 37 534 14T468 -9Q425 -9 402 14T379 81V284Q379
329 364 348T318 367Q278 367 254 342T230 273V81Q230 -9 140 -9Z" />
<glyph unicode="i" glyph-name="i" horiz-adv-x="281" d="M140 -9Q98 -9 75 16T52 88V404Q52 451 75 476T140 501Q183 501 206 476T230 404V88Q230 41 207 16T140 -9ZM140 572Q93 572 68 594T42 658Q42 699 67 721T140 743Q189 743 214 721T239 658Q239 616 214
594T140 572Z" />
<glyph unicode="j" glyph-name="j" horiz-adv-x="287" d="M23 -187Q-8 -188 -26 -176T-52 -146T-56 -110T-39 -78T-6 -62Q27 -60 42 -45T57 3V412Q57 455 80 478T146 501Q189 501 212 478T235 412V20Q235 -47 212 -92T143 -161T23 -187ZM145 572Q97 572 72 594T46
658Q46 699 71 721T145 743Q193 743 218 721T244 658Q244 616 219 594T145 572Z" />
<glyph unicode="k" glyph-name="k" horiz-adv-x="580" d="M140 -9Q98 -9 75 14T52 81V624Q52 668 75 691T140 714Q183 714 206 691T230 624V294H232L354 442Q379 472 400 486T459 501Q496 501 516 483T537 438T515 384L383 228V290L531 104Q553 76 549 50T524
7T469 -9Q429 -9 405 5T357 51L232 205H230V81Q230 -9 140 -9Z" />
<glyph unicode="l" glyph-name="l" horiz-adv-x="348" d="M239 -11Q143 -11 98 40T52 196V624Q52 668 75 691T140 714Q183 714 206 691T230 624V202Q230 165 244 148T282 131Q289 131 296 132T313 135Q330 135 338 122T347 69Q347 34 333 17T290 -6Q282 -7 267
-9T239 -11Z" />
<glyph unicode="m" glyph-name="m" horiz-adv-x="902" d="M142 -9Q100 -9 77 14T54 81V412Q54 455 76 478T141 501Q183 501 205 478T227 412V357L216 406Q237 450 278 476T377 503Q431 503 469 477T525 398H511Q534 447 580 475T682 503Q740 503 777 481T832 411T851
291V81Q851 37 828 14T761 -9Q719 -9 696 14T673 81V286Q673 329 660 348T617 367Q580 367 561 341T541 267V81Q541 37 518 14T452 -9Q409 -9 386 14T363 81V286Q363 329 350 348T307 367Q271 367 252 341T232 267V81Q232 -9 142 -9Z" />
<glyph unicode="n" glyph-name="n" horiz-adv-x="606" d="M140 -9Q98 -9 75 14T52 81V412Q52 455 74 478T139 501Q181 501 203 478T225 412V365L214 406Q238 453 282 478T384 503Q443 503 481 481T538 411T557 291V81Q557 37 534 14T468 -9Q425 -9 402 14T379
81V284Q379 329 364 348T318 367Q278 367 254 342T230 273V81Q230 -9 140 -9Z" />
<glyph unicode="o" glyph-name="o" horiz-adv-x="602" d="M301 -11Q219 -11 158 20T63 109T29 246Q29 306 48 353T103 434T189 485T301 503Q383 503 444 472T538 384T572 246Q572 187 553 139T499 58T413 7T301 -11ZM301 120Q328 120 349 133T381 174T393 246Q393
313 367 342T301 372Q274 372 253 359T220 319T208 246Q208 180 234 150T301 120Z" />
<glyph unicode="p" glyph-name="p" horiz-adv-x="620" d="M140 -189Q98 -189 75 -166T52 -99V412Q52 455 74 478T139 501Q182 501 204 478T227 412V354L216 403Q230 448 274 475T376 503Q440 503 488 472T564 384T591 246Q591 167 564 109T489 20T376 -11Q321
-11 277 15T218 83H230V-99Q230 -143 207 -166T140 -189ZM320 120Q347 120 367 133T400 174T412 246Q412 313 386 342T320 372Q293 372 272 359T239 319T227 246Q227 180 253 150T320 120Z" />
<glyph unicode="q" glyph-name="q" horiz-adv-x="620" d="M480 -189Q437 -189 414 -166T391 -99V83H402Q387 41 343 15T244 -11Q181 -11 133 20T57 109T29 246Q29 327 56 384T132 472T244 503Q301 503 345 476T404 403L393 354V412Q393 455 416 478T481 501Q524
501 546 478T569 412V-99Q569 -143 546 -166T480 -189ZM301 120Q328 120 349 133T381 174T393 246Q393 313 367 342T301 372Q274 372 253 359T220 319T208 246Q208 180 234 150T301 120Z" />
<glyph unicode="r" glyph-name="r" horiz-adv-x="434" d="M143 -9Q99 -9 76 14T52 81V412Q52 455 74 478T139 501Q181 501 203 478T225 412V371H215Q225 431 266 466T370 503Q399 504 413 489T429 431Q429 395 414 374T357 349L334 347Q281 342 257 318T233 245V81Q233
37 210 14T143 -9Z" />
<glyph unicode="s" glyph-name="s" horiz-adv-x="496" d="M248 -11Q204 -11 159 -5T76 19Q51 29 41 46T30 82T41 116T69 138T109 137Q151 122 184 116T249 109Q286 109 302 119T318 147Q318 162 308 170T278 181L167 199Q105 210 71 244T37 335Q37 387 66 424T147
482T266 503Q311 503 348 497T420 473Q442 464 451 447T458 412T446 378T417 357T375 359Q342 372 317 378T269 384Q228 384 211 373T194 345Q194 332 203 324T231 312L342 293Q406 283 440 250T475 159Q475 78 413 34T248 -11Z" />
<glyph unicode="t" glyph-name="t" horiz-adv-x="426" d="M310 -11Q235 -11 187 12T114 81T90 198V361H56Q24 361 7 378T-11 427Q-11 459 6 475T56 492H90V554Q90 598 113 621T179 644Q222 644 245 621T268 554V492H350Q383 492 400 476T418 427Q418 395 401 378T350
361H268V204Q268 167 285 150T341 132Q355 132 368 135T392 138Q408 139 418 129T428 81Q428 51 419 31T387 1Q373 -4 349 -7T310 -11Z" />
<glyph unicode="u" glyph-name="u" horiz-adv-x="601" d="M236 -11Q172 -11 131 12T70 83T49 202V412Q49 456 72 478T138 501Q181 501 204 479T227 412V197Q227 161 242 143T289 125Q325 125 348 151T371 220V412Q371 456 394 478T460 501Q503 501 526 479T549
412V81Q549 -9 463 -9Q421 -9 398 14T375 81V139L391 90Q369 41 330 15T236 -11Z" />
<glyph unicode="v" glyph-name="v" horiz-adv-x="542" d="M270 -9Q235 -9 211 8T170 61L27 388Q15 418 19 444T44 485T104 501Q136 501 155 487T191 430L292 170H258L364 431Q380 472 400 486T455 501Q485 501 503 486T526 444T516 388L370 60Q355 25 331 8T270 -9Z" />
<glyph unicode="w" glyph-name="w" horiz-adv-x="868" d="M266 -9Q232 -9 207 7T167 59L31 388Q18 419 22 444T46 485T103 501Q134 501 154 487T190 430L286 178H265L366 449Q376 476 393 488T438 501Q467 501 484 488T511 449L612 178H594L691 436Q705 474 727
487T774 501Q808 501 826 485T846 443T836 387L701 60Q687 25 662 8T603 -9Q568 -9 544 8T504 60L394 335H467L363 62Q349 26 325 9T266 -9Z" />
<glyph unicode="x" glyph-name="x" horiz-adv-x="572" d="M121 -8Q88 -8 68 10T48 56T70 113L218 293V214L82 380Q59 410 59 437T80 483T133 501Q165 501 185 491T225 456L318 336H256L349 456Q368 480 389 490T441 501Q475 501 494 483T514 437T491 380L355 214V293L504
113Q528 85 527 57T506 11T452 -8Q421 -8 400 2T360 37L256 170H317L212 37Q194 14 174 3T121 -8Z" />
<glyph unicode="y" glyph-name="y" horiz-adv-x="541" d="M195 -189Q164 -189 145 -173T122 -131T130 -76L197 69V-3L26 388Q13 418 17 444T44 485T104 501Q136 501 155 487T191 430L291 170H257L363 431Q379 472 399 486T455 501Q485 501 503 486T525 444T516
388L289 -122Q271 -162 250 -175T195 -189Z" />
<glyph unicode="z" glyph-name="z" horiz-adv-x="487" d="M106 0Q79 0 62 13T39 48T39 93T65 139L297 401V361H99Q67 361 50 378T33 427Q33 459 50 475T99 492H382Q412 492 431 479T456 444T457 399T432 354L194 85V131H407Q474 131 474 66Q474 34 457 17T407 0H106Z" />
<glyph unicode="{" glyph-name="braceleft" horiz-adv-x="438" d="M284 -180Q239 -180 207 -163T157 -113T139 -35V118Q139 157 127 175T82 194Q55 196 41 215T27 262Q27 290 41 309T82 330Q114 332 126 349T139 406V560Q139 629 177 667T284 705H357Q389 705
409 687T430 639Q430 611 414 593T370 574H353Q335 574 326 564T317 531V384Q317 352 303 324T266 277T215 259V263Q242 263 265 246T303 201T317 140V-6Q317 -28 326 -38T354 -49H370Q398 -49 414 -67T430 -114Q430 -143 410 -161T357 -180H284Z" />
<glyph unicode="|" glyph-name="bar" horiz-adv-x="316" d="M158 -190Q115 -190 92 -167T69 -100V624Q69 669 92 691T158 714Q201 714 224 692T247 624V-100Q247 -190 158 -190Z" />
<glyph unicode="}" glyph-name="braceright" horiz-adv-x="438" d="M81 -180Q49 -180 29 -162T8 -114Q8 -86 23 -68T68 -49H84Q103 -49 111 -39T120 -6V140Q120 172 135 200T173 246T223 264V260Q196 260 173 277T135 323T120 384V531Q120 553 112 563T84 574H68Q39
574 24 592T8 639Q8 668 28 686T81 705H153Q199 705 231 688T281 639T298 560V406Q298 367 311 350T356 330Q383 328 397 309T411 262Q411 235 397 216T356 194Q324 193 311 175T298 118V-35Q298 -103 260 -141T153 -180H81Z" />
<glyph unicode="~" glyph-name="asciitilde" horiz-adv-x="600" d="M403 199Q380 199 355 206T295 232Q261 249 241 256T208 263Q195 263 182 258T159 240Q141 220 120 220T84 231T65 265T76 307Q99 340 130 358T197 376Q220 376 247 368T307 342Q336 328 357
320T392 312Q405 312 417 316T441 334Q459 355 479 355T516 343T535 310T524 267Q500 235 469 217T403 199Z" />
<glyph unicode="&#xa0;" glyph-name="uni00A0" horiz-adv-x="286" />
<glyph unicode="&#xa1;" glyph-name="exclamdown" horiz-adv-x="272" d="M136 -189Q85 -189 59 -157T40 -72L75 196Q79 227 94 243T136 260Q163 260 178 244T197 196L231 -72Q239 -124 214 -156T136 -189ZM136 304Q91 304 65 331T38 401Q38 445 64 471T136 498Q183
498 208 472T234 401Q234 359 209 332T136 304Z" />
<glyph unicode="&#xa2;" glyph-name="cent" horiz-adv-x="600" d="M318 -124Q289 -124 269 -104T249 -54V36L280 -4Q215 9 168 43T96 129T71 246Q71 292 85 332T127 405T193 460T280 492L249 453V551Q249 581 269 601T318 621Q348 621 367 601T387 551V464L348
498Q387 498 424 490T492 467Q514 457 523 439T529 401T514 365T484 343T441 346Q423 355 404 359T365 364Q338 364 317 356T282 332T261 295T253 250Q253 199 281 165T365 131Q379 131 398 135T441 149Q468 159 486 153T516 130T527 92T518 53T485 24Q457 11 421
2T346 -9L387 26V-54Q387 -84 368 -104T318 -124Z" />
<glyph unicode="&#xa3;" glyph-name="sterling" horiz-adv-x="600" d="M104 0Q73 0 52 21T30 73Q30 105 51 126T104 147H141L106 118V329L140 300H85Q62 300 46 315T30 353Q30 377 46 392T85 407H140L106 374V480Q106 550 134 603T220 686T366 716Q411 716 455
706T530 680Q557 668 568 647T576 604T560 566T524 544T474 552Q451 564 427 569T381 574Q332 574 311 551T289 488V378L271 407H391Q415 407 431 392T447 353Q447 331 431 316T391 300H289V147H506Q538 147 559 126T580 73Q580 42 559 21T506 0H104Z" />
<glyph unicode="&#xa4;" glyph-name="currency" horiz-adv-x="600" d="M47 -13Q34 0 34 17T47 48L98 101Q78 132 66 168T54 245Q54 286 66 322T98 390L47 442Q34 455 34 472T47 503Q60 516 78 516T109 503L160 451Q190 471 225 482T297 493Q335 493 370 483T433
451L484 503Q497 516 516 517T550 504Q565 490 565 471T551 438L498 385Q519 355 529 320T539 245Q539 206 528 170T497 103L550 48Q563 35 563 18T550 -13Q538 -25 521 -25T490 -11L438 42Q408 20 373 9T297 -3Q259 -3 224 8T159 40L108 -12Q95 -25 78 -25T47
-13ZM298 134Q326 134 349 149T387 190T401 245Q401 276 387 301T350 341T298 356Q269 357 245 342T207 301T193 245Q193 215 207 190T244 150T298 134Z" />
<glyph unicode="&#xa5;" glyph-name="yen" horiz-adv-x="600" d="M300 -9Q256 -9 232 15T208 86V149H110Q83 149 69 162T54 200Q54 225 68 238T110 252H208V309H110Q83 309 69 322T54 360Q54 385 68 398T110 412H179V389L40 599Q25 621 28 648T53 694T110 714Q137
714 157 702T194 659L318 458H281L406 659Q423 689 444 701T493 714Q529 714 549 696T573 650T558 596L420 389V412H490Q517 412 531 399T546 360Q546 335 532 322T490 309H391V252H490Q517 252 531 239T546 200Q546 176 532 163T490 149H391V86Q391 -9 300 -9Z"
/>
<glyph unicode="&#xa6;" glyph-name="brokenbar" horiz-adv-x="316" d="M158 362Q115 362 92 385T69 452V624Q69 669 92 691T158 714Q201 714 224 692T247 624V452Q247 362 158 362ZM158 -189Q115 -189 92 -166T69 -99V73Q69 117 92 140T158 163Q201 163 224 140T247
73V-99Q247 -189 158 -189Z" />
<glyph unicode="&#xa7;" glyph-name="section" horiz-adv-x="599" d="M281 -191Q228 -191 181 -182T95 -157Q70 -147 61 -130T53 -93T67 -59T97 -38T139 -41Q171 -54 209 -62T280 -71Q306 -71 324 -65T353 -45T363 -13Q363 5 351 20T306 49L161 113Q115 134 86
160T42 217T27 286Q27 340 53 382T135 455L121 409Q95 431 82 460T68 524Q68 584 99 626T185 692T317 716Q369 716 413 708T494 684Q516 675 524 658T532 622T519 587T490 566T449 568Q418 581 384 588T319 596Q293 596 275 590T246 570T236 538Q236 520 249 506T293
476L439 412Q485 391 514 365T558 308T573 239Q573 185 546 143T465 70L478 116Q504 94 518 65T532 1Q532 -58 501 -101T414 -167T281 -191ZM182 320Q182 295 199 274T253 236L380 178Q393 172 406 165T430 149L392 142Q405 158 411 173T417 205Q417 231 400 252T347
289L219 347Q207 352 193 360T169 376L207 383Q195 367 189 352T182 320Z" />
<glyph unicode="&#xa8;" glyph-name="dieresis" d="M386 577Q348 577 327 598T306 658Q306 696 327 716T386 737Q425 737 445 717T466 658Q466 619 446 598T386 577ZM180 577Q142 577 121 598T100 658Q100 696 121 716T180 737Q219 737 239 717T260 658Q260 619
240 598T180 577Z" />
<glyph unicode="&#xa9;" glyph-name="copyright" horiz-adv-x="815" d="M408 -11Q330 -11 264 16T149 93T72 209T44 353Q44 430 71 496T148 612T264 688T408 716Q485 716 551 689T667 612T743 497T771 353Q771 276 744 210T667 94T552 17T408 -11ZM408 53Q472
53 526 75T620 139T681 234T703 353Q703 417 682 471T620 566T526 629T408 652Q343 652 289 630T195 567T134 472T112 353Q112 289 133 235T195 139T289 76T408 53ZM431 137Q327 137 266 195T204 353Q204 453 265 510T431 568Q456 568 481 564T532 548Q552 540
561 525T571 491T564 459T542 438T507 441Q491 448 477 451T446 455Q402 455 377 428T351 353Q351 304 376 277T446 250Q462 250 476 253T507 263Q532 273 549 263T573 232T573 192T541 160Q515 148 487 143T431 137Z" />
<glyph unicode="&#xaa;" glyph-name="ordfeminine" horiz-adv-x="354" d="M133 404Q80 404 48 432T15 503Q15 551 56 571T189 592H231V537H192Q154 537 140 530T125 505Q125 493 134 484T164 475Q180 475 192 482T212 504T220 538V596Q220 617 207 626T162 636Q150
636 134 634T91 624Q69 619 56 627T39 651T43 680T73 701Q101 711 125 713T172 716Q225 716 260 702T312 660T329 590V457Q329 404 278 404Q252 404 239 420T225 458V467H223Q209 437 188 421T133 404Z" />
<glyph unicode="&#xab;" glyph-name="guillemotleft" horiz-adv-x="558" d="M228 76Q204 65 181 71T143 100L72 208Q53 237 53 266T72 324L140 431Q155 455 179 461T227 456Q253 444 263 418T259 362L214 267L259 168Q272 140 264 114T228 76ZM466 76Q442 65 419
71T381 100L310 208Q291 237 291 266T310 324L378 431Q393 455 417 461T465 456Q491 444 501 418T497 362L452 267L497 168Q510 140 502 114T466 76Z" />
<glyph unicode="&#xac;" glyph-name="logicalnot" horiz-adv-x="600" d="M482 120Q452 120 436 136T420 183V327H107Q78 327 63 342T47 387Q47 415 62 430T107 446H480Q511 446 527 430T544 382V183Q544 120 482 120Z" />
<glyph unicode="&#xad;" glyph-name="uni00AD" horiz-adv-x="445" d="M124 199Q94 199 74 219T54 269Q54 299 74 318T124 338H322Q352 338 372 319T392 269Q392 239 372 219T322 199H124Z" />
<glyph unicode="&#xae;" glyph-name="registered" horiz-adv-x="815" d="M408 -11Q330 -11 264 16T149 93T72 209T44 353Q44 430 71 496T148 612T264 688T408 716Q485 716 551 689T667 612T743 497T771 353Q771 276 744 210T667 94T552 17T408 -11ZM408 53Q472
53 526 75T620 139T681 234T703 353Q703 417 682 471T620 566T526 629T408 652Q343 652 289 630T195 567T134 472T112 353Q112 289 133 235T195 139T289 76T408 53ZM305 136Q240 136 240 203V488Q240 525 259 545T317 566H437Q510 566 550 529T590 438Q590 380
552 349T445 318L479 330Q513 330 533 315T566 249L576 213Q586 173 566 155T510 136Q486 136 471 150T450 188L432 261Q428 279 418 285T394 292H352L371 304V203Q371 136 305 136ZM370 386H418Q442 386 454 396T466 429Q466 452 454 462T418 472H370V386Z" />
<glyph unicode="&#xaf;" glyph-name="overscore" horiz-adv-x="554" d="M151 605Q100 605 100 654Q100 677 113 689T151 702H404Q454 702 454 654Q454 631 441 618T404 605H151Z" />
<glyph unicode="&#xb0;" glyph-name="degree" horiz-adv-x="389" d="M194 391Q146 391 109 412T49 470T27 554Q27 601 49 637T109 694T194 716Q243 716 280 695T339 638T361 554Q361 507 340 470T281 412T194 391ZM194 482Q224 482 243 503T262 554Q262 583 243
604T194 625Q165 625 146 604T127 554Q127 524 146 503T194 482Z" />
<glyph unicode="&#xb1;" glyph-name="plusminus" horiz-adv-x="600" d="M300 144Q270 144 254 160T238 207V283H108Q78 283 63 298T47 343Q47 371 62 387T108 403H238V479Q238 509 254 525T301 542Q331 542 346 526T362 479V403H492Q522 403 537 387T553 343Q553
314 538 299T492 283H362V207Q362 177 347 161T300 144ZM107 0Q78 0 63 15T47 59Q47 88 62 103T107 119H493Q522 119 537 104T553 59Q553 31 538 16T493 0H107Z" />
<glyph unicode="&#xb2;" glyph-name="uni00B2" horiz-adv-x="380" d="M100 282Q73 282 55 299T37 346Q37 367 46 382T72 413L151 493Q171 514 179 529T188 561Q188 578 178 587T145 597Q133 597 121 594T99 586Q75 575 57 584T32 613T33 653T66 686Q91 698 121
703T181 709Q230 709 265 694T319 650T338 583Q338 551 323 521T272 456L201 387V395H305Q363 395 363 339Q363 312 348 297T305 282H100Z" />
<glyph unicode="&#xb3;" glyph-name="uni00B3" horiz-adv-x="380" d="M183 276Q146 276 114 282T53 301Q30 311 24 330T24 368T48 396T92 396Q109 389 127 386T163 382Q194 382 208 391T222 418Q222 431 212 437T182 443H139Q115 443 101 456T86 494Q86 518 100
531T139 545H168Q188 545 198 552T208 573Q208 586 196 594T156 603Q141 603 126 600T99 592Q75 581 57 590T32 617T32 655T64 686Q91 698 121 703T184 709Q258 709 300 679T342 596Q342 556 314 527T242 491V507Q295 505 324 477T353 400Q353 362 332 335T273
292T183 276Z" />
<glyph unicode="&#xb4;" glyph-name="acute" horiz-adv-x="399" d="M198 564Q184 546 165 544T128 550T104 577T106 617L172 750Q184 774 204 781T244 782T280 761T299 726T287 685L198 564Z" />
<glyph unicode="&#xb5;" glyph-name="uni00B5" horiz-adv-x="600" d="M140 -189Q97 -189 74 -166T51 -99V412Q51 456 74 478T140 501Q182 501 205 479T229 412V197Q229 161 244 144T291 126Q327 126 350 152T373 220V412Q373 456 396 478T461 501Q504 501 527
479T551 412V81Q551 -9 464 -9Q422 -9 400 12T377 65V90H376Q369 41 343 15T286 -11Q260 -11 244 -1T215 31V31L222 -96Q225 -141 204 -165T140 -189Z" />
<glyph unicode="&#xb6;" glyph-name="paragraph" horiz-adv-x="667" d="M316 -189Q286 -189 271 -173T255 -127V248Q186 248 135 276T54 356T25 477Q25 547 54 598T135 677T258 705H520Q561 705 582 684T604 622V-127Q604 -189 542 -189Q513 -189 497 -173T481
-127V583H377V-127Q377 -189 316 -189Z" />
<glyph unicode="&#xb7;" glyph-name="middot" horiz-adv-x="272" d="M136 172Q91 172 65 199T38 269Q38 312 64 338T136 365Q183 365 208 339T234 269Q234 226 209 199T136 172Z" />
<glyph unicode="&#xb8;" glyph-name="cedilla" horiz-adv-x="443" d="M216 -198Q196 -198 174 -196T133 -188Q113 -182 106 -169T101 -140T117 -117T149 -115Q163 -119 174 -120T197 -122Q223 -122 234 -117T246 -101Q246 -92 238 -88T210 -83Q204 -83 198 -83T184
-86Q178 -87 173 -86T162 -80Q158 -75 157 -69T156 -52L166 20H251L239 -57L198 -40Q209 -35 221 -33T244 -31Q291 -31 317 -51T343 -107Q343 -149 308 -173T216 -198Z" />
<glyph unicode="&#xb9;" glyph-name="uni00B9" horiz-adv-x="380" d="M95 282Q37 282 37 339Q37 366 52 380T95 395H147V582H203L122 541Q94 526 71 534T38 562T33 605T69 643L154 687Q174 698 191 704T229 710Q248 710 260 703T280 683T287 651V395H310Q369 395
369 339Q369 312 354 297T310 282H95Z" />
<glyph unicode="&#xba;" glyph-name="ordmasculine" horiz-adv-x="370" d="M185 406Q136 406 98 425T37 480T15 562Q15 610 37 644T97 697T185 716Q234 716 273 698T334 645T356 562Q356 515 334 480T273 426T185 406ZM185 490Q212 490 227 508T243 562Q243 598
228 616T185 634Q159 634 144 617T128 562Q128 526 143 508T185 490Z" />
<glyph unicode="&#xbb;" glyph-name="guillemotright" horiz-adv-x="558" d="M91 76Q65 88 57 114T61 168L106 267L62 362Q49 392 58 418T93 456Q117 467 141 461T180 431L248 324Q266 295 266 267T248 208L177 100Q162 78 139 72T91 76ZM329 76Q303 88 295 114T299
168L344 267L300 362Q287 392 296 418T331 456Q355 467 379 461T418 431L486 324Q504 295 504 267T486 208L415 100Q400 78 377 72T329 76Z" />
<glyph unicode="&#xbc;" glyph-name="onequarter" horiz-adv-x="934" d="M95 282Q37 282 37 339Q37 366 52 380T95 395H147V582H203L122 541Q94 526 71 534T38 562T33 605T69 643L154 687Q174 698 191 704T229 710Q248 710 260 703T280 683T287 651V395H310Q369
395 369 339Q369 312 354 297T310 282H95ZM382 18Q369 -5 350 -12T311 -14T278 5T261 39T271 83L620 687Q634 710 653 717T691 720T725 700T742 666T731 622L382 18ZM813 -4Q782 -4 765 10T748 47V61H633Q601 61 582 76T563 120Q563 138 570 152T589 185L727 381Q740
400 760 414T810 429Q842 429 859 412T876 360V165H887Q905 165 919 152T933 113Q933 87 919 74T887 61H876V47Q876 25 860 11T813 -4ZM752 165V293H765L669 152V165H752Z" />
<glyph unicode="&#xbd;" glyph-name="onehalf" horiz-adv-x="987" d="M95 282Q37 282 37 339Q37 366 52 380T95 395H147V582H203L122 541Q94 526 71 534T38 562T33 605T69 643L154 687Q174 698 191 704T229 710Q248 710 260 703T280 683T287 651V395H310Q369 395
369 339Q369 312 354 297T310 282H95ZM382 18Q369 -5 350 -12T311 -14T278 5T261 39T271 83L620 687Q634 710 653 717T691 720T725 700T742 666T731 622L382 18ZM707 0Q680 0 662 17T644 64Q644 85 653 100T679 131L758 211Q778 232 786 247T795 279Q795 296 785
305T752 315Q740 315 728 312T706 304Q682 293 664 302T639 331T640 371T673 404Q698 416 728 421T788 427Q837 427 872 412T926 368T945 301Q945 269 930 239T879 174L808 105V113H912Q970 113 970 57Q970 30 955 15T912 0H707Z" />
<glyph unicode="&#xbe;" glyph-name="threequarters" horiz-adv-x="934" d="M183 276Q146 276 114 282T53 301Q30 311 24 330T24 368T48 396T92 396Q109 389 127 386T163 382Q194 382 208 391T222 418Q222 431 212 437T182 443H139Q115 443 101 456T86 494Q86
518 100 531T139 545H168Q188 545 198 552T208 573Q208 586 196 594T156 603Q141 603 126 600T99 592Q75 581 57 590T32 617T32 655T64 686Q91 698 121 703T184 709Q258 709 300 679T342 596Q342 556 314 527T242 491V507Q295 505 324 477T353 400Q353 362 332
335T273 292T183 276ZM382 18Q369 -5 350 -12T311 -14T278 5T261 39T271 83L620 687Q634 710 653 717T691 720T725 700T742 666T731 622L382 18ZM813 -4Q782 -4 765 10T748 47V61H633Q601 61 582 76T563 120Q563 138 570 152T589 185L727 381Q740 400 760 414T810
429Q842 429 859 412T876 360V165H887Q905 165 919 152T933 113Q933 87 919 74T887 61H876V47Q876 25 860 11T813 -4ZM752 165V293H765L669 152V165H752Z" />
<glyph unicode="&#xbf;" glyph-name="questiondown" horiz-adv-x="478" d="M237 -191Q168 -191 116 -171T35 -113T5 -26Q5 16 26 53T99 125Q129 145 146 162T171 195T183 223Q188 239 200 249T239 259Q266 259 280 246T294 205Q294 182 288 160T268 116T229 73Q205
52 195 37T185 5Q185 -17 202 -28T251 -40Q278 -40 306 -35T368 -14Q396 -2 418 -8T453 -33T468 -73T458 -117T418 -152Q377 -171 331 -181T237 -191ZM242 304Q196 304 170 331T144 401Q144 444 170 471T242 498Q288 498 314 471T340 401Q340 358 314 331T242 304Z"
/>
<glyph unicode="&#xc0;" glyph-name="Agrave" horiz-adv-x="763" d="M97 -9Q66 -9 45 5T19 45T28 103L277 639Q295 678 321 696T382 714Q416 714 441 696T486 639L735 103Q751 71 747 45T722 5T671 -9Q631 -9 610 9T571 67L517 194L587 143H175L246 194L192 67Q174
27 155 9T97 -9ZM380 513L264 236L236 284H527L499 236L382 513H380ZM312 773L229 857Q212 875 213 894T226 928T258 951T297 955T332 930L397 833Q409 814 404 797T384 768T350 756T312 773Z" />
<glyph unicode="&#xc1;" glyph-name="Aacute" horiz-adv-x="763" d="M97 -9Q66 -9 45 5T19 45T28 103L277 639Q295 678 321 696T382 714Q416 714 441 696T486 639L735 103Q751 71 747 45T722 5T671 -9Q631 -9 610 9T571 67L517 194L587 143H175L246 194L192 67Q174
27 155 9T97 -9ZM380 513L264 236L236 284H527L499 236L382 513H380ZM450 773Q433 756 414 756T379 767T358 796T366 833L431 930Q445 951 465 955T504 952T536 929T550 894T533 857L450 773Z" />
<glyph unicode="&#xc2;" glyph-name="Acircumflex" horiz-adv-x="763" d="M97 -9Q66 -9 45 5T19 45T28 103L277 639Q295 678 321 696T382 714Q416 714 441 696T486 639L735 103Q751 71 747 45T722 5T671 -9Q631 -9 610 9T571 67L517 194L587 143H175L246 194L192
67Q174 27 155 9T97 -9ZM380 513L264 236L236 284H527L499 236L382 513H380ZM311 774Q295 757 275 756T239 765T219 792T227 827L281 903Q301 931 325 944T381 957Q412 957 437 944T481 903L535 827Q549 809 544 792T524 765T488 756T451 774L381 851L311 774Z"
/>
<glyph unicode="&#xc3;" glyph-name="Atilde" horiz-adv-x="763" d="M97 -9Q66 -9 45 5T19 45T28 103L277 639Q295 678 321 696T382 714Q416 714 441 696T486 639L735 103Q751 71 747 45T722 5T671 -9Q631 -9 610 9T571 67L517 194L587 143H175L246 194L192 67Q174
27 155 9T97 -9ZM380 513L264 236L236 284H527L499 236L382 513H380ZM185 756Q164 758 153 770T146 804Q159 865 199 897T292 930Q321 930 345 922T391 903T433 884T473 876Q493 876 507 884T528 906Q538 922 548 931T577 938Q598 937 609 925T616 890Q603 829
564 797T470 765Q442 765 418 773T371 791T329 810T289 818Q270 818 256 810T234 789Q224 773 214 764T185 756Z" />
<glyph unicode="&#xc4;" glyph-name="Adieresis" horiz-adv-x="763" d="M97 -9Q66 -9 45 5T19 45T28 103L277 639Q295 678 321 696T382 714Q416 714 441 696T486 639L735 103Q751 71 747 45T722 5T671 -9Q631 -9 610 9T571 67L517 194L587 143H175L246 194L192
67Q174 27 155 9T97 -9ZM380 513L264 236L236 284H527L499 236L382 513H380ZM484 766Q446 766 425 787T404 846Q404 885 425 905T484 926Q523 926 543 906T564 846Q564 808 544 787T484 766ZM278 766Q240 766 219 787T198 846Q198 885 219 905T278 926Q317 926
337 906T358 846Q358 808 338 787T278 766Z" />
<glyph unicode="&#xc5;" glyph-name="Aring" horiz-adv-x="763" d="M97 -9Q66 -9 45 5T19 45T28 103L277 639Q295 678 321 696T382 714Q416 714 441 696T486 639L735 103Q751 71 747 45T722 5T671 -9Q631 -9 610 9T571 67L517 194L587 143H175L246 194L192 67Q174
27 155 9T97 -9ZM380 513L264 236L236 284H527L499 236L382 513H380ZM381 752Q343 752 313 769T264 816T246 882Q246 920 264 949T312 996T381 1013Q420 1013 450 996T498 950T516 882Q516 846 498 816T450 769T381 752ZM381 825Q406 825 422 841T438 882Q438 907
422 923T381 939Q357 939 341 923T324 882Q324 858 340 842T381 825Z" />
<glyph unicode="&#xc6;" glyph-name="AE" horiz-adv-x="1006" d="M68 -9Q29 -9 9 7T-11 49T6 103L359 658Q374 683 395 694T446 705H891Q926 705 944 687T963 635Q963 600 945 582T891 563H530L576 603L625 378L566 429H869Q904 429 922 411T941 358Q941 323 923
305T869 287H597L634 338L688 93L627 142H891Q926 142 944 124T963 71Q963 36 945 18T891 0H612Q547 0 533 64L503 197L559 143H179L245 190L159 46Q143 19 123 5T68 -9ZM433 507L274 240L265 284H531L496 233L435 507H433Z" />
<glyph unicode="&#xc7;" glyph-name="Ccedilla" horiz-adv-x="688" d="M420 -11Q303 -11 219 34T91 161T46 353Q46 435 71 502T145 617T263 690T420 716Q466 716 515 706T603 674Q631 659 642 636T650 589T632 546T596 521T548 527Q518 541 489 548T427 556Q365
556 324 533T261 464T240 353Q240 287 261 242T323 173T427 149Q453 149 483 155T542 176Q572 189 595 183T633 159T652 118T646 71T609 34Q574 13 523 1T420 -11ZM396 -198Q376 -198 354 -196T313 -188Q293 -182 286 -169T281 -140T297 -117T329 -115Q343 -119
354 -120T377 -122Q403 -122 414 -117T426 -101Q426 -92 418 -88T390 -83Q384 -83 378 -83T364 -86Q358 -87 353 -86T342 -80Q338 -75 337 -69T336 -52L346 20H431L419 -57L378 -40Q389 -35 401 -33T424 -31Q471 -31 497 -51T523 -107Q523 -149 488 -173T396 -198Z"
/>
<glyph unicode="&#xc8;" glyph-name="Egrave" horiz-adv-x="614" d="M160 0Q113 0 89 24T64 95V610Q64 656 88 680T160 705H499Q535 705 553 687T571 635Q571 600 553 582T499 563H240V429H477Q512 429 530 411T549 358Q549 323 531 305T477 287H240V142H499Q535
142 553 124T571 71Q571 36 553 18T499 0H160ZM264 773L181 857Q164 875 165 894T178 928T210 951T249 955T284 930L349 833Q361 814 356 797T336 768T302 756T264 773Z" />
<glyph unicode="&#xc9;" glyph-name="Eacute" horiz-adv-x="614" d="M160 0Q113 0 89 24T64 95V610Q64 656 88 680T160 705H499Q535 705 553 687T571 635Q571 600 553 582T499 563H240V429H477Q512 429 530 411T549 358Q549 323 531 305T477 287H240V142H499Q535
142 553 124T571 71Q571 36 553 18T499 0H160ZM402 773Q385 756 366 756T331 767T310 796T318 833L383 930Q397 951 417 955T456 952T488 929T502 894T485 857L402 773Z" />
<glyph unicode="&#xca;" glyph-name="Ecircumflex" horiz-adv-x="614" d="M160 0Q113 0 89 24T64 95V610Q64 656 88 680T160 705H499Q535 705 553 687T571 635Q571 600 553 582T499 563H240V429H477Q512 429 530 411T549 358Q549 323 531 305T477 287H240V142H499Q535
142 553 124T571 71Q571 36 553 18T499 0H160ZM263 774Q247 757 227 756T191 765T171 792T179 827L233 903Q253 931 277 944T333 957Q364 957 389 944T433 903L487 827Q501 809 496 792T476 765T440 756T403 774L333 851L263 774Z" />
<glyph unicode="&#xcb;" glyph-name="Edieresis" horiz-adv-x="614" d="M160 0Q113 0 89 24T64 95V610Q64 656 88 680T160 705H499Q535 705 553 687T571 635Q571 600 553 582T499 563H240V429H477Q512 429 530 411T549 358Q549 323 531 305T477 287H240V142H499Q535
142 553 124T571 71Q571 36 553 18T499 0H160ZM436 766Q398 766 377 787T356 846Q356 885 377 905T436 926Q475 926 495 906T516 846Q516 808 496 787T436 766ZM230 766Q192 766 171 787T150 846Q150 885 171 905T230 926Q269 926 289 906T310 846Q310 808 290
787T230 766Z" />
<glyph unicode="&#xcc;" glyph-name="Igrave" horiz-adv-x="312" d="M156 -9Q112 -9 88 15T64 85V620Q64 666 88 690T156 714Q201 714 224 690T248 620V85Q248 40 225 16T156 -9ZM87 773L4 857Q-13 875 -12 894T1 928T33 951T72 955T107 930L172 833Q184 814 179
797T159 768T125 756T87 773Z" />
<glyph unicode="&#xcd;" glyph-name="Iacute" horiz-adv-x="312" d="M156 -9Q112 -9 88 15T64 85V620Q64 666 88 690T156 714Q201 714 224 690T248 620V85Q248 40 225 16T156 -9ZM225 773Q208 756 189 756T154 767T133 796T141 833L206 930Q220 951 240 955T279
952T311 929T325 894T308 857L225 773Z" />
<glyph unicode="&#xce;" glyph-name="Icircumflex" horiz-adv-x="312" d="M156 -9Q112 -9 88 15T64 85V620Q64 666 88 690T156 714Q201 714 224 690T248 620V85Q248 40 225 16T156 -9ZM86 774Q70 757 50 756T14 765T-6 792T2 827L56 903Q76 931 100 944T156 957Q187
957 212 944T256 903L310 827Q324 809 319 792T299 765T263 756T226 774L156 851L86 774Z" />
<glyph unicode="&#xcf;" glyph-name="Idieresis" horiz-adv-x="312" d="M156 -9Q112 -9 88 15T64 85V620Q64 666 88 690T156 714Q201 714 224 690T248 620V85Q248 40 225 16T156 -9ZM259 766Q221 766 200 787T179 846Q179 885 200 905T259 926Q298 926 318 906T339
846Q339 808 319 787T259 766ZM53 766Q15 766 -6 787T-27 846Q-27 885 -6 905T53 926Q92 926 112 906T133 846Q133 808 113 787T53 766Z" />
<glyph unicode="&#xd0;" glyph-name="Eth" horiz-adv-x="786" d="M160 0Q113 0 89 24T64 95V610Q64 656 88 680T160 705H356Q540 705 640 613T741 353Q741 269 715 204T640 93T520 24T356 0H160ZM248 149H344Q397 149 435 162T499 200T537 263T550 353Q550 457
499 506T344 556H248V149ZM39 291Q7 291 -10 308T-28 356Q-28 387 -11 404T39 421H372Q405 421 422 404T440 356Q440 325 423 308T372 291H39Z" />
<glyph unicode="&#xd1;" glyph-name="Ntilde" horiz-adv-x="758" d="M150 -9Q108 -9 86 13T64 78V623Q64 667 86 690T144 714Q176 714 194 702T234 662L551 266H523V628Q523 670 544 692T608 714Q650 714 671 692T693 628V74Q693 36 673 14T619 -9Q585 -9 566
3T524 43L207 440H235V78Q235 35 214 13T150 -9ZM182 756Q161 758 150 770T143 804Q156 865 196 897T289 930Q318 930 342 922T388 903T430 884T470 876Q490 876 504 884T525 906Q535 922 545 931T574 938Q595 937 606 925T613 890Q600 829 561 797T467 765Q439
765 415 773T368 791T326 810T286 818Q267 818 253 810T231 789Q221 773 211 764T182 756Z" />
<glyph unicode="&#xd2;" glyph-name="Ograve" horiz-adv-x="807" d="M404 -11Q297 -11 216 34T91 162T46 353Q46 435 71 502T144 617T258 690T404 716Q511 716 591 671T717 545T762 353Q762 271 737 204T664 89T550 15T404 -11ZM404 143Q457 143 494 168T551 240T571
353Q571 452 527 507T404 562Q352 562 315 538T257 467T237 353Q237 254 281 199T404 143ZM333 773L250 857Q233 875 234 894T247 928T279 951T318 955T353 930L418 833Q430 814 425 797T405 768T371 756T333 773Z" />
<glyph unicode="&#xd3;" glyph-name="Oacute" horiz-adv-x="807" d="M404 -11Q297 -11 216 34T91 162T46 353Q46 435 71 502T144 617T258 690T404 716Q511 716 591 671T717 545T762 353Q762 271 737 204T664 89T550 15T404 -11ZM404 143Q457 143 494 168T551 240T571
353Q571 452 527 507T404 562Q352 562 315 538T257 467T237 353Q237 254 281 199T404 143ZM471 773Q454 756 435 756T400 767T379 796T387 833L452 930Q466 951 486 955T525 952T557 929T571 894T554 857L471 773Z" />
<glyph unicode="&#xd4;" glyph-name="Ocircumflex" horiz-adv-x="807" d="M404 -11Q297 -11 216 34T91 162T46 353Q46 435 71 502T144 617T258 690T404 716Q511 716 591 671T717 545T762 353Q762 271 737 204T664 89T550 15T404 -11ZM404 143Q457 143 494 168T551
240T571 353Q571 452 527 507T404 562Q352 562 315 538T257 467T237 353Q237 254 281 199T404 143ZM332 774Q316 757 296 756T260 765T240 792T248 827L302 903Q322 931 346 944T402 957Q433 957 458 944T502 903L556 827Q570 809 565 792T545 765T509 756T472
774L402 851L332 774Z" />
<glyph unicode="&#xd5;" glyph-name="Otilde" horiz-adv-x="807" d="M404 -11Q297 -11 216 34T91 162T46 353Q46 435 71 502T144 617T258 690T404 716Q511 716 591 671T717 545T762 353Q762 271 737 204T664 89T550 15T404 -11ZM404 143Q457 143 494 168T551 240T571
353Q571 452 527 507T404 562Q352 562 315 538T257 467T237 353Q237 254 281 199T404 143ZM206 756Q185 758 174 770T167 804Q180 865 220 897T313 930Q342 930 366 922T412 903T454 884T494 876Q514 876 528 884T549 906Q559 922 569 931T598 938Q619 937 630
925T637 890Q624 829 585 797T491 765Q463 765 439 773T392 791T350 810T310 818Q291 818 277 810T255 789Q245 773 235 764T206 756Z" />
<glyph unicode="&#xd6;" glyph-name="Odieresis" horiz-adv-x="807" d="M404 -11Q297 -11 216 34T91 162T46 353Q46 435 71 502T144 617T258 690T404 716Q511 716 591 671T717 545T762 353Q762 271 737 204T664 89T550 15T404 -11ZM404 143Q457 143 494 168T551
240T571 353Q571 452 527 507T404 562Q352 562 315 538T257 467T237 353Q237 254 281 199T404 143ZM505 766Q467 766 446 787T425 846Q425 885 446 905T505 926Q544 926 564 906T585 846Q585 808 565 787T505 766ZM299 766Q261 766 240 787T219 846Q219 885 240
905T299 926Q338 926 358 906T379 846Q379 808 359 787T299 766Z" />
<glyph unicode="&#xd7;" glyph-name="multiply" horiz-adv-x="600" d="M185 88Q164 66 140 68T100 86T82 126T102 172L216 286L101 402Q83 419 81 438T88 473T113 498T148 506T185 485L300 370L415 485Q437 507 460 506T501 488T519 448T499 402L384 286L498 172Q516
154 518 135T511 101T486 76T451 68T415 88L300 202L185 88Z" />
<glyph unicode="&#xd8;" glyph-name="Oslash" horiz-adv-x="807" d="M404 -11Q297 -11 216 34T91 162T46 353Q46 435 71 502T144 617T258 690T404 716Q511 716 591 671T717 545T762 353Q762 271 737 204T664 89T550 15T404 -11ZM404 143Q457 143 494 168T551 240T571
353Q571 452 527 507T404 562Q352 562 315 538T257 467T237 353Q237 254 281 199T404 143ZM257 -32Q243 -55 223 -62T183 -64T148 -44T130 -8T142 39L191 121L248 197L472 582L500 653L549 737Q563 760 583 767T623 769T658 749T676 713T664 666L615 584L558 508L334
124L306 52L257 -32Z" />
<glyph unicode="&#xd9;" glyph-name="Ugrave" horiz-adv-x="748" d="M376 -11Q299 -11 240 8T141 67T80 164T59 300V621Q59 667 83 690T151 714Q196 714 219 691T243 621V298Q243 221 277 182T376 143Q440 143 474 182T508 298V621Q508 667 531 690T599 714Q643
714 666 691T689 621V300Q689 197 654 128T548 24T376 -11ZM307 773L224 857Q207 875 208 894T221 928T253 951T292 955T327 930L392 833Q404 814 399 797T379 768T345 756T307 773Z" />
<glyph unicode="&#xda;" glyph-name="Uacute" horiz-adv-x="748" d="M376 -11Q299 -11 240 8T141 67T80 164T59 300V621Q59 667 83 690T151 714Q196 714 219 691T243 621V298Q243 221 277 182T376 143Q440 143 474 182T508 298V621Q508 667 531 690T599 714Q643
714 666 691T689 621V300Q689 197 654 128T548 24T376 -11ZM445 773Q428 756 409 756T374 767T353 796T361 833L426 930Q440 951 460 955T499 952T531 929T545 894T528 857L445 773Z" />
<glyph unicode="&#xdb;" glyph-name="Ucircumflex" horiz-adv-x="748" d="M376 -11Q299 -11 240 8T141 67T80 164T59 300V621Q59 667 83 690T151 714Q196 714 219 691T243 621V298Q243 221 277 182T376 143Q440 143 474 182T508 298V621Q508 667 531 690T599 714Q643
714 666 691T689 621V300Q689 197 654 128T548 24T376 -11ZM306 774Q290 757 270 756T234 765T214 792T222 827L276 903Q296 931 320 944T376 957Q407 957 432 944T476 903L530 827Q544 809 539 792T519 765T483 756T446 774L376 851L306 774Z" />
<glyph unicode="&#xdc;" glyph-name="Udieresis" horiz-adv-x="748" d="M376 -11Q299 -11 240 8T141 67T80 164T59 300V621Q59 667 83 690T151 714Q196 714 219 691T243 621V298Q243 221 277 182T376 143Q440 143 474 182T508 298V621Q508 667 531 690T599 714Q643
714 666 691T689 621V300Q689 197 654 128T548 24T376 -11ZM479 766Q441 766 420 787T399 846Q399 885 420 905T479 926Q518 926 538 906T559 846Q559 808 539 787T479 766ZM273 766Q235 766 214 787T193 846Q193 885 214 905T273 926Q312 926 332 906T353 846Q353
808 333 787T273 766Z" />
<glyph unicode="&#xdd;" glyph-name="Yacute" horiz-adv-x="645" d="M322 -9Q278 -9 254 15T230 86V360L268 259L38 590Q21 614 23 643T47 693T109 714Q137 714 160 701T203 655L343 449H307L447 656Q468 688 490 701T542 714Q580 714 601 695T623 647T605 588L377
259L414 360V86Q414 -9 322 -9ZM391 773Q374 756 355 756T320 767T299 796T307 833L372 930Q386 951 406 955T445 952T477 929T491 894T474 857L391 773Z" />
<glyph unicode="&#xde;" glyph-name="Thorn" horiz-adv-x="679" d="M156 -1Q112 -1 88 23T64 92V613Q64 658 89 682T159 706Q202 706 225 684T248 625V598H407Q527 598 592 537T657 368Q657 260 592 198T407 136H248V92Q248 48 225 24T156 -1ZM248 278H374Q427
278 454 300T482 368Q482 413 455 435T374 457H248V278Z" />
<glyph unicode="&#xdf;" glyph-name="germandbls" horiz-adv-x="700" d="M476 -11Q435 -11 392 -2T313 24Q289 34 280 52T272 91T287 126T317 148T358 145Q392 130 423 124T478 117Q502 117 514 125T527 152Q527 168 511 178T446 202Q368 225 336 259T304 345Q304
366 309 386T329 428T370 479Q389 501 397 516T405 548Q405 567 391 579T344 592Q288 592 259 558T230 463V81Q230 37 207 14T140 -9Q98 -9 75 14T52 81V433Q52 571 127 643T346 716Q417 716 467 698T543 645T570 565Q570 532 558 503T512 440Q493 420 483 408T468
386T464 369Q464 354 481 343T552 316Q623 295 654 258T686 164Q686 111 660 72T587 11T476 -11Z" />
<glyph unicode="&#xe0;" glyph-name="agrave" horiz-adv-x="568" d="M223 -11Q166 -11 123 10T55 67T30 151Q30 205 58 236T148 280T313 294H368V210H313Q274 210 249 205T211 188T199 158Q199 135 215 120T263 105Q288 105 307 116T339 146T351 192V308Q351 344
333 359T269 374Q245 374 215 369T148 349Q121 339 102 346T73 370T62 407T75 445T114 473Q162 491 202 497T277 503Q359 503 412 480T492 408T519 283V81Q519 37 498 14T437 -9Q396 -9 375 14T353 81V107L359 93Q354 61 336 38T289 2T223 -11ZM225 564L135 685Q119
706 122 726T141 761T177 782T218 781T250 750L316 617Q326 595 319 578T295 551T258 543T225 564Z" />
<glyph unicode="&#xe1;" glyph-name="aacute" horiz-adv-x="568" d="M223 -11Q166 -11 123 10T55 67T30 151Q30 205 58 236T148 280T313 294H368V210H313Q274 210 249 205T211 188T199 158Q199 135 215 120T263 105Q288 105 307 116T339 146T351 192V308Q351 344
333 359T269 374Q245 374 215 369T148 349Q121 339 102 346T73 370T62 407T75 445T114 473Q162 491 202 497T277 503Q359 503 412 480T492 408T519 283V81Q519 37 498 14T437 -9Q396 -9 375 14T353 81V107L359 93Q354 61 336 38T289 2T223 -11ZM352 564Q338 546
319 544T282 550T258 577T260 617L326 750Q338 774 358 781T398 782T434 761T453 726T441 685L352 564Z" />
<glyph unicode="&#xe2;" glyph-name="acircumflex" horiz-adv-x="568" d="M223 -11Q166 -11 123 10T55 67T30 151Q30 205 58 236T148 280T313 294H368V210H313Q274 210 249 205T211 188T199 158Q199 135 215 120T263 105Q288 105 307 116T339 146T351 192V308Q351
344 333 359T269 374Q245 374 215 369T148 349Q121 339 102 346T73 370T62 407T75 445T114 473Q162 491 202 497T277 503Q359 503 412 480T492 408T519 283V81Q519 37 498 14T437 -9Q396 -9 375 14T353 81V107L359 93Q354 61 336 38T289 2T223 -11ZM442 615Q454
594 448 577T425 550T391 544T359 565L288 670L217 565Q204 547 186 544T151 550T129 576T134 615L192 721Q208 751 232 767T288 784Q321 784 345 768T385 721L442 615Z" />
<glyph unicode="&#xe3;" glyph-name="atilde" horiz-adv-x="568" d="M223 -11Q166 -11 123 10T55 67T30 151Q30 205 58 236T148 280T313 294H368V210H313Q274 210 249 205T211 188T199 158Q199 135 215 120T263 105Q288 105 307 116T339 146T351 192V308Q351 344
333 359T269 374Q245 374 215 369T148 349Q121 339 102 346T73 370T62 407T75 445T114 473Q162 491 202 497T277 503Q359 503 412 480T492 408T519 283V81Q519 37 498 14T437 -9Q396 -9 375 14T353 81V107L359 93Q354 61 336 38T289 2T223 -11ZM119 574Q99 576
89 587T83 623Q85 641 93 662T118 702T157 734T213 747Q238 747 257 739T292 721T324 702T359 694Q375 694 388 702T407 724Q417 740 427 748T456 756Q478 755 487 742T493 707Q490 682 475 653T433 603T363 582Q338 582 319 590T284 609T252 628T217 636Q201 636
189 628T169 606Q162 595 152 584T119 574Z" />
<glyph unicode="&#xe4;" glyph-name="adieresis" horiz-adv-x="568" d="M223 -11Q166 -11 123 10T55 67T30 151Q30 205 58 236T148 280T313 294H368V210H313Q274 210 249 205T211 188T199 158Q199 135 215 120T263 105Q288 105 307 116T339 146T351 192V308Q351
344 333 359T269 374Q245 374 215 369T148 349Q121 339 102 346T73 370T62 407T75 445T114 473Q162 491 202 497T277 503Q359 503 412 480T492 408T519 283V81Q519 37 498 14T437 -9Q396 -9 375 14T353 81V107L359 93Q354 61 336 38T289 2T223 -11ZM391 577Q353
577 332 598T311 658Q311 696 332 716T391 737Q430 737 450 717T471 658Q471 619 451 598T391 577ZM185 577Q147 577 126 598T105 658Q105 696 126 716T185 737Q224 737 244 717T265 658Q265 619 245 598T185 577Z" />
<glyph unicode="&#xe5;" glyph-name="aring" horiz-adv-x="568" d="M223 -11Q166 -11 123 10T55 67T30 151Q30 205 58 236T148 280T313 294H368V210H313Q274 210 249 205T211 188T199 158Q199 135 215 120T263 105Q288 105 307 116T339 146T351 192V308Q351 344
333 359T269 374Q245 374 215 369T148 349Q121 339 102 346T73 370T62 407T75 445T114 473Q162 491 202 497T277 503Q359 503 412 480T492 408T519 283V81Q519 37 498 14T437 -9Q396 -9 375 14T353 81V107L359 93Q354 61 336 38T289 2T223 -11ZM288 545Q250 545
220 562T171 609T153 675Q153 713 171 742T219 789T288 806Q327 806 357 789T405 743T423 675Q423 639 405 609T357 562T288 545ZM288 618Q313 618 329 634T345 675Q345 700 329 716T288 732Q264 732 248 716T231 675Q231 651 247 635T288 618Z" />
<glyph unicode="&#xe6;" glyph-name="ae" horiz-adv-x="870" d="M237 -11Q173 -11 127 10T55 67T30 151Q30 205 58 236T149 280T317 294H362V210H313Q274 210 249 205T211 188T199 158Q199 135 215 120T264 105Q289 105 307 116T336 147T347 195V310Q347 344 330
359T270 374Q245 374 216 369T148 349Q122 339 103 346T73 370T63 407T75 445T115 473Q162 491 203 497T278 503Q342 503 391 485T465 424H429Q459 464 505 483T604 503Q657 503 701 486T778 437T827 358T845 255V248Q845 231 836 221T799 210H508V294H714L699
282Q699 318 689 341T660 376T611 388Q581 388 560 374T528 332T517 261V254Q517 182 546 151T641 119Q665 119 693 124T747 141Q773 152 791 146T821 124T832 88T823 50T789 22Q755 6 716 -2T635 -11Q553 -11 492 19T402 109H429Q409 51 360 20T237 -11Z" />
<glyph unicode="&#xe7;" glyph-name="ccedilla" horiz-adv-x="484" d="M303 -11Q220 -11 159 20T63 109T29 247Q29 307 48 354T103 435T190 485T303 503Q332 503 364 498T430 477Q454 468 463 450T472 410T460 372T431 349T389 354Q373 362 356 365T322 369Q295
369 275 361T240 338T219 299T211 247Q211 189 240 156T322 123Q338 123 355 126T389 138Q412 149 430 143T459 119T471 82T462 43T428 15Q395 0 364 -5T303 -11ZM288 -198Q268 -198 246 -196T205 -188Q185 -182 178 -169T173 -140T189 -117T221 -115Q235 -119
246 -120T269 -122Q295 -122 306 -117T318 -101Q318 -92 310 -88T282 -83Q276 -83 270 -83T256 -86Q250 -87 245 -86T234 -80Q230 -75 229 -69T228 -52L238 20H323L311 -57L270 -40Q281 -35 293 -33T316 -31Q363 -31 389 -51T415 -107Q415 -149 380 -173T288 -198Z"
/>
<glyph unicode="&#xe8;" glyph-name="egrave" horiz-adv-x="555" d="M320 -11Q230 -11 165 20T64 110T29 247Q29 323 62 380T154 470T288 503Q343 503 388 486T465 435T513 354T530 249Q530 229 519 220T484 210H178V294H400L384 281Q384 318 374 341T345 376T296
388Q265 388 243 374T208 331T196 261V252Q196 181 227 151T325 120Q347 120 375 125T430 141Q456 151 475 145T504 123T516 88T507 50T474 21Q439 5 400 -3T320 -11ZM227 564L137 685Q121 706 124 726T143 761T179 782T220 781T252 750L318 617Q328 595 321 578T297
551T260 543T227 564Z" />
<glyph unicode="&#xe9;" glyph-name="eacute" horiz-adv-x="555" d="M320 -11Q230 -11 165 20T64 110T29 247Q29 323 62 380T154 470T288 503Q343 503 388 486T465 435T513 354T530 249Q530 229 519 220T484 210H178V294H400L384 281Q384 318 374 341T345 376T296
388Q265 388 243 374T208 331T196 261V252Q196 181 227 151T325 120Q347 120 375 125T430 141Q456 151 475 145T504 123T516 88T507 50T474 21Q439 5 400 -3T320 -11ZM354 564Q340 546 321 544T284 550T260 577T262 617L328 750Q340 774 360 781T400 782T436 761T455
726T443 685L354 564Z" />
<glyph unicode="&#xea;" glyph-name="ecircumflex" horiz-adv-x="555" d="M320 -11Q230 -11 165 20T64 110T29 247Q29 323 62 380T154 470T288 503Q343 503 388 486T465 435T513 354T530 249Q530 229 519 220T484 210H178V294H400L384 281Q384 318 374 341T345
376T296 388Q265 388 243 374T208 331T196 261V252Q196 181 227 151T325 120Q347 120 375 125T430 141Q456 151 475 145T504 123T516 88T507 50T474 21Q439 5 400 -3T320 -11ZM444 615Q456 594 450 577T427 550T393 544T361 565L290 670L219 565Q206 547 188 544T153
550T131 576T136 615L194 721Q210 751 234 767T290 784Q323 784 347 768T387 721L444 615Z" />
<glyph unicode="&#xeb;" glyph-name="edieresis" horiz-adv-x="555" d="M320 -11Q230 -11 165 20T64 110T29 247Q29 323 62 380T154 470T288 503Q343 503 388 486T465 435T513 354T530 249Q530 229 519 220T484 210H178V294H400L384 281Q384 318 374 341T345 376T296
388Q265 388 243 374T208 331T196 261V252Q196 181 227 151T325 120Q347 120 375 125T430 141Q456 151 475 145T504 123T516 88T507 50T474 21Q439 5 400 -3T320 -11ZM393 577Q355 577 334 598T313 658Q313 696 334 716T393 737Q432 737 452 717T473 658Q473 619
453 598T393 577ZM187 577Q149 577 128 598T107 658Q107 696 128 716T187 737Q226 737 246 717T267 658Q267 619 247 598T187 577Z" />
<glyph unicode="&#xec;" glyph-name="igrave" horiz-adv-x="281" d="M140 -9Q98 -9 75 16T52 88V404Q52 451 75 476T140 501Q183 501 206 476T230 404V88Q230 41 207 16T140 -9ZM77 564L-13 685Q-29 706 -26 726T-7 761T29 782T70 781T102 750L168 617Q178 595
171 578T147 551T110 543T77 564Z" />
<glyph unicode="&#xed;" glyph-name="iacute" horiz-adv-x="281" d="M140 -9Q98 -9 75 16T52 88V404Q52 451 75 476T140 501Q183 501 206 476T230 404V88Q230 41 207 16T140 -9ZM204 564Q190 546 171 544T134 550T110 577T112 617L178 750Q190 774 210 781T250
782T286 761T305 726T293 685L204 564Z" />
<glyph unicode="&#xee;" glyph-name="icircumflex" horiz-adv-x="281" d="M140 -9Q98 -9 75 16T52 88V404Q52 451 75 476T140 501Q183 501 206 476T230 404V88Q230 41 207 16T140 -9ZM294 615Q306 594 300 577T277 550T243 544T211 565L140 670L69 565Q56 547
38 544T3 550T-19 576T-14 615L44 721Q60 751 84 767T140 784Q173 784 197 768T237 721L294 615Z" />
<glyph unicode="&#xef;" glyph-name="idieresis" horiz-adv-x="281" d="M140 -9Q98 -9 75 16T52 88V404Q52 451 75 476T140 501Q183 501 206 476T230 404V88Q230 41 207 16T140 -9ZM243 577Q205 577 184 598T163 658Q163 696 184 716T243 737Q282 737 302 717T323
658Q323 619 303 598T243 577ZM37 577Q-1 577 -22 598T-43 658Q-43 696 -22 716T37 737Q76 737 96 717T117 658Q117 619 97 598T37 577Z" />
<glyph unicode="&#xf0;" glyph-name="eth" horiz-adv-x="606" d="M293 -11Q215 -11 156 18T63 100T29 221Q29 287 60 338T147 418T275 447Q317 447 350 436T407 400T444 334H413Q413 401 379 453T291 541L316 540L170 472Q147 461 130 467T105 488T103 521T135
550L222 591L225 575Q211 582 196 587T163 598Q131 607 120 628T116 670T146 704T204 708Q249 697 288 681T362 645L330 642L460 703Q484 714 501 708T527 687T529 654T499 626L415 586L422 604Q475 562 509 510T561 402T579 292Q579 222 560 166T505 71T415 10T293
-11ZM300 122Q330 122 350 134T381 168T392 221Q392 265 369 291T300 318Q271 318 251 306T219 272T208 221Q208 175 233 149T300 122Z" />
<glyph unicode="&#xf1;" glyph-name="ntilde" horiz-adv-x="606" d="M140 -9Q98 -9 75 14T52 81V412Q52 455 74 478T139 501Q181 501 203 478T225 412V365L214 406Q238 453 282 478T384 503Q443 503 481 481T538 411T557 291V81Q557 37 534 14T468 -9Q425 -9 402
14T379 81V284Q379 329 364 348T318 367Q278 367 254 342T230 273V81Q230 -9 140 -9ZM136 574Q116 576 106 587T100 623Q102 641 110 662T135 702T174 734T230 747Q255 747 274 739T309 721T341 702T376 694Q392 694 405 702T424 724Q434 740 444 748T473 756Q495
755 504 742T510 707Q507 682 492 653T450 603T380 582Q355 582 336 590T301 609T269 628T234 636Q218 636 206 628T186 606Q179 595 169 584T136 574Z" />
<glyph unicode="&#xf2;" glyph-name="ograve" horiz-adv-x="602" d="M301 -11Q219 -11 158 20T63 109T29 246Q29 306 48 353T103 434T189 485T301 503Q383 503 444 472T538 384T572 246Q572 187 553 139T499 58T413 7T301 -11ZM301 120Q328 120 349 133T381 174T393
246Q393 313 367 342T301 372Q274 372 253 359T220 319T208 246Q208 180 234 150T301 120ZM238 564L148 685Q132 706 135 726T154 761T190 782T231 781T263 750L329 617Q339 595 332 578T308 551T271 543T238 564Z" />
<glyph unicode="&#xf3;" glyph-name="oacute" horiz-adv-x="602" d="M301 -11Q219 -11 158 20T63 109T29 246Q29 306 48 353T103 434T189 485T301 503Q383 503 444 472T538 384T572 246Q572 187 553 139T499 58T413 7T301 -11ZM301 120Q328 120 349 133T381 174T393
246Q393 313 367 342T301 372Q274 372 253 359T220 319T208 246Q208 180 234 150T301 120ZM365 564Q351 546 332 544T295 550T271 577T273 617L339 750Q351 774 371 781T411 782T447 761T466 726T454 685L365 564Z" />
<glyph unicode="&#xf4;" glyph-name="ocircumflex" horiz-adv-x="602" d="M301 -11Q219 -11 158 20T63 109T29 246Q29 306 48 353T103 434T189 485T301 503Q383 503 444 472T538 384T572 246Q572 187 553 139T499 58T413 7T301 -11ZM301 120Q328 120 349 133T381
174T393 246Q393 313 367 342T301 372Q274 372 253 359T220 319T208 246Q208 180 234 150T301 120ZM455 615Q467 594 461 577T438 550T404 544T372 565L301 670L230 565Q217 547 199 544T164 550T142 576T147 615L205 721Q221 751 245 767T301 784Q334 784 358
768T398 721L455 615Z" />
<glyph unicode="&#xf5;" glyph-name="otilde" horiz-adv-x="602" d="M301 -11Q219 -11 158 20T63 109T29 246Q29 306 48 353T103 434T189 485T301 503Q383 503 444 472T538 384T572 246Q572 187 553 139T499 58T413 7T301 -11ZM301 120Q328 120 349 133T381 174T393
246Q393 313 367 342T301 372Q274 372 253 359T220 319T208 246Q208 180 234 150T301 120ZM132 574Q112 576 102 587T96 623Q98 641 106 662T131 702T170 734T226 747Q251 747 270 739T305 721T337 702T372 694Q388 694 401 702T420 724Q430 740 440 748T469 756Q491
755 500 742T506 707Q503 682 488 653T446 603T376 582Q351 582 332 590T297 609T265 628T230 636Q214 636 202 628T182 606Q175 595 165 584T132 574Z" />
<glyph unicode="&#xf6;" glyph-name="odieresis" horiz-adv-x="602" d="M301 -11Q219 -11 158 20T63 109T29 246Q29 306 48 353T103 434T189 485T301 503Q383 503 444 472T538 384T572 246Q572 187 553 139T499 58T413 7T301 -11ZM301 120Q328 120 349 133T381
174T393 246Q393 313 367 342T301 372Q274 372 253 359T220 319T208 246Q208 180 234 150T301 120ZM404 577Q366 577 345 598T324 658Q324 696 345 716T404 737Q443 737 463 717T484 658Q484 619 464 598T404 577ZM198 577Q160 577 139 598T118 658Q118 696 139
716T198 737Q237 737 257 717T278 658Q278 619 258 598T198 577Z" />
<glyph unicode="&#xf7;" glyph-name="divide" horiz-adv-x="600" d="M107 228Q78 228 63 243T47 287Q47 316 62 331T107 346H493Q522 346 537 331T553 287Q553 258 538 243T493 228H107ZM294 24Q262 24 244 42T226 93Q226 125 244 142T294 160Q326 160 344 143T362
93Q362 60 345 42T294 24ZM294 414Q262 414 244 431T226 482Q226 514 244 532T294 550Q326 550 344 533T362 482Q362 449 345 432T294 414Z" />
<glyph unicode="&#xf8;" glyph-name="oslash" horiz-adv-x="602" d="M301 -11Q219 -11 158 20T63 109T29 246Q29 306 48 353T103 434T189 485T301 503Q383 503 444 472T538 384T572 246Q572 187 553 139T499 58T413 7T301 -11ZM301 111Q333 111 357 125T394 170T408
247Q408 316 379 349T301 382Q269 382 245 368T207 323T193 247Q193 177 223 144T301 111ZM188 -38Q176 -58 158 -61T124 -55T102 -29T108 11L414 530Q426 551 444 553T478 547T500 519T494 480L188 -38Z" />
<glyph unicode="&#xf9;" glyph-name="ugrave" horiz-adv-x="601" d="M236 -11Q172 -11 131 12T70 83T49 202V412Q49 456 72 478T138 501Q181 501 204 479T227 412V197Q227 161 242 143T289 125Q325 125 348 151T371 220V412Q371 456 394 478T460 501Q503 501 526
479T549 412V81Q549 -9 463 -9Q421 -9 398 14T375 81V139L391 90Q369 41 330 15T236 -11ZM237 564L147 685Q131 706 134 726T153 761T189 782T230 781T262 750L328 617Q338 595 331 578T307 551T270 543T237 564Z" />
<glyph unicode="&#xfa;" glyph-name="uacute" horiz-adv-x="601" d="M236 -11Q172 -11 131 12T70 83T49 202V412Q49 456 72 478T138 501Q181 501 204 479T227 412V197Q227 161 242 143T289 125Q325 125 348 151T371 220V412Q371 456 394 478T460 501Q503 501 526
479T549 412V81Q549 -9 463 -9Q421 -9 398 14T375 81V139L391 90Q369 41 330 15T236 -11ZM364 564Q350 546 331 544T294 550T270 577T272 617L338 750Q350 774 370 781T410 782T446 761T465 726T453 685L364 564Z" />
<glyph unicode="&#xfb;" glyph-name="ucircumflex" horiz-adv-x="601" d="M236 -11Q172 -11 131 12T70 83T49 202V412Q49 456 72 478T138 501Q181 501 204 479T227 412V197Q227 161 242 143T289 125Q325 125 348 151T371 220V412Q371 456 394 478T460 501Q503
501 526 479T549 412V81Q549 -9 463 -9Q421 -9 398 14T375 81V139L391 90Q369 41 330 15T236 -11ZM454 615Q466 594 460 577T437 550T403 544T371 565L300 670L229 565Q216 547 198 544T163 550T141 576T146 615L204 721Q220 751 244 767T300 784Q333 784 357 768T397
721L454 615Z" />
<glyph unicode="&#xfc;" glyph-name="udieresis" horiz-adv-x="601" d="M236 -11Q172 -11 131 12T70 83T49 202V412Q49 456 72 478T138 501Q181 501 204 479T227 412V197Q227 161 242 143T289 125Q325 125 348 151T371 220V412Q371 456 394 478T460 501Q503 501
526 479T549 412V81Q549 -9 463 -9Q421 -9 398 14T375 81V139L391 90Q369 41 330 15T236 -11ZM403 577Q365 577 344 598T323 658Q323 696 344 716T403 737Q442 737 462 717T483 658Q483 619 463 598T403 577ZM197 577Q159 577 138 598T117 658Q117 696 138 716T197
737Q236 737 256 717T277 658Q277 619 257 598T197 577Z" />
<glyph unicode="&#xfd;" glyph-name="yacute" horiz-adv-x="541" d="M195 -189Q164 -189 145 -173T122 -131T130 -76L197 69V-3L26 388Q13 418 17 444T44 485T104 501Q136 501 155 487T191 430L291 170H257L363 431Q379 472 399 486T455 501Q485 501 503 486T525
444T516 388L289 -122Q271 -162 250 -175T195 -189ZM335 564Q321 546 302 544T265 550T241 577T243 617L309 750Q321 774 341 781T381 782T417 761T436 726T424 685L335 564Z" />
<glyph unicode="&#xfe;" glyph-name="thorn" horiz-adv-x="620" d="M140 -189Q98 -189 75 -166T52 -99V624Q52 668 75 691T140 714Q183 714 206 691T230 624V403H216Q230 448 274 475T376 503Q440 503 488 472T564 384T591 246Q591 167 564 109T489 20T376 -11Q321
-11 277 15T218 83H230V-99Q230 -143 207 -166T140 -189ZM320 120Q347 120 367 133T400 174T412 246Q412 313 386 342T320 372Q293 372 272 359T239 319T227 246Q227 180 253 150T320 120Z" />
<glyph unicode="&#xff;" glyph-name="ydieresis" horiz-adv-x="541" d="M195 -189Q164 -189 145 -173T122 -131T130 -76L197 69V-3L26 388Q13 418 17 444T44 485T104 501Q136 501 155 487T191 430L291 170H257L363 431Q379 472 399 486T455 501Q485 501 503 486T525
444T516 388L289 -122Q271 -162 250 -175T195 -189ZM374 577Q336 577 315 598T294 658Q294 696 315 716T374 737Q413 737 433 717T454 658Q454 619 434 598T374 577ZM168 577Q130 577 109 598T88 658Q88 696 109 716T168 737Q207 737 227 717T248 658Q248 619 228
598T168 577Z" />
<glyph unicode="&#x2013;" glyph-name="endash" horiz-adv-x="500" d="M43 218Q21 218 6 232T-9 269Q-9 290 6 304T43 319H458Q480 319 494 305T509 269Q509 247 495 233T458 218H43Z" />
<glyph unicode="&#x2014;" glyph-name="emdash" horiz-adv-x="1000" d="M43 218Q21 218 6 232T-9 269Q-9 290 6 304T43 319H958Q980 319 994 305T1009 269Q1009 247 995 233T958 218H43Z" />
<glyph unicode="&#x2018;" glyph-name="quoteleft" horiz-adv-x="272" d="M111 679Q128 700 147 702T181 695T196 667T180 626Q155 597 147 568T138 516L132 564Q179 564 207 538T235 467Q235 424 209 398T136 371Q91 371 65 402T38 490Q38 518 43 547T64 608T111 679Z" />
<glyph unicode="&#x2019;" glyph-name="quoteright" horiz-adv-x="272" d="M161 403Q145 381 126 379T92 387T76 415T93 456Q118 485 126 514T134 566L140 517Q94 517 66 543T38 614Q38 658 64 684T136 711Q183 711 209 680T235 592Q235 564 230 535T209 474T161 403Z" />
<glyph unicode="&#x201a;" glyph-name="quotesinglbase" horiz-adv-x="272" d="M161 -120Q145 -142 126 -144T92 -137T77 -108T93 -67Q118 -38 126 -9T134 43L140 -6Q94 -6 66 20T38 92Q38 135 64 161T136 188Q183 188 209 157T235 69Q235 41 230 12T209 -49T161 -120Z" />
<glyph unicode="&#x201c;" glyph-name="quotedblleft" horiz-adv-x="502" d="M111 679Q128 700 147 702T181 695T196 667T180 626Q155 597 147 568T138 516L132 564Q179 564 207 538T235 467Q235 424 209 398T136 371Q91 371 65 402T38 490Q38 518 43 547T64 608T111
679ZM341 679Q358 700 377 702T411 695T426 667T410 626Q385 597 377 568T368 516L362 564Q409 564 437 538T465 467Q465 424 439 398T366 371Q321 371 295 402T268 490Q268 518 273 547T294 608T341 679Z" />
<glyph unicode="&#x201d;" glyph-name="quotedblright" horiz-adv-x="502" d="M161 403Q145 381 126 379T92 387T76 415T93 456Q118 485 126 514T134 566L140 517Q94 517 66 543T38 614Q38 658 64 684T136 711Q183 711 209 680T235 592Q235 564 230 535T209 474T161
403ZM391 403Q375 381 356 379T322 387T306 415T323 456Q348 485 356 514T364 566L370 517Q324 517 296 543T268 614Q268 658 294 684T366 711Q413 711 439 680T465 592Q465 564 460 535T439 474T391 403Z" />
<glyph unicode="&#x201e;" glyph-name="quotedblbase" horiz-adv-x="502" d="M161 -120Q145 -142 126 -144T92 -137T77 -108T93 -67Q118 -38 126 -9T134 43L140 -6Q94 -6 66 20T38 92Q38 135 64 161T136 188Q183 188 209 157T235 69Q235 41 230 12T209 -49T161
-120ZM391 -120Q375 -142 356 -144T322 -137T307 -108T323 -67Q348 -38 356 -9T364 43L370 -6Q324 -6 296 20T268 92Q268 135 294 161T366 188Q413 188 439 157T465 69Q465 41 460 12T439 -49T391 -120Z" />
<glyph unicode="&#x2022;" glyph-name="bullet" horiz-adv-x="524" d="M262 88Q213 88 172 111T106 175T81 265Q81 311 104 351T169 417T262 443Q310 443 351 420T418 357T443 265Q443 216 419 176T353 112T262 88Z" />
<glyph unicode="&#x2039;" glyph-name="guilsinglleft" horiz-adv-x="320" d="M228 76Q204 65 181 71T143 100L72 208Q53 237 53 266T72 324L140 431Q155 455 179 461T227 456Q253 444 263 418T259 362L214 267L259 168Q272 140 264 114T228 76Z" />
<glyph unicode="&#x203a;" glyph-name="guilsinglright" horiz-adv-x="320" d="M91 76Q65 88 57 114T61 168L106 267L62 362Q49 392 58 418T93 456Q117 467 141 461T180 431L248 324Q266 295 266 267T248 208L177 100Q162 78 139 72T91 76Z" />
</font>
</defs>
</svg>
