<?xml version="1.0" standalone="no"?>
<!DOCTYPE svg PUBLIC "-//W3C//DTD SVG 1.1//EN" "http://www.w3.org/Graphics/SVG/1.1/DTD/svg11.dtd">
<svg xmlns="http://www.w3.org/2000/svg">
<defs >
<font id="Nunito" horiz-adv-x="566" ><font-face
    font-family="Nunito"
    units-per-em="1000"
    panose-1="0 0 0 0 0 0 0 0 0 0"
    ascent="1011"
    descent="-353"
    alphabetic="0" />
<glyph unicode=" " glyph-name="space" horiz-adv-x="258" />
<glyph unicode="!" glyph-name="exclam" horiz-adv-x="228" d="M107 181Q95 181 88 188T83 212L134 664Q137 688 150 700T186 712Q210 712 221 697T227 655L136 207Q133 196 126 189T107 181ZM85 -4Q61 -4 46 11T30 51Q30 75 45 90T85 106Q111 106 125 91T140
51Q140 27 126 12T85 -4Z" />
<glyph unicode="&quot;" glyph-name="quotedbl" horiz-adv-x="392" d="M142 421Q129 421 122 428T115 455L133 671Q135 688 147 700T180 712Q195 712 205 706T220 689T221 661L173 451Q170 436 162 429T142 421ZM313 421Q300 421 293 428T286 455L304 671Q306
688 318 700T351 712Q366 712 376 706T391 689T392 661L344 451Q341 436 333 429T313 421Z" />
<glyph unicode="#" glyph-name="numbersign" horiz-adv-x="600" d="M82 -7Q65 -7 60 5T62 36L118 193L139 182H61Q55 182 47 184T33 191T27 208Q27 223 36 232T64 241H157L132 233L221 484L239 472H127Q120 472 113 474T100 481T94 499Q94 514 103 522T130 531H259L233
519L290 682Q296 697 306 704T329 712Q345 712 350 701T348 669L300 531H459L512 682Q517 697 527 704T552 712Q568 712 573 701T571 669L519 519L498 531H575Q582 531 590 530T603 523T609 505Q609 490 600 481T572 472H480L506 484L417 233L398 241H509Q517 241
524 239T537 232T543 215Q543 200 534 191T506 182H378L404 193L342 23Q337 8 327 1T303 -7Q287 -7 282 5T284 36L336 182H177L121 23Q115 8 106 1T82 -7ZM197 241H357L439 472H279L197 241Z" />
<glyph unicode="$" glyph-name="dollar" horiz-adv-x="600" d="M255 -122Q238 -122 230 -112T224 -81L239 11L251 -4Q190 -1 137 16T45 63Q33 71 29 82T28 105T39 125T59 133T85 125Q125 97 174 83T289 68Q337 68 375 81T436 122T459 188Q459 218 447 239T408
277T331 305L242 329Q172 347 131 388T89 507Q89 574 125 619T223 687T358 710L347 699L362 793Q365 807 374 814T399 822Q413 822 423 813T429 784L416 697L409 706Q455 699 497 680T572 630Q581 623 583 613T583 592T571 575T552 568T526 578Q489 609 446 623T351
637Q269 637 221 605T172 512Q172 462 197 437T272 399L361 376Q456 350 499 307T542 196Q542 132 508 88T416 21T290 -4L307 12L291 -93Q289 -106 279 -114T255 -122Z" />
<glyph unicode="%" glyph-name="percent" horiz-adv-x="930" d="M263 -2Q254 -14 244 -18T224 -19T208 -8T202 11T211 34L699 703Q708 715 719 718T739 720T755 710T761 691T753 668L263 -2ZM239 282Q170 282 131 325T92 443Q92 517 115 578T183 676T294 713Q364
713 403 670T442 550Q442 476 419 415T351 318T239 282ZM239 339Q283 339 312 367T356 443T372 547Q374 604 352 629T294 655Q251 655 222 627T178 551T161 447Q160 390 182 365T239 339ZM670 -9Q600 -9 561 34T522 153Q522 227 545 288T614 385T724 422Q794 422
833 379T872 260Q872 185 849 124T781 27T670 -9ZM669 49Q714 49 742 77T786 153T803 257Q804 314 783 339T725 365Q681 365 652 337T608 261T591 157Q590 100 612 75T669 49Z" />
<glyph unicode="&amp;" glyph-name="ampersand" horiz-adv-x="693" d="M253 -9Q190 -9 145 10T74 64T49 148Q49 189 64 224T106 289T166 343T232 385L268 405L255 388Q222 431 208 468T193 538Q193 591 217 630T284 692T384 714Q449 714 488 678T527 585Q527 537
503 500T437 433T343 373L345 395L499 185H484Q504 212 519 242T546 309T569 388Q573 404 582 412T608 420Q626 420 635 410T639 381Q627 329 611 286T575 205T527 132L525 156L608 47Q618 34 617 22T606 1T579 -7Q570 -7 561 -4T545 7L476 101H497Q451 49 390
20T253 -9ZM260 58Q323 58 371 82T457 152L453 127L278 359L307 355L274 336Q233 312 200 286T149 229T130 158Q130 110 163 84T260 58ZM380 651Q330 651 300 621T270 545Q270 525 274 508T291 471T324 421L304 422Q360 453 393 477T442 527T457 581Q457 613 436
632T380 651Z" />
<glyph unicode="&apos;" glyph-name="quotesingle" horiz-adv-x="221" d="M142 421Q129 421 122 428T115 455L133 671Q135 688 147 700T180 712Q195 712 205 706T220 689T221 661L173 451Q170 436 162 429T142 421Z" />
<glyph unicode="(" glyph-name="parenleft" horiz-adv-x="317" d="M141 -157Q120 -85 110 -17T99 119Q99 228 122 331T184 528T276 694Q287 708 300 710T325 707T340 688T336 659Q288 575 255 486T203 301T185 99Q185 61 188 22T196 -57T209 -138Q212 -157 204
-169T183 -184T158 -181T141 -157Z" />
<glyph unicode=")" glyph-name="parenright" horiz-adv-x="317" d="M47 -166Q37 -180 24 -183T-1 -180T-17 -162T-12 -133Q35 -48 68 41T120 226T138 427Q138 465 135 504T127 583T114 664Q112 683 120 695T140 710T165 707T182 683Q203 612 213 543T224 407Q224
299 202 196T140 2T47 -166Z" />
<glyph unicode="*" glyph-name="asterisk" horiz-adv-x="450" d="M174 368Q161 375 160 388T167 416L237 526L248 510L117 505Q99 505 89 512T78 535Q78 549 88 556T117 563L248 558L237 543L168 654Q158 669 160 682T174 702Q186 709 198 703T219 681L276 571H266L323
681Q332 697 344 703T369 702Q382 694 383 681T374 653L305 543L294 558L425 563Q443 564 453 557T464 535Q464 520 454 513T425 505L294 510L305 526L374 416Q383 401 383 389T369 369Q356 361 344 367T323 388L266 498H276L218 388Q210 372 198 366T174 368Z"
/>
<glyph unicode="+" glyph-name="plus" horiz-adv-x="600" d="M268 33Q253 33 246 43T241 72L270 256H89Q74 256 65 262T56 281Q56 298 66 308T93 318H280L308 503Q311 518 319 526T345 535Q361 535 368 525T372 497L344 318H524Q541 318 549 312T558 292Q558 275
548 266T521 256H334L304 66Q302 50 294 42T268 33Z" />
<glyph unicode="," glyph-name="comma" horiz-adv-x="228" d="M74 -97Q62 -108 51 -108T34 -102T27 -84T38 -62Q59 -42 68 -24T81 17L88 -4Q62 -4 46 11T30 51Q30 75 44 90T84 106Q109 106 122 90T136 44Q136 18 129 -7T108 -54T74 -97Z" />
<glyph unicode="-" glyph-name="hyphen" horiz-adv-x="424" d="M104 233Q86 233 78 240T69 259Q69 276 78 288T107 300H329Q347 300 355 293T364 273Q364 256 354 245T326 233H104Z" />
<glyph unicode="." glyph-name="period" horiz-adv-x="228" d="M85 -4Q61 -4 46 11T30 51Q30 75 45 90T85 106Q111 106 125 91T140 51Q140 27 126 12T85 -4Z" />
<glyph unicode="/" glyph-name="slash" horiz-adv-x="283" d="M10 -37Q3 -50 -6 -54T-26 -57T-43 -49T-53 -32T-49 -9L303 726Q309 738 318 743T338 746T356 738T366 721T363 697L10 -37Z" />
<glyph unicode="0" glyph-name="zero" horiz-adv-x="600" d="M289 -9Q180 -9 124 57T67 250Q67 394 101 498T198 658T347 714Q456 714 512 648T568 456Q568 312 534 208T437 47T289 -9ZM293 62Q381 62 433 167T486 474Q487 559 452 601T343 643Q255 643 202 538T149
231Q149 146 184 104T293 62Z" />
<glyph unicode="1" glyph-name="one" horiz-adv-x="600" d="M123 0Q105 0 95 8T84 31Q84 49 96 59T127 70H258L348 638L391 634L239 541Q225 533 213 534T194 543T184 561T186 583T205 602L359 697Q373 705 383 708T405 712Q422 712 430 701T435 670L340 70H454Q472
70 482 63T492 40Q492 22 481 11T449 0H123Z" />
<glyph unicode="2" glyph-name="two" horiz-adv-x="600" d="M99 0Q80 0 69 8T58 34Q58 46 65 56T86 81L341 319Q399 372 436 425T473 538Q473 587 441 614T347 641Q307 641 266 627T181 582Q168 573 157 573T138 581T127 599T128 621T144 641Q189 675 245 694T360
714Q420 714 464 693T532 635T556 548Q556 492 534 444T475 353T390 267L148 46L147 70H475Q494 70 503 63T513 41Q513 22 502 11T470 0H99Z" />
<glyph unicode="3" glyph-name="three" horiz-adv-x="600" d="M278 -9Q223 -9 165 5T58 57Q46 65 43 77T42 99T52 117T71 126T95 119Q139 86 184 75T278 64Q322 64 358 81T415 130T436 208Q436 260 401 291T300 322H236Q218 322 208 330T197 353Q197 372 209 382T240
393H306Q352 393 389 410T449 458T471 534Q471 583 437 612T346 641Q303 641 259 627T174 584Q161 575 150 575T131 583T121 600T122 622T139 642Q185 679 242 696T354 714Q417 714 461 691T528 630T552 543Q553 495 532 456T473 390T386 354V365Q451 351 484 308T518
204Q518 143 487 95T401 19T278 -9Z" />
<glyph unicode="4" glyph-name="four" horiz-adv-x="600" d="M380 -7Q360 -7 351 5T345 37L363 151H82Q60 151 49 160T38 185Q38 197 44 208T63 235L445 685Q456 699 466 704T492 710Q510 710 519 698T525 663L455 221H528Q546 221 554 214T563 193Q563 174 553
163T521 151H445L426 33Q424 13 413 3T380 -7ZM373 221L435 609H460L113 200L115 221H373Z" />
<glyph unicode="5" glyph-name="five" horiz-adv-x="600" d="M287 -9Q237 -9 183 6T81 58Q69 67 66 78T65 101T76 119T95 127T118 119Q161 86 201 75T287 64Q337 64 377 86T440 146T463 234Q463 295 428 332T331 370Q287 370 251 353T182 302Q172 293 163 288T141
283Q125 283 116 292T109 321L165 668Q168 687 179 696T208 705H543Q561 705 571 698T581 675Q581 656 570 646T538 635H241L196 354H172Q204 396 253 418T354 441Q407 441 450 419T519 352T545 241Q545 166 510 110T416 23T287 -9Z" />
<glyph unicode="6" glyph-name="six" horiz-adv-x="600" d="M306 -9Q235 -9 183 22T103 113T75 252Q75 349 96 433T158 580T259 678T400 714Q450 714 498 695T583 639Q594 629 596 618T594 596T582 579T562 572T539 584Q511 612 473 626T394 641Q325 641 273 600T191
481T154 298L152 268H142Q151 322 182 361T258 421T352 442Q409 442 452 416T520 345T545 244Q545 172 514 115T429 24T306 -9ZM302 61Q352 61 388 84T445 148T466 238Q466 278 449 308T401 355T330 372Q282 372 245 349T187 285T166 195Q166 156 184 126T232 78T302
61Z" />
<glyph unicode="7" glyph-name="seven" horiz-adv-x="600" d="M136 -7Q120 -7 110 1T100 24T110 54L522 670L521 634H167Q148 634 138 642T127 665Q127 685 138 695T169 705H560Q583 705 593 697T603 673Q603 660 597 649T581 621L183 22Q172 7 161 0T136 -7Z" />
<glyph unicode="8" glyph-name="eight" horiz-adv-x="600" d="M270 -9Q202 -9 150 11T69 71T39 162Q39 217 64 262T132 336T228 367L226 355Q170 368 139 408T108 507Q108 573 141 619T233 689T366 713Q430 713 478 693T554 635T581 546Q581 496 559 455T497 386T409
352L412 365Q472 356 509 315T546 209Q546 139 511 90T413 16T270 -9ZM274 59Q364 59 415 98T467 213Q467 268 425 295T313 323Q224 323 171 285T118 171Q118 115 161 87T274 59ZM325 391Q377 391 416 409T479 460T502 538Q502 590 465 617T363 645Q281 645 234
609T187 501Q187 448 224 420T325 391Z" />
<glyph unicode="9" glyph-name="nine" horiz-adv-x="600" d="M238 -9Q189 -9 139 10T52 66Q41 76 39 87T40 108T52 125T72 132T95 121Q125 94 163 79T244 64Q312 64 362 105T444 224T481 407L483 437H493Q484 383 453 344T377 284T283 263Q226 263 183 289T114
360T89 461Q89 534 120 591T205 681T328 714Q399 714 451 683T531 593T559 453Q559 358 539 274T479 127T378 27T238 -9ZM304 333Q354 333 390 356T447 420T468 510Q468 550 451 580T403 627T332 645Q284 645 247 621T190 557T169 467Q169 428 186 398T234 350T304
333Z" />
<glyph unicode=":" glyph-name="colon" horiz-adv-x="228" d="M85 -4Q61 -4 46 11T30 51Q30 75 45 90T85 106Q111 106 125 91T140 51Q140 27 126 12T85 -4ZM146 380Q122 380 107 396T91 435Q91 460 106 475T146 490Q172 490 186 475T200 435Q200 412 186 396T146 380Z" />
<glyph unicode=";" glyph-name="semicolon" horiz-adv-x="228" d="M74 -97Q62 -108 51 -108T34 -102T27 -84T38 -62Q59 -42 68 -24T81 17L88 -4Q62 -4 46 11T30 51Q30 75 44 90T84 106Q109 106 122 90T136 44Q136 18 129 -7T108 -54T74 -97ZM146 380Q122 380 107
396T91 435Q91 460 106 475T146 490Q172 490 186 475T200 435Q200 412 186 396T146 380Z" />
<glyph unicode="&lt;" glyph-name="less" horiz-adv-x="600" d="M480 50L92 239Q56 255 56 282Q56 299 66 310T93 329L548 522Q560 527 570 524T586 514T592 496T588 477T571 463L92 263L99 303L507 106Q519 101 523 92T526 73T518 56T503 46T480 50Z" />
<glyph unicode="=" glyph-name="equal" horiz-adv-x="600" d="M105 356Q89 356 80 362T71 381Q71 398 81 408T108 418H540Q556 418 564 412T573 392Q573 375 564 366T536 356H105ZM73 157Q58 157 49 163T40 182Q40 199 50 208T77 218H509Q525 218 533 212T542
193Q542 176 532 167T505 157H73Z" />
<glyph unicode="&gt;" glyph-name="greater" horiz-adv-x="600" d="M66 53Q54 48 44 51T28 61T22 78T26 97T43 111L522 311L515 270L107 468Q95 474 91 483T87 502T94 519T110 529T132 525L522 335Q558 318 558 292Q558 276 548 265T521 245L66 53Z" />
<glyph unicode="?" glyph-name="question" horiz-adv-x="443" d="M201 180Q186 180 180 190T176 216Q181 251 191 280T224 339T288 406Q323 436 344 459T375 505T385 555Q385 592 361 616T283 641Q239 641 200 627T125 586Q111 577 99 577T80 584T70 601T71 623T89
645Q131 679 186 696T295 714Q351 714 389 694T448 640T468 565Q468 526 452 492T407 427T340 366Q303 336 281 309T248 258T230 208Q227 194 221 187T201 180ZM177 -4Q152 -4 137 11T121 51Q121 75 136 90T177 106Q202 106 216 91T231 51Q231 27 217 12T177 -4Z"
/>
<glyph unicode="@" glyph-name="at" horiz-adv-x="946" d="M495 -163Q400 -163 322 -133T188 -45T102 92T71 273Q71 371 102 452T192 591T331 682T509 714Q624 714 711 668T847 538T896 344Q896 257 872 193T806 94T705 59Q646 59 615 93T589 187L607 182Q582
122 537 91T439 59Q363 59 320 107T277 241Q277 314 305 371T382 462T493 495Q548 495 582 468T628 392H616L627 459Q634 491 665 491Q681 491 688 482T693 454L654 227Q652 214 651 202T649 180Q649 147 664 130T710 113Q748 113 777 142T822 223T839 344Q839
439 798 509T682 618T508 657Q396 657 312 609T182 475T135 273Q135 154 179 69T304 -61T495 -107Q569 -107 628 -86T730 -29Q745 -18 756 -19T774 -30T780 -52T765 -75Q717 -117 648 -140T495 -163ZM449 117Q493 117 528 144T583 218T603 325Q603 381 578 409T501
437Q457 437 422 412T366 343T346 241Q346 181 373 149T449 117Z" />
<glyph unicode="A" glyph-name="A" horiz-adv-x="729" d="M40 -7Q25 -7 15 0T3 20T9 47L391 683Q400 698 411 705T439 712Q456 712 466 704T482 679L658 49Q664 30 661 18T649 -1T627 -7Q609 -7 599 3T583 32L539 197L571 180H145L186 196L82 19Q75 6 65 0T40
-7ZM427 609L208 235L186 249H552L529 234L429 609H427Z" />
<glyph unicode="B" glyph-name="B" horiz-adv-x="676" d="M98 0Q75 0 64 13T56 49L154 664Q157 685 169 695T202 705H428Q501 705 548 685T619 627T642 540Q642 461 594 412T464 350V365Q531 354 569 312T607 208Q607 105 542 53T358 0H98ZM139 66H358Q441 66
483 103T525 211Q525 267 488 295T382 324H180L139 66ZM191 390H392Q470 390 515 426T561 532Q561 584 526 611T417 639H230L191 390Z" />
<glyph unicode="C" glyph-name="C" horiz-adv-x="673" d="M382 -9Q292 -9 224 25T116 130T77 307Q77 394 102 468T174 597T289 683T441 714Q504 714 558 696T653 642Q665 632 668 620T667 597T655 578T635 570T612 578Q573 611 531 625T438 639Q353 639 292 596T198
479T165 309Q165 223 192 169T269 91T390 66Q436 66 476 79T556 124Q569 133 580 132T600 124T611 106T610 83T594 62Q548 26 494 9T382 -9Z" />
<glyph unicode="D" glyph-name="D" horiz-adv-x="742" d="M98 0Q75 0 64 13T56 49L154 664Q157 685 169 695T202 705H368Q528 705 615 628T702 410Q702 325 678 251T605 121T481 32T302 0H98ZM142 70H304Q388 70 447 96T544 170T598 278T615 409Q615 519 553 577T367
635H232L142 70Z" />
<glyph unicode="E" glyph-name="E" horiz-adv-x="583" d="M98 0Q74 0 64 12T56 49L154 664Q157 685 169 695T202 705H571Q589 705 598 698T608 678Q608 657 597 647T567 636H230L191 392H501Q519 392 528 385T537 365Q537 344 526 334T497 323H180L139 69H470Q488
69 497 62T507 41Q507 21 496 11T466 0H98Z" />
<glyph unicode="F" glyph-name="F" horiz-adv-x="548" d="M94 -7Q71 -7 62 6T55 42L154 664Q157 685 169 695T202 705H557Q575 705 584 698T594 677Q594 658 584 647T553 636H233L193 390H487Q505 390 514 383T524 362Q524 343 513 332T483 321H183L137 35Q130 -7 94 -7Z" />
<glyph unicode="G" glyph-name="G" horiz-adv-x="726" d="M391 -9Q293 -9 223 26T114 129T76 296Q76 389 101 465T175 597T291 683T446 714Q510 714 566 697T660 645Q673 635 676 622T677 598T665 579T645 570T619 580Q584 611 539 625T441 640Q354 640 292 597T197
477T163 298Q163 179 223 122T400 64Q449 64 490 73T569 96L544 53L584 302H441Q423 302 413 309T403 330Q403 348 414 357T444 367H624Q643 367 653 356T659 325L618 64Q616 48 609 39T588 24Q549 9 496 0T391 -9Z" />
<glyph unicode="H" glyph-name="H" horiz-adv-x="761" d="M90 -7Q69 -7 60 6T55 43L155 670Q158 691 169 701T201 712Q222 712 231 699T236 662L193 393H615L660 670Q663 691 674 701T706 712Q726 712 735 700T741 662L641 35Q638 15 627 4T595 -7Q574 -7 565
6T560 43L604 322H182L136 35Q133 15 122 4T90 -7Z" />
<glyph unicode="I" glyph-name="I" horiz-adv-x="257" d="M91 -7Q70 -7 61 6T55 43L155 670Q158 691 169 701T201 712Q222 712 231 700T236 662L136 35Q133 15 123 4T91 -7Z" />
<glyph unicode="J" glyph-name="J" horiz-adv-x="324" d="M-6 -6Q-26 -7 -37 2T-47 28Q-47 45 -38 54T-12 64L20 66Q74 70 105 102T147 196L222 673Q226 693 237 702T268 712Q288 712 297 700T303 666L227 186Q218 128 195 88T130 24T25 -4L-6 -6Z" />
<glyph unicode="K" glyph-name="K" horiz-adv-x="625" d="M91 -7Q71 -7 62 5T55 42L155 671Q159 692 170 702T201 712Q221 712 230 700T236 664L192 385H194L570 693Q582 703 590 707T612 712Q628 712 637 702T647 679T633 654L248 337V380L557 50Q568 39 568
26T557 3T530 -7Q516 -7 507 -1T485 19L186 334H184L137 33Q134 13 123 3T91 -7Z" />
<glyph unicode="L" glyph-name="L" horiz-adv-x="543" d="M95 0Q73 0 63 12T56 46L156 674Q159 694 170 703T200 712Q221 712 230 700T237 666L143 72H464Q482 72 492 65T502 43Q502 22 490 11T459 0H95Z" />
<glyph unicode="M" glyph-name="M" horiz-adv-x="856" d="M91 -2Q72 -2 64 9T57 40L158 675Q162 694 172 703T199 712Q215 712 223 705T239 680L427 168H399L756 687Q766 700 776 706T801 712Q820 712 828 701T834 669L733 34Q731 16 721 7T693 -2Q675 -2 666
9T659 40L747 596H771L444 122Q437 111 429 107T409 102Q395 102 387 108T373 129L199 595H220L131 34Q129 16 119 7T91 -2Z" />
<glyph unicode="N" glyph-name="N" horiz-adv-x="739" d="M88 -7Q70 -7 61 5T55 39L156 676Q160 695 170 703T195 712Q211 712 219 706T236 685L574 100H553L644 674Q647 694 658 703T688 712Q706 712 714 700T719 666L618 30Q615 12 606 3T582 -7Q566 -7 557
0T538 21L200 605H221L130 31Q128 12 118 3T88 -7Z" />
<glyph unicode="O" glyph-name="O" horiz-adv-x="767" d="M368 -9Q280 -9 215 26T113 129T76 294Q76 383 100 459T169 593T281 682T434 714Q523 714 588 679T690 577T726 412Q726 322 702 246T633 112T521 23T368 -9ZM370 64Q457 64 517 109T608 233T639 411Q639
527 584 584T431 641Q345 641 285 596T194 472T163 295Q163 178 218 121T370 64Z" />
<glyph unicode="P" glyph-name="P" horiz-adv-x="633" d="M91 -7Q71 -7 62 6T55 41L154 665Q158 686 169 695T201 705H415Q523 705 582 657T641 515Q641 408 574 345T378 281H176L136 34Q133 13 123 3T91 -7ZM187 350H382Q469 350 514 391T559 510Q559 576 521
606T408 637H232L187 350Z" />
<glyph unicode="Q" glyph-name="Q" horiz-adv-x="767" d="M583 -140Q590 -156 588 -168T576 -188T555 -196T532 -191T513 -170L467 -69Q453 -39 426 -24T356 -9L428 20Q470 18 497 2T545 -58L583 -140ZM368 -9Q280 -9 215 26T113 129T76 294Q76 383 100 459T169
593T281 682T434 714Q523 714 588 679T690 577T726 412Q726 322 702 246T633 112T521 23T368 -9ZM370 64Q457 64 517 109T608 233T639 411Q639 527 584 584T431 641Q345 641 285 596T194 472T163 295Q163 178 218 121T370 64Z" />
<glyph unicode="R" glyph-name="R" horiz-adv-x="669" d="M90 -7Q70 -7 61 6T56 42L154 664Q158 685 170 695T202 705H412Q526 705 583 655T641 515Q641 444 608 396T516 324T384 301V314H400Q444 314 472 289T517 218L582 48Q589 31 588 19T577 0T550 -7Q534
-7 524 1T507 29L434 219Q418 262 392 280T316 298H178L137 34Q134 14 123 4T90 -7ZM189 363H389Q469 363 514 401T559 510Q559 573 522 605T403 637H232L189 363Z" />
<glyph unicode="S" glyph-name="S" horiz-adv-x="615" d="M297 -9Q252 -9 208 -2T124 20T51 60Q38 68 35 79T33 101T43 121T63 130T89 122Q137 89 190 77T304 64Q385 64 434 97T483 189Q483 229 454 257T352 302L249 327Q179 344 137 385T95 503Q95 551 115 590T172
656T256 699T358 714Q416 714 477 697T584 641Q595 633 598 622T600 599T589 581T569 574T542 583Q503 614 455 627T356 641Q306 641 265 625T201 579T178 508Q178 458 203 434T279 396L383 372Q477 350 521 306T566 198Q566 148 545 109T487 44T402 5T297 -9Z"
/>
<glyph unicode="T" glyph-name="T" horiz-adv-x="602" d="M263 -7Q243 -7 234 6T229 42L322 634H103Q85 634 75 642T64 664Q64 684 76 694T107 705H635Q654 705 664 698T674 676Q674 656 663 645T631 634H404L309 34Q307 14 296 4T263 -7Z" />
<glyph unicode="U" glyph-name="U" horiz-adv-x="728" d="M335 -9Q269 -9 218 10T134 67T90 163T90 297L150 673Q154 693 165 702T196 712Q216 712 225 700T231 665L172 290Q154 177 197 121T339 64Q438 64 494 114T568 273L632 673Q635 693 646 702T677 712Q697
712 706 700T712 665L650 269Q635 178 597 116T494 23T335 -9Z" />
<glyph unicode="V" glyph-name="V" horiz-adv-x="688" d="M306 -7Q287 -7 276 3T258 33L87 654Q83 670 86 681T99 698T123 705Q139 705 149 697T165 668L328 66H295L653 675Q663 691 673 698T701 705Q718 705 727 698T737 678T730 651L357 25Q347 9 336 1T306 -7Z" />
<glyph unicode="W" glyph-name="W" horiz-adv-x="1101" d="M273 -7Q255 -7 245 3T231 35L112 661Q107 685 118 698T150 712Q166 712 176 703T190 673L300 70H265L573 679Q582 696 593 704T621 712Q636 712 645 702T659 669L770 70H739L1046 681Q1054 697 1064
704T1090 712Q1115 712 1123 696T1120 657L799 26Q790 9 779 1T748 -7Q731 -7 721 3T706 35L598 610H619L323 26Q314 9 303 1T273 -7Z" />
<glyph unicode="X" glyph-name="X" horiz-adv-x="650" d="M43 -7Q27 -7 18 2T8 25T20 54L307 376V345L128 652Q119 668 120 681T132 703T159 712Q174 712 182 705T201 681L359 404H340L585 687Q597 700 607 706T632 712Q647 712 657 703T667 680T656 652L380 341V379L571
53Q581 38 579 25T567 2T540 -7Q524 -7 516 0T497 24L326 319H353L89 18Q77 5 67 -1T43 -7Z" />
<glyph unicode="Y" glyph-name="Y" horiz-adv-x="596" d="M258 -7Q239 -7 231 6T224 41L276 365L284 308L90 652Q82 668 83 681T94 703T120 712Q136 712 145 705T163 681L327 391H305L567 687Q579 701 589 706T613 712Q628 712 637 703T647 680T635 652L330 308L358
365L305 34Q299 -7 258 -7Z" />
<glyph unicode="Z" glyph-name="Z" horiz-adv-x="589" d="M50 0Q37 0 28 7T16 25T17 50T35 80L536 666L537 634H146Q128 634 119 642T109 663Q109 685 121 695T151 705H582Q599 705 609 698T621 680T619 655T601 626L99 40L97 71H504Q522 71 532 64T542 43Q542
21 530 11T500 0H50Z" />
<glyph unicode="[" glyph-name="bracketleft" horiz-adv-x="315" d="M93 -180Q72 -180 60 -166T50 -130L177 672Q180 686 190 695T216 705H342Q361 705 372 697T383 675Q383 657 373 649T344 641H253L133 -116H223Q240 -116 246 -123T253 -143Q253 -159 243 -169T214
-180H93Z" />
<glyph unicode="\" glyph-name="backslash" horiz-adv-x="283" d="M186 -32L64 711Q62 724 67 733T81 746T100 751T118 743T128 721L251 -23Q253 -36 248 -45T234 -59T215 -63T196 -54T186 -32Z" />
<glyph unicode="]" glyph-name="bracketright" horiz-adv-x="315" d="M-21 -180Q-40 -180 -50 -172T-61 -150Q-61 -132 -51 -124T-23 -116H68L188 641H99Q81 641 75 649T68 668Q68 685 78 695T107 705H228Q249 705 261 691T271 655L144 -147Q142 -161 132 -170T105
-180H-21Z" />
<glyph unicode="^" glyph-name="asciicircum" horiz-adv-x="600" d="M77 133Q57 133 51 147T56 179L317 607Q326 623 336 628T362 634Q391 634 400 600L525 177Q531 157 523 145T497 133Q482 133 476 141T465 162L339 595H379L113 156Q107 146 99 140T77 133Z" />
<glyph unicode="_" glyph-name="underscore" horiz-adv-x="500" d="M1 -53Q-15 -53 -22 -47T-30 -30Q-30 -15 -20 -8T3 0H414Q430 0 437 -6T444 -23Q444 -37 434 -45T411 -53H1Z" />
<glyph unicode="`" glyph-name="grave" horiz-adv-x="392" d="M293 558L186 711Q177 725 178 736T187 754T206 764T229 761T249 740L339 584Q345 571 342 562T331 547T312 544T293 558Z" />
<glyph unicode="a" glyph-name="a" horiz-adv-x="530" d="M199 -9Q157 -9 121 10T62 62T40 137Q40 189 68 220T158 267T315 282H395L387 229H326Q249 229 205 221T141 194T122 142Q122 98 151 75T219 52Q256 52 287 68T341 115T370 190L389 312Q399 370 375 400T286
430Q249 430 216 423T150 397Q137 390 126 391T108 399T100 417T105 437T126 455Q164 476 208 485T295 495Q363 495 403 470T459 398T464 290L423 33Q421 13 410 3T379 -7Q361 -7 353 5T347 39L360 120L368 110Q355 70 329 44T268 4T199 -9Z" />
<glyph unicode="b" glyph-name="b" horiz-adv-x="583" d="M295 -9Q237 -9 191 20T128 110L136 122L123 34Q120 14 109 4T78 -7Q59 -7 50 5T44 41L144 671Q147 692 159 702T190 712Q209 712 218 700T224 664L179 383H168Q194 435 241 465T351 495Q408 495 450 470T516
398T539 287Q539 207 511 140T428 32T295 -9ZM285 56Q341 56 379 87T437 170T457 284Q457 356 422 393T326 430Q271 430 233 399T174 317T154 202Q154 131 189 94T285 56Z" />
<glyph unicode="c" glyph-name="c" horiz-adv-x="463" d="M258 -9Q186 -9 139 18T69 94T45 207Q45 261 60 312T107 405T188 470T305 495Q343 495 378 485T440 457Q454 449 460 438T464 416T456 398T439 389T418 395Q393 413 366 421T308 429Q259 429 225 410T170
359T138 288T128 208Q128 140 160 99T268 57Q292 57 318 64T370 89Q380 96 390 95T406 86T415 70T414 50T398 32Q371 13 332 2T258 -9Z" />
<glyph unicode="d" glyph-name="d" horiz-adv-x="583" d="M231 -9Q175 -9 133 16T68 89T44 199Q44 280 72 347T155 455T288 495Q346 495 392 466T455 376L448 377L495 673Q498 693 509 702T541 712Q560 712 569 700T574 665L474 34Q471 14 460 4T428 -7Q409 -7
401 6T396 42L408 117L415 103Q389 52 342 22T231 -9ZM257 56Q313 56 351 87T409 170T429 284Q429 356 394 393T298 430Q243 430 205 399T146 317T126 202Q126 131 161 94T257 56Z" />
<glyph unicode="e" glyph-name="e" horiz-adv-x="532" d="M270 -9Q201 -9 150 17T72 91T44 206Q44 285 76 350T166 455T304 495Q361 495 399 475T461 421T491 344T493 254Q491 237 484 232T462 226H107L115 279H443L425 266Q432 313 422 351T383 412T303 435Q249
435 213 411T157 348T129 269L125 245Q111 160 151 108T274 56Q310 56 344 65T408 94Q422 103 432 103T449 96T457 80T455 60T438 40Q404 16 358 4T270 -9Z" />
<glyph unicode="f" glyph-name="f" horiz-adv-x="333" d="M103 -7Q84 -7 76 5T70 41L131 423H71Q55 423 47 429T39 448Q39 466 49 476T78 486H152L139 475L146 524Q159 605 210 652T351 705L382 707Q396 708 403 703T414 688T415 669T406 652T388 644L358 642Q300
638 268 609T227 522L220 478L213 486H326Q342 486 350 480T358 462Q358 443 348 433T319 423H212L150 33Q143 -7 103 -7Z" />
<glyph unicode="g" glyph-name="g" horiz-adv-x="586" d="M248 -189Q190 -189 140 -173T49 -131Q38 -124 35 -114T34 -95T44 -78T61 -70T84 -75Q119 -98 156 -111T239 -124Q303 -124 343 -92T394 9L413 124L421 123Q396 71 349 41T238 11Q180 11 137 35T69 105T44
210Q44 266 60 317T109 409T186 472T290 495Q350 495 396 466T459 376L449 363L463 454Q467 474 478 483T510 493Q528 493 536 481T542 446L473 13Q457 -87 401 -138T248 -189ZM259 77Q316 77 354 107T413 187T433 294Q433 358 398 394T300 430Q244 430 205 400T146
320T126 214Q126 148 161 113T259 77Z" />
<glyph unicode="h" glyph-name="h" horiz-adv-x="568" d="M77 -7Q58 -7 49 6T44 42L143 671Q147 692 158 702T190 712Q209 712 218 700T223 665L177 376H166Q191 433 239 464T355 495Q409 495 445 474T497 408T502 294L462 34Q459 14 447 4T415 -7Q396 -7 387
5T381 41L421 294Q433 362 410 395T331 429Q258 429 215 384T160 264L124 34Q118 -7 77 -7Z" />
<glyph unicode="i" glyph-name="i" horiz-adv-x="232" d="M76 -7Q57 -7 49 5T43 41L109 453Q112 473 123 483T155 493Q174 493 183 481T188 446L123 33Q120 13 109 3T76 -7ZM175 603Q151 603 139 615T129 648Q130 674 146 688T190 702Q214 702 226 691T236 657Q234
631 218 617T175 603Z" />
<glyph unicode="j" glyph-name="j" horiz-adv-x="236" d="M-83 -191Q-97 -191 -105 -185T-116 -170T-117 -151T-107 -135T-87 -127Q-35 -126 -3 -100T38 -15L112 453Q116 473 127 483T158 493Q177 493 186 481T192 446L119 -10Q110 -72 85 -111T19 -169T-83 -191ZM175
603Q152 603 140 615T129 648Q131 674 147 688T191 702Q215 702 227 691T237 657Q235 631 219 617T175 603Z" />
<glyph unicode="k" glyph-name="k" horiz-adv-x="500" d="M77 -7Q58 -7 49 5T44 40L144 673Q147 693 158 702T190 712Q209 712 218 700T223 664L161 270H163L403 471Q416 482 426 487T450 493Q466 493 474 484T480 461T465 435L217 225L220 272L425 52Q437 39
437 26T427 3T402 -7Q386 -7 376 0T351 24L157 230H155L123 32Q118 -7 77 -7Z" />
<glyph unicode="l" glyph-name="l" horiz-adv-x="296" d="M186 -9Q115 -9 82 33T62 159L144 672Q147 692 158 702T190 712Q209 712 218 700T223 664L143 159Q134 106 151 83T208 60Q222 60 229 61T242 63Q250 63 254 58T258 39Q258 20 249 10T226 -5Q218 -6 207
-7T186 -9Z" />
<glyph unicode="m" glyph-name="m" horiz-adv-x="856" d="M78 -7Q59 -7 51 5T45 40L111 454Q115 474 126 483T156 493Q175 493 183 481T189 447L176 363L167 375Q194 434 239 464T341 495Q399 495 435 464T480 372L468 375Q492 432 539 463T650 495Q701 495 736
474T785 407T788 294L747 32Q745 13 733 3T701 -7Q682 -7 673 5T667 40L707 298Q717 363 697 396T626 429Q565 429 525 385T473 264L436 32Q434 13 422 3T390 -7Q370 -7 362 5T356 40L397 298Q407 363 387 396T316 429Q255 429 215 385T162 264L126 32Q120 -7 78
-7Z" />
<glyph unicode="n" glyph-name="n" horiz-adv-x="568" d="M77 -6Q58 -6 50 7T44 42L109 453Q113 473 124 483T156 493Q174 493 182 482T187 448L174 364L166 376Q191 433 239 464T355 495Q409 495 445 474T497 408T502 294L461 33Q459 13 447 4T415 -6Q396 -6
387 6T381 41L421 294Q433 362 410 395T331 429Q258 429 215 384T160 264L124 34Q118 -6 77 -6Z" />
<glyph unicode="o" glyph-name="o" horiz-adv-x="556" d="M255 -9Q190 -9 143 17T70 91T44 205Q44 267 62 319T115 412T195 473T301 495Q366 495 413 469T486 396T511 281Q511 219 493 167T441 75T360 13T255 -9ZM258 56Q313 56 351 87T409 170T429 284Q429 356
395 393T298 430Q243 430 205 399T146 317T126 202Q126 131 161 94T258 56Z" />
<glyph unicode="p" glyph-name="p" horiz-adv-x="583" d="M48 -187Q29 -187 20 -175T15 -140L109 452Q112 473 123 483T155 493Q174 493 182 481T187 446L175 370L168 384Q195 436 242 465T351 495Q408 495 450 470T516 398T539 287Q539 207 511 140T428 32T295
-9Q237 -9 191 20T128 110H136L94 -148Q92 -168 81 -177T48 -187ZM285 56Q341 56 379 87T437 170T457 284Q457 356 422 393T326 430Q271 430 233 399T174 317T154 202Q154 131 189 94T285 56Z" />
<glyph unicode="q" glyph-name="q" horiz-adv-x="583" d="M399 -187Q380 -187 372 -175T366 -140L404 103H415Q389 52 342 22T232 -9Q175 -9 133 16T68 89T44 199Q44 280 72 347T156 455T289 495Q347 495 392 466T455 376L447 364L461 453Q465 474 475 483T506
493Q525 493 534 481T540 446L446 -146Q443 -166 431 -176T399 -187ZM257 56Q313 56 351 87T409 170T429 284Q429 356 394 393T298 430Q243 430 205 399T146 317T126 202Q126 131 161 94T257 56Z" />
<glyph unicode="r" glyph-name="r" horiz-adv-x="358" d="M77 -7Q58 -7 50 5T44 40L109 454Q113 474 124 483T155 493Q173 493 182 481T188 447L176 370H165Q186 430 235 462T347 496Q369 497 377 491T385 468Q385 447 375 438T343 425L323 424Q243 417 208 376T162
268L124 32Q122 13 110 3T77 -7Z" />
<glyph unicode="s" glyph-name="s" horiz-adv-x="481" d="M223 -9Q175 -9 132 2T56 33Q44 40 40 50T36 71T44 88T61 96T85 90Q117 71 152 62T224 53Q278 53 308 74T339 135Q339 160 323 176T274 200L180 223Q130 235 102 266T73 344Q73 387 97 421T166 475T272
495Q312 495 353 484T421 451Q433 442 437 432T440 412T431 396T414 390T390 397Q365 416 334 424T269 433Q213 433 181 410T149 348Q149 324 164 307T209 282L304 259Q357 246 386 217T416 140Q416 70 363 31T223 -9Z" />
<glyph unicode="t" glyph-name="t" horiz-adv-x="350" d="M238 -9Q181 -9 145 13T94 74T87 167L128 423H66Q49 423 40 430T30 450Q30 468 42 477T73 486H138L156 604Q160 623 171 632T201 642Q221 642 230 630T236 596L219 486H339Q357 486 366 480T375 460Q375
443 365 433T335 423H208L169 175Q160 114 182 87T251 60Q272 60 284 64T304 68Q314 68 319 63T324 43Q324 23 318 14T298 0Q287 -4 270 -6T238 -9Z" />
<glyph unicode="u" glyph-name="u" horiz-adv-x="561" d="M211 -9Q159 -9 123 13T71 79T66 193L107 455Q111 475 122 484T152 493Q172 493 181 482T187 448L147 193Q136 125 158 92T235 58Q305 58 347 103T401 223L437 455Q441 475 452 484T482 493Q503 493 512
482T518 449L452 32Q446 -7 408 -7Q389 -7 380 4T374 37L387 124L396 112Q371 54 323 23T211 -9Z" />
<glyph unicode="v" glyph-name="v" horiz-adv-x="515" d="M221 -7Q200 -7 189 3T171 35L62 435Q58 452 61 465T74 485T100 493Q117 493 126 485T140 456L239 60H212L444 465Q453 480 462 486T488 493Q504 493 513 486T523 466T515 439L272 26Q262 9 250 1T221 -7Z" />
<glyph unicode="w" glyph-name="w" horiz-adv-x="841" d="M205 -7Q188 -7 176 3T159 34L75 434Q71 452 74 465T87 485T111 493Q129 493 137 485T148 456L224 60H199L410 465Q418 480 429 486T455 493Q470 493 481 485T496 458L574 60H551L758 463Q767 480 777
486T803 493Q819 493 827 486T836 467T830 441L611 26Q602 10 589 2T559 -7Q542 -7 530 3T512 34L432 423H465L258 27Q249 10 236 2T205 -7Z" />
<glyph unicode="x" glyph-name="x" horiz-adv-x="525" d="M45 -7Q28 -7 19 1T10 23T21 47L232 268L231 230L99 435Q89 452 90 465T102 485T125 493Q138 493 148 487T168 467L281 289H259L427 471Q438 483 447 488T471 493Q488 493 497 485T506 464T495 440L299
232L298 269L439 52Q451 36 449 23T436 1T413 -7Q400 -7 389 0T370 19L248 211L273 209L88 15Q77 4 68 -1T45 -7Z" />
<glyph unicode="y" glyph-name="y" horiz-adv-x="514" d="M119 -187Q103 -187 95 -179T86 -159T94 -132L187 25L182 -10L62 436Q57 453 60 466T73 486T99 493Q117 493 125 485T139 456L238 59H210L443 464Q452 479 462 486T487 493Q503 493 512 486T523 466T515
438L163 -157Q155 -172 145 -179T119 -187Z" />
<glyph unicode="z" glyph-name="z" horiz-adv-x="463" d="M55 0Q42 0 34 5T21 20T20 39T32 61L374 444L377 424H115Q99 424 91 431T82 450Q82 467 92 476T119 486H423Q436 486 445 481T457 466T457 446T442 422L101 40L98 63H373Q407 63 407 37Q407 20 397 10T370 0H55Z" />
<glyph unicode="{" glyph-name="braceleft" horiz-adv-x="352" d="M202 -180Q161 -180 136 -168T101 -133T96 -78L131 149Q139 196 124 211T71 229Q60 230 53 238T46 257Q46 273 55 284T77 296Q119 297 139 314T167 376L203 603Q212 653 240 679T316 705H383Q402
705 410 697T418 674Q418 659 408 650T383 641H333Q312 641 300 630T283 596L247 368Q242 332 225 308T185 273T141 261V265Q162 265 180 253T209 218T213 157L178 -72Q174 -95 182 -105T213 -116H256Q270 -116 279 -124T288 -145Q288 -162 280 -171T253 -180H202Z"
/>
<glyph unicode="|" glyph-name="bar" horiz-adv-x="265" d="M64 -187Q45 -187 37 -175T31 -139L160 672Q163 693 174 702T206 712Q225 712 234 700T239 664L111 -147Q105 -187 64 -187Z" />
<glyph unicode="}" glyph-name="braceright" horiz-adv-x="352" d="M-24 -180Q-43 -180 -51 -172T-60 -149Q-60 -133 -50 -125T-24 -116H26Q47 -116 59 -105T75 -71L111 157Q117 194 134 217T174 252T217 264V260Q197 260 178 272T150 308T145 368L180 597Q184
620 176 630T145 641H102Q89 641 80 649T70 670Q70 688 78 696T106 705H156Q198 705 223 693T258 658T263 603L227 376Q220 329 235 314T287 296Q300 295 306 288T312 268Q312 252 304 241T281 229Q239 229 219 212T191 149L155 -78Q147 -127 119 -153T42 -180H-24Z"
/>
<glyph unicode="~" glyph-name="asciitilde" horiz-adv-x="600" d="M420 217Q385 217 354 231T295 260Q268 276 245 286T198 297Q170 297 151 283T117 249Q109 238 98 237T77 240T64 256T70 281Q94 320 124 339T194 358Q229 358 261 344T322 313Q349 299 371 288T415
277Q445 277 464 291T497 325Q505 336 516 337T537 334T549 318T544 293Q519 255 489 236T420 217Z" />
<glyph unicode="&#xa0;" glyph-name="uni00A0" horiz-adv-x="258" />
<glyph unicode="&#xa1;" glyph-name="exclamdown" horiz-adv-x="228" d="M50 -187Q26 -187 14 -172T8 -131L94 283Q97 295 104 302T123 309Q136 309 142 302T147 278L101 -138Q99 -162 86 -174T50 -187ZM146 380Q122 380 107 396T91 435Q91 460 106 475T146 490Q172
490 186 475T200 435Q200 412 186 396T146 380Z" />
<glyph unicode="&#xa2;" glyph-name="cent" horiz-adv-x="600" d="M255 -122Q241 -122 232 -113T226 -84L242 16L252 0Q197 10 161 38T108 110T90 207Q90 258 104 306T147 395T222 461T332 491L312 464L330 582Q333 597 342 605T367 613Q381 613 391 604T398 575L381
467L370 492Q408 490 443 478T502 447Q513 440 516 430T517 410T507 395T489 389T466 395Q443 411 417 418T358 426Q308 426 273 407T216 357T184 286T173 208Q173 143 206 102T319 61Q343 61 370 68T422 93Q434 100 443 99T459 90T468 73T466 53T450 37Q414 12
370 2T291 -4L309 13L293 -91Q291 -106 281 -114T255 -122Z" />
<glyph unicode="&#xa3;" glyph-name="sterling" horiz-adv-x="600" d="M50 0Q29 0 19 9T8 32Q8 51 20 60T52 70H142L115 49L162 341L177 323H91Q72 323 65 330T57 350Q57 364 68 374T95 384H178L164 358L189 510Q200 578 228 623T305 691T424 714Q476 714 523
698T603 650Q615 641 617 630T617 608T605 592T585 585T563 595Q533 623 499 633T425 644Q359 644 320 611T271 514L247 364L238 384H398Q417 384 424 376T432 357Q432 342 421 333T395 323H241L201 70H487Q508 70 517 61T527 39Q527 22 515 11T483 0H50Z" />
<glyph unicode="&#xa4;" glyph-name="currency" horiz-adv-x="600" d="M51 -11Q42 -2 42 11T51 33L110 93Q87 125 74 164T60 245Q60 288 73 327T110 397L51 458Q42 467 42 479T51 501Q60 510 72 510T95 499L153 440Q183 465 221 479T301 493Q343 493 380 480T448
442L503 499Q513 510 526 510T549 501Q559 492 559 479T548 456L491 398Q515 366 528 327T542 245Q542 202 529 163T490 92L548 33Q558 23 558 11T548 -11Q540 -19 527 -19T505 -9L448 49Q418 25 381 11T301 -3Q259 -3 221 11T152 49L94 -10Q85 -19 73 -19T51 -11ZM301
67Q347 67 385 91T445 155T467 245Q467 294 445 334T385 399T301 423Q255 423 217 399T156 335T133 245Q133 196 155 156T216 91T301 67Z" />
<glyph unicode="&#xa5;" glyph-name="yen" horiz-adv-x="600" d="M261 -7Q241 -7 232 5T226 41L247 175H93Q76 175 67 182T58 203Q58 217 68 226T93 235H257L272 328H118Q100 328 92 335T83 356Q83 370 93 379T118 388H256L254 374L96 654Q88 669 90 682T102 703T128
712Q143 712 151 706T167 682L329 390H308L567 688Q577 701 586 706T609 712Q624 712 633 703T644 681T634 654L389 374L391 388H518Q536 388 544 381T553 360Q553 346 543 337T518 328H354L340 235H494Q512 235 520 228T529 207Q529 193 519 184T494 175H330L307
33Q301 -7 261 -7Z" />
<glyph unicode="&#xa6;" glyph-name="brokenbar" horiz-adv-x="265" d="M152 365Q133 365 124 377T119 413L160 672Q164 693 175 702T207 712Q226 712 235 700T240 664L199 405Q192 365 152 365ZM65 -187Q46 -187 37 -175T32 -139L73 120Q77 141 88 150T120 160Q139
160 148 148T153 113L112 -147Q106 -187 65 -187Z" />
<glyph unicode="&#xa7;" glyph-name="section" horiz-adv-x="545" d="M203 -189Q146 -189 99 -176T18 -139Q5 -131 1 -121T-1 -101T9 -85T27 -78T51 -85Q81 -106 118 -116T201 -127Q246 -127 278 -111T327 -68T345 -5Q345 34 328 56T270 103L170 163Q133 186 108
210T69 263T56 320Q56 364 79 403T144 470L141 458Q135 473 131 489T127 526Q127 583 157 625T238 690T348 714Q397 714 439 703T520 664Q533 656 537 646T538 626T528 611T509 604T486 612Q459 631 423 641T350 652Q306 652 274 636T224 593T207 530Q207 491 224
468T282 419L379 362Q418 339 444 314T482 262T495 205Q495 161 472 122T406 55L408 69Q416 55 420 38T424 0Q424 -57 394 -99T314 -165T203 -189ZM130 332Q130 300 152 274T217 221L305 168Q334 150 353 133T385 97L374 99Q397 120 409 145T421 193Q421 225 399
251T332 304L247 354Q219 371 199 388T167 426L179 428Q154 407 142 382T130 332Z" />
<glyph unicode="&#xa8;" glyph-name="dieresis" horiz-adv-x="467" d="M379 606Q360 606 350 615T339 643Q339 669 353 684T393 699Q413 699 423 689T433 662Q433 636 419 621T379 606ZM205 606Q185 606 175 615T164 643Q164 669 178 684T218 699Q238 699 248
689T259 662Q259 636 245 621T205 606Z" />
<glyph unicode="&#xa9;" glyph-name="copyright" horiz-adv-x="815" d="M425 -9Q349 -9 283 18T168 95T91 211T63 353Q63 430 90 495T167 610T282 686T425 714Q502 714 567 687T682 610T758 496T786 353Q786 277 759 211T682 96T568 19T425 -9ZM425 35Q492 35
549 59T649 126T716 227T740 353Q740 421 716 478T650 579T550 646T425 670Q357 670 300 646T200 579T133 479T109 353Q109 285 133 228T199 127T299 59T425 35ZM438 137Q341 137 286 197T230 356Q230 454 285 511T438 568Q472 568 506 558T566 526Q575 520 578
512T579 495T571 480T555 473T535 479Q511 496 488 502T442 509Q376 509 339 469T302 355Q302 282 339 240T442 197Q465 197 488 203T537 228Q550 237 560 234T576 220T580 199T567 180Q541 159 507 148T438 137Z" />
<glyph unicode="&#xaa;" glyph-name="ordfeminine" horiz-adv-x="327" d="M168 411Q126 411 98 437T69 501Q69 545 110 566T239 587H304L298 551H246Q180 551 153 540T126 503Q126 481 141 467T181 453Q204 453 225 463T261 492T280 534L291 603Q296 637 277 653T223
669Q202 669 182 664T143 650Q131 645 123 648T111 659T111 677T127 691Q148 702 173 708T227 714Q269 714 297 699T338 655T345 588L320 437Q316 411 291 411Q277 411 271 419T267 440L272 470H269Q253 442 228 427T168 411Z" />
<glyph unicode="&#xab;" glyph-name="guillemotleft" horiz-adv-x="441" d="M163 91Q149 85 136 90T116 111L63 238Q58 250 59 264T70 293L176 431Q184 441 195 443T218 441Q232 434 233 420T222 386L135 262L179 135Q184 119 180 108T163 91ZM344 91Q330 85 317
90T297 111L244 238Q239 250 240 264T251 293L357 431Q365 441 376 443T399 441Q413 434 414 420T403 386L316 262L360 135Q365 119 361 108T344 91Z" />
<glyph unicode="&#xac;" glyph-name="logicalnot" horiz-adv-x="600" d="M496 142Q480 142 474 152T470 181L498 358H105Q90 358 81 364T72 383Q72 400 82 410T109 420H521Q544 420 555 406T564 369L532 172Q528 142 496 142Z" />
<glyph unicode="&#xad;" glyph-name="uni00AD" horiz-adv-x="424" d="M104 233Q86 233 78 240T69 259Q69 276 78 288T107 300H329Q347 300 355 293T364 273Q364 256 354 245T326 233H104Z" />
<glyph unicode="&#xae;" glyph-name="registered" horiz-adv-x="815" d="M425 -9Q349 -9 283 18T168 95T91 211T63 353Q63 430 90 495T167 610T282 686T425 714Q502 714 567 687T682 610T758 496T786 353Q786 277 759 211T682 96T568 19T425 -9ZM425 35Q492 35
549 59T649 126T716 227T740 353Q740 421 716 478T650 579T550 646T425 670Q357 670 300 646T200 579T133 479T109 353Q109 285 133 228T199 127T299 59T425 35ZM314 136Q281 136 281 171V524Q281 543 291 553T321 564H452Q520 564 556 532T593 442Q593 384 557
354T454 323L466 333Q497 333 517 320T550 271L585 179Q592 159 582 148T554 136Q542 136 534 143T523 162L481 271Q472 297 454 305T409 314H334L347 324V171Q347 136 314 136ZM347 368H444Q486 368 507 385T528 439Q528 476 508 493T444 510H347V368Z" />
<glyph unicode="&#xaf;" glyph-name="overscore" horiz-adv-x="510" d="M195 625Q165 625 165 648Q165 663 174 671T198 680H445Q475 680 475 657Q475 643 467 634T442 625H195Z" />
<glyph unicode="&#xb0;" glyph-name="degree" horiz-adv-x="371" d="M236 415Q194 415 161 434T108 487T88 562Q88 604 107 637T160 690T237 710Q279 710 312 691T364 639T384 562Q384 520 365 487T312 434T236 415ZM236 469Q276 469 301 495T326 562Q326 603
301 629T236 655Q198 655 173 629T147 562Q147 522 172 496T236 469Z" />
<glyph unicode="&#xb1;" glyph-name="plusminus" horiz-adv-x="600" d="M283 120Q267 120 260 130T255 159L277 297H96Q81 297 72 304T63 323Q63 340 73 349T100 359H288L309 504Q312 519 320 527T346 536Q362 536 369 526T373 498L352 359H531Q548 359 556 353T565
334Q565 317 555 307T528 297H341L319 153Q316 138 308 129T283 120ZM49 0Q33 0 24 6T15 25Q15 43 25 52T53 62H484Q501 62 509 56T518 37Q518 20 508 10T481 0H49Z" />
<glyph unicode="&#xb2;" glyph-name="uni00B2" horiz-adv-x="380" d="M93 282Q77 282 69 289T61 309Q61 319 66 327T80 343L230 479Q262 509 282 537T304 596Q305 622 288 636T238 650Q214 650 192 643T147 623Q134 616 124 619T109 633T107 654T124 673Q153 691
186 700T253 709Q292 709 320 695T363 658T377 604Q376 557 349 520T272 441L136 320V341H320Q352 341 352 316Q352 300 343 291T317 282H93Z" />
<glyph unicode="&#xb3;" glyph-name="uni00B3" horiz-adv-x="380" d="M202 278Q168 278 132 287T68 316Q55 324 53 335T57 356T74 369T99 363Q121 348 147 343T202 337Q237 337 262 355T288 409Q289 437 270 451T214 466H166Q151 466 143 472T134 491Q134 506
143 515T170 525H220Q258 525 284 543T311 596Q312 622 294 636T242 650Q212 650 188 642T145 621Q132 614 122 617T108 631T106 652T122 671Q148 687 180 698T252 709Q312 709 346 680T380 607Q379 565 350 534T275 494V502Q315 493 335 467T356 405Q355 368 335
340T280 295T202 278Z" />
<glyph unicode="&#xb4;" glyph-name="acute" horiz-adv-x="354" d="M198 555Q189 545 179 544T162 548T152 562T158 584L265 745Q275 760 286 763T308 764T325 753T332 733T323 710L198 555Z" />
<glyph unicode="&#xb5;" glyph-name="uni00B5" horiz-adv-x="600" d="M66 -187Q47 -187 39 -175T33 -140L128 454Q132 475 143 484T174 493Q193 493 202 481T208 447L168 193Q157 125 179 92T256 58Q326 58 368 103T422 223L459 454Q462 474 473 483T505 493Q524
493 532 481T538 447L473 32Q467 -7 428 -7Q410 -7 401 4T394 31L406 112H414Q393 55 351 23T250 -9Q208 -9 178 7T133 56L139 58L112 -147Q110 -167 99 -177T66 -187Z" />
<glyph unicode="&#xb6;" glyph-name="paragraph" horiz-adv-x="588" d="M208 -187Q192 -187 186 -177T181 -149L253 310Q201 310 163 333T104 394T84 481Q84 548 112 598T191 676T309 705H529Q550 705 560 694T567 660L438 -155Q433 -187 400 -187Q385 -187 378
-177T374 -149L499 643H371L245 -155Q240 -187 208 -187Z" />
<glyph unicode="&#xb7;" glyph-name="middot" horiz-adv-x="228" d="M119 211Q94 211 79 226T64 266Q64 290 79 305T119 321Q144 321 158 306T173 266Q173 242 159 227T119 211Z" />
<glyph unicode="&#xb8;" glyph-name="cedilla" horiz-adv-x="399" d="M124 -192Q106 -192 89 -190T55 -182Q43 -178 39 -169T38 -151T49 -137T70 -136Q81 -141 95 -143T125 -145Q153 -145 170 -135T187 -106Q187 -94 179 -87T152 -80Q145 -80 136 -81T117 -85Q109
-87 104 -87T94 -83Q91 -79 91 -75T93 -62L119 20H170L145 -55L121 -49Q134 -46 145 -44T167 -42Q201 -42 222 -58T243 -105Q243 -144 209 -168T124 -192Z" />
<glyph unicode="&#xb9;" glyph-name="uni00B9" horiz-adv-x="380" d="M125 282Q94 282 94 308Q94 323 103 332T129 341H197L245 646L289 647L187 589Q172 581 160 584T142 599T140 622T160 644L252 695Q260 700 270 703T291 707Q305 707 310 701T317 687T317 672L264
341H310Q342 341 342 316Q342 302 333 292T307 282H125Z" />
<glyph unicode="&#xba;" glyph-name="ordmasculine" horiz-adv-x="339" d="M214 412Q173 412 142 429T92 477T74 551Q74 601 95 637T150 694T226 714Q267 714 298 697T348 649T366 575Q366 525 346 488T291 432T214 412ZM215 457Q256 457 281 487T307 576Q307
620 285 644T225 668Q184 668 158 638T132 550Q132 506 154 482T215 457Z" />
<glyph unicode="&#xbb;" glyph-name="guillemotright" horiz-adv-x="441" d="M48 90Q35 97 34 111T45 145L132 269L88 397Q83 413 87 424T103 440Q118 446 131 441T151 421L204 294Q209 282 208 267T196 239L91 101Q83 90 72 88T48 90ZM229 90Q216 97 215 111T226
145L313 269L269 397Q264 413 268 424T284 440Q299 446 312 441T332 421L385 294Q390 282 389 267T377 239L272 101Q264 90 253 88T229 90Z" />
<glyph unicode="&#xbc;" glyph-name="onequarter" horiz-adv-x="893" d="M125 282Q94 282 94 308Q94 323 103 332T129 341H197L245 646L289 647L187 589Q172 581 160 584T142 599T140 622T160 644L252 695Q260 700 270 703T291 707Q305 707 310 701T317 687T317
672L264 341H310Q342 341 342 316Q342 302 333 292T307 282H125ZM264 -2Q256 -13 246 -16T227 -17T213 -7T207 10T216 31L713 707Q721 718 730 721T749 723T763 713T769 695T760 674L264 -2ZM736 -3Q720 -3 712 4T707 29L716 83H562Q547 83 536 89T525 110Q525
119 529 127T540 143L758 402Q766 412 776 419T803 426Q820 426 827 417T831 391L792 142H823Q834 142 842 136T850 117Q850 104 841 94T817 83H783L774 27Q772 12 762 5T736 -3ZM725 142L757 346H777L591 125L590 142H725Z" />
<glyph unicode="&#xbd;" glyph-name="onehalf" horiz-adv-x="937" d="M125 282Q94 282 94 308Q94 323 103 332T129 341H197L245 646L289 647L187 589Q172 581 160 584T142 599T140 622T160 644L252 695Q260 700 270 703T291 707Q305 707 310 701T317 687T317 672L264
341H310Q342 341 342 316Q342 302 333 292T307 282H125ZM264 -2Q256 -13 246 -16T227 -17T213 -7T207 10T216 31L713 707Q721 718 730 721T749 723T763 713T769 695T760 674L264 -2ZM605 0Q589 0 581 7T573 27Q573 37 578 45T592 61L742 197Q774 227 794 255T816
314Q817 340 800 354T750 368Q726 368 704 361T659 341Q646 334 636 337T621 351T619 372T636 391Q665 409 698 418T765 427Q804 427 832 413T875 376T889 322Q888 275 861 238T784 159L648 38V59H832Q864 59 864 34Q864 18 855 9T829 0H605Z" />
<glyph unicode="&#xbe;" glyph-name="threequarters" horiz-adv-x="893" d="M202 278Q168 278 132 287T68 316Q55 324 53 335T57 356T74 369T99 363Q121 348 147 343T202 337Q237 337 262 355T288 409Q289 437 270 451T214 466H166Q151 466 143 472T134 491Q134
506 143 515T170 525H220Q258 525 284 543T311 596Q312 622 294 636T242 650Q212 650 188 642T145 621Q132 614 122 617T108 631T106 652T122 671Q148 687 180 698T252 709Q312 709 346 680T380 607Q379 565 350 534T275 494V502Q315 493 335 467T356 405Q355 368
335 340T280 295T202 278ZM264 -2Q256 -13 246 -16T227 -17T213 -7T207 10T216 31L713 707Q721 718 730 721T749 723T763 713T769 695T760 674L264 -2ZM736 -3Q720 -3 712 4T707 29L716 83H562Q547 83 536 89T525 110Q525 119 529 127T540 143L758 402Q766 412
776 419T803 426Q820 426 827 417T831 391L792 142H823Q834 142 842 136T850 117Q850 104 841 94T817 83H783L774 27Q772 12 762 5T736 -3ZM725 142L757 346H777L591 125L590 142H725Z" />
<glyph unicode="&#xbf;" glyph-name="questiondown" horiz-adv-x="443" d="M150 -189Q98 -189 60 -170T0 -119T-22 -47Q-22 8 10 50T95 132Q132 159 155 183T192 233T212 285Q215 297 221 303T240 309Q254 309 261 301T265 277Q259 241 248 212T213 156T151 97Q110
65 86 35T62 -34Q62 -69 87 -92T160 -116Q209 -116 249 -104T325 -68Q341 -59 352 -60T371 -68T380 -86T377 -108T360 -128Q317 -158 263 -173T150 -189ZM266 380Q241 380 226 396T210 435Q210 460 225 475T266 490Q291 490 305 475T320 435Q320 412 306 396T266
380Z" />
<glyph unicode="&#xc0;" glyph-name="Agrave" horiz-adv-x="729" d="M40 -7Q25 -7 15 0T3 20T9 47L391 683Q400 698 411 705T439 712Q456 712 466 704T482 679L658 49Q664 30 661 18T649 -1T627 -7Q609 -7 599 3T583 32L539 197L571 180H145L186 196L82 19Q75
6 65 0T40 -7ZM427 609L208 235L186 249H552L529 234L429 609H427ZM413 771L322 891Q312 903 313 914T321 934T339 945T361 945T381 927L458 801Q465 790 462 780T451 765T432 760T413 771Z" />
<glyph unicode="&#xc1;" glyph-name="Aacute" horiz-adv-x="729" d="M40 -7Q25 -7 15 0T3 20T9 47L391 683Q400 698 411 705T439 712Q456 712 466 704T482 679L658 49Q664 30 661 18T649 -1T627 -7Q609 -7 599 3T583 32L539 197L571 180H145L186 196L82 19Q75
6 65 0T40 -7ZM427 609L208 235L186 249H552L529 234L429 609H427ZM485 769Q475 760 465 760T448 764T438 779T444 799L543 929Q552 942 564 945T586 945T603 934T610 915T599 892L485 769Z" />
<glyph unicode="&#xc2;" glyph-name="Acircumflex" horiz-adv-x="729" d="M40 -7Q25 -7 15 0T3 20T9 47L391 683Q400 698 411 705T439 712Q456 712 466 704T482 679L658 49Q664 30 661 18T649 -1T627 -7Q609 -7 599 3T583 32L539 197L571 180H145L186 196L82 19Q75
6 65 0T40 -7ZM427 609L208 235L186 249H552L529 234L429 609H427ZM344 767Q335 758 325 757T307 761T298 774T304 794L404 916Q416 931 429 939T461 947Q479 947 490 939T511 913L584 794Q592 782 589 773T576 759T556 757T536 771L455 884L344 767Z" />
<glyph unicode="&#xc3;" glyph-name="Atilde" horiz-adv-x="729" d="M40 -7Q25 -7 15 0T3 20T9 47L391 683Q400 698 411 705T439 712Q456 712 466 704T482 679L658 49Q664 30 661 18T649 -1T627 -7Q609 -7 599 3T583 32L539 197L571 180H145L186 196L82 19Q75
6 65 0T40 -7ZM427 609L208 235L186 249H552L529 234L429 609H427ZM262 781Q252 782 247 789T244 810Q260 866 291 892T366 919Q393 919 417 908T462 881T504 855T544 843Q569 843 587 858T615 905Q619 915 625 920T643 924Q654 923 659 916T661 894Q647 839 615
813T539 786Q512 786 488 797T443 823T402 850T362 862Q337 862 319 847T290 800Q287 790 281 785T262 781Z" />
<glyph unicode="&#xc4;" glyph-name="Adieresis" horiz-adv-x="729" d="M40 -7Q25 -7 15 0T3 20T9 47L391 683Q400 698 411 705T439 712Q456 712 466 704T482 679L658 49Q664 30 661 18T649 -1T627 -7Q609 -7 599 3T583 32L539 197L571 180H145L186 196L82 19Q75
6 65 0T40 -7ZM427 609L208 235L186 249H552L529 234L429 609H427ZM542 802Q523 802 512 812T501 839Q501 866 515 880T555 895Q575 895 585 886T596 858Q596 832 582 817T542 802ZM368 802Q349 802 339 812T328 839Q328 866 342 880T382 895Q401 895 411 886T422
858Q422 832 408 817T368 802Z" />
<glyph unicode="&#xc5;" glyph-name="Aring" horiz-adv-x="729" d="M40 -7Q25 -7 15 0T3 20T9 47L391 683Q400 698 411 705T439 712Q456 712 466 704T482 679L658 49Q664 30 661 18T649 -1T627 -7Q609 -7 599 3T583 32L539 197L571 180H145L186 196L82 19Q75 6
65 0T40 -7ZM427 609L208 235L186 249H552L529 234L429 609H427ZM464 758Q431 758 404 773T362 815T346 874Q346 907 361 932T404 973T464 989Q498 989 524 974T567 933T583 874Q583 842 567 816T525 774T464 758ZM464 801Q496 801 516 822T536 874Q536 904 516
925T464 946Q433 946 413 925T392 874Q392 843 412 822T464 801Z" />
<glyph unicode="&#xc6;" glyph-name="AE" horiz-adv-x="981" d="M7 -7Q-10 -7 -19 1T-28 22T-18 47L468 683Q477 695 488 700T515 705H970Q987 705 996 698T1006 678Q1006 657 995 647T966 636H542L566 665L582 370L554 392H899Q917 392 926 385T936 365Q936 344
925 334T895 323H558L583 345L599 41L570 69H870Q887 69 896 62T906 41Q906 22 895 11T865 0H566Q529 0 526 37L518 204L544 180H154L190 202L51 18Q41 4 31 -1T7 -7ZM494 608L209 229L203 249H534L516 227L496 608H494Z" />
<glyph unicode="&#xc7;" glyph-name="Ccedilla" horiz-adv-x="673" d="M382 -9Q292 -9 224 25T116 130T77 307Q77 394 102 468T174 597T289 683T441 714Q504 714 558 696T653 642Q665 632 668 620T667 597T655 578T635 570T612 578Q573 611 531 625T438 639Q353
639 292 596T198 479T165 309Q165 223 192 169T269 91T390 66Q436 66 476 79T556 124Q569 133 580 132T600 124T611 106T610 83T594 62Q548 26 494 9T382 -9ZM348 -192Q330 -192 313 -190T279 -182Q267 -178 263 -169T262 -151T273 -137T294 -136Q305 -141 319
-143T349 -145Q377 -145 394 -135T411 -106Q411 -94 403 -87T376 -80Q369 -80 360 -81T341 -85Q333 -87 328 -87T318 -83Q315 -79 315 -75T317 -62L343 20H394L369 -55L345 -49Q358 -46 369 -44T391 -42Q425 -42 446 -58T467 -105Q467 -144 433 -168T348 -192Z"
/>
<glyph unicode="&#xc8;" glyph-name="Egrave" horiz-adv-x="583" d="M98 0Q74 0 64 12T56 49L154 664Q157 685 169 695T202 705H571Q589 705 598 698T608 678Q608 657 597 647T567 636H230L191 392H501Q519 392 528 385T537 365Q537 344 526 334T497 323H180L139
69H470Q488 69 497 62T507 41Q507 21 496 11T466 0H98ZM372 771L281 891Q271 903 272 914T280 934T298 945T320 945T340 927L417 801Q424 790 421 780T410 765T391 760T372 771Z" />
<glyph unicode="&#xc9;" glyph-name="Eacute" horiz-adv-x="583" d="M98 0Q74 0 64 12T56 49L154 664Q157 685 169 695T202 705H571Q589 705 598 698T608 678Q608 657 597 647T567 636H230L191 392H501Q519 392 528 385T537 365Q537 344 526 334T497 323H180L139
69H470Q488 69 497 62T507 41Q507 21 496 11T466 0H98ZM444 769Q434 760 424 760T407 764T397 779T403 799L502 929Q511 942 523 945T545 945T562 934T569 915T558 892L444 769Z" />
<glyph unicode="&#xca;" glyph-name="Ecircumflex" horiz-adv-x="583" d="M98 0Q74 0 64 12T56 49L154 664Q157 685 169 695T202 705H571Q589 705 598 698T608 678Q608 657 597 647T567 636H230L191 392H501Q519 392 528 385T537 365Q537 344 526 334T497 323H180L139
69H470Q488 69 497 62T507 41Q507 21 496 11T466 0H98ZM303 767Q294 758 284 757T266 761T257 774T263 794L363 916Q375 931 388 939T420 947Q438 947 449 939T470 913L543 794Q551 782 548 773T535 759T515 757T495 771L414 884L303 767Z" />
<glyph unicode="&#xcb;" glyph-name="Edieresis" horiz-adv-x="583" d="M98 0Q74 0 64 12T56 49L154 664Q157 685 169 695T202 705H571Q589 705 598 698T608 678Q608 657 597 647T567 636H230L191 392H501Q519 392 528 385T537 365Q537 344 526 334T497 323H180L139
69H470Q488 69 497 62T507 41Q507 21 496 11T466 0H98ZM501 802Q482 802 471 812T460 839Q460 866 474 880T514 895Q534 895 544 886T555 858Q555 832 541 817T501 802ZM327 802Q308 802 298 812T287 839Q287 866 301 880T341 895Q360 895 370 886T381 858Q381
832 367 817T327 802Z" />
<glyph unicode="&#xcc;" glyph-name="Igrave" horiz-adv-x="257" d="M91 -7Q70 -7 61 6T55 43L155 670Q158 691 169 701T201 712Q222 712 231 700T236 662L136 35Q133 15 123 4T91 -7ZM176 771L85 891Q75 903 76 914T84 934T102 945T124 945T144 927L221 801Q228
790 225 780T214 765T195 760T176 771Z" />
<glyph unicode="&#xcd;" glyph-name="Iacute" horiz-adv-x="257" d="M91 -7Q70 -7 61 6T55 43L155 670Q158 691 169 701T201 712Q222 712 231 700T236 662L136 35Q133 15 123 4T91 -7ZM248 769Q238 760 228 760T211 764T201 779T207 799L306 929Q315 942 327 945T349
945T366 934T373 915T362 892L248 769Z" />
<glyph unicode="&#xce;" glyph-name="Icircumflex" horiz-adv-x="257" d="M91 -7Q70 -7 61 6T55 43L155 670Q158 691 169 701T201 712Q222 712 231 700T236 662L136 35Q133 15 123 4T91 -7ZM107 767Q98 758 88 757T70 761T61 774T67 794L167 916Q179 931 192 939T224
947Q242 947 253 939T274 913L347 794Q355 782 352 773T339 759T319 757T299 771L218 884L107 767Z" />
<glyph unicode="&#xcf;" glyph-name="Idieresis" horiz-adv-x="257" d="M91 -7Q70 -7 61 6T55 43L155 670Q158 691 169 701T201 712Q222 712 231 700T236 662L136 35Q133 15 123 4T91 -7ZM305 802Q286 802 275 812T264 839Q264 866 278 880T318 895Q338 895 348
886T359 858Q359 832 345 817T305 802ZM131 802Q112 802 102 812T91 839Q91 866 105 880T145 895Q164 895 174 886T185 858Q185 832 171 817T131 802Z" />
<glyph unicode="&#xd0;" glyph-name="Eth" horiz-adv-x="742" d="M98 0Q75 0 64 13T56 49L154 664Q157 685 169 695T202 705H368Q528 705 615 628T702 410Q702 325 678 251T605 121T481 32T302 0H98ZM142 70H304Q388 70 447 96T544 170T598 278T615 409Q615 519
553 577T367 635H232L142 70ZM45 326Q28 326 19 333T10 353Q10 371 20 380T49 390H356Q373 390 382 384T391 364Q391 346 381 336T352 326H45Z" />
<glyph unicode="&#xd1;" glyph-name="Ntilde" horiz-adv-x="739" d="M88 -7Q70 -7 61 5T55 39L156 676Q160 695 170 703T195 712Q211 712 219 706T236 685L574 100H553L644 674Q647 694 658 703T688 712Q706 712 714 700T719 666L618 30Q615 12 606 3T582 -7Q566
-7 557 0T538 21L200 605H221L130 31Q128 12 118 3T88 -7ZM265 781Q255 782 250 789T247 810Q263 866 294 892T369 919Q396 919 420 908T465 881T507 855T547 843Q572 843 590 858T618 905Q622 915 628 920T646 924Q657 923 662 916T664 894Q650 839 618 813T542
786Q515 786 491 797T446 823T405 850T365 862Q340 862 322 847T293 800Q290 790 284 785T265 781Z" />
<glyph unicode="&#xd2;" glyph-name="Ograve" horiz-adv-x="767" d="M368 -9Q280 -9 215 26T113 129T76 294Q76 383 100 459T169 593T281 682T434 714Q523 714 588 679T690 577T726 412Q726 322 702 246T633 112T521 23T368 -9ZM370 64Q457 64 517 109T608 233T639
411Q639 527 584 584T431 641Q345 641 285 596T194 472T163 295Q163 178 218 121T370 64ZM420 771L329 891Q319 903 320 914T328 934T346 945T368 945T388 927L465 801Q472 790 469 780T458 765T439 760T420 771Z" />
<glyph unicode="&#xd3;" glyph-name="Oacute" horiz-adv-x="767" d="M368 -9Q280 -9 215 26T113 129T76 294Q76 383 100 459T169 593T281 682T434 714Q523 714 588 679T690 577T726 412Q726 322 702 246T633 112T521 23T368 -9ZM370 64Q457 64 517 109T608 233T639
411Q639 527 584 584T431 641Q345 641 285 596T194 472T163 295Q163 178 218 121T370 64ZM492 769Q482 760 472 760T455 764T445 779T451 799L550 929Q559 942 571 945T593 945T610 934T617 915T606 892L492 769Z" />
<glyph unicode="&#xd4;" glyph-name="Ocircumflex" horiz-adv-x="767" d="M368 -9Q280 -9 215 26T113 129T76 294Q76 383 100 459T169 593T281 682T434 714Q523 714 588 679T690 577T726 412Q726 322 702 246T633 112T521 23T368 -9ZM370 64Q457 64 517 109T608
233T639 411Q639 527 584 584T431 641Q345 641 285 596T194 472T163 295Q163 178 218 121T370 64ZM351 767Q342 758 332 757T314 761T305 774T311 794L411 916Q423 931 436 939T468 947Q486 947 497 939T518 913L591 794Q599 782 596 773T583 759T563 757T543 771L462
884L351 767Z" />
<glyph unicode="&#xd5;" glyph-name="Otilde" horiz-adv-x="767" d="M368 -9Q280 -9 215 26T113 129T76 294Q76 383 100 459T169 593T281 682T434 714Q523 714 588 679T690 577T726 412Q726 322 702 246T633 112T521 23T368 -9ZM370 64Q457 64 517 109T608 233T639
411Q639 527 584 584T431 641Q345 641 285 596T194 472T163 295Q163 178 218 121T370 64ZM269 781Q259 782 254 789T251 810Q267 866 298 892T373 919Q400 919 424 908T469 881T511 855T551 843Q576 843 594 858T622 905Q626 915 632 920T650 924Q661 923 666 916T668
894Q654 839 622 813T546 786Q519 786 495 797T450 823T409 850T369 862Q344 862 326 847T297 800Q294 790 288 785T269 781Z" />
<glyph unicode="&#xd6;" glyph-name="Odieresis" horiz-adv-x="767" d="M368 -9Q280 -9 215 26T113 129T76 294Q76 383 100 459T169 593T281 682T434 714Q523 714 588 679T690 577T726 412Q726 322 702 246T633 112T521 23T368 -9ZM370 64Q457 64 517 109T608
233T639 411Q639 527 584 584T431 641Q345 641 285 596T194 472T163 295Q163 178 218 121T370 64ZM549 802Q530 802 519 812T508 839Q508 866 522 880T562 895Q582 895 592 886T603 858Q603 832 589 817T549 802ZM375 802Q356 802 346 812T335 839Q335 866 349
880T389 895Q408 895 418 886T429 858Q429 832 415 817T375 802Z" />
<glyph unicode="&#xd7;" glyph-name="multiply" horiz-adv-x="600" d="M118 67Q105 56 93 57T72 67T64 88T74 111L264 286L107 458Q98 468 98 477T102 495T116 508T135 511T155 499L310 329L498 501Q511 513 523 512T544 502T552 481T541 457L352 283L510 109Q518
100 519 90T515 72T501 60T482 57T462 69L306 240L118 67Z" />
<glyph unicode="&#xd8;" glyph-name="Oslash" horiz-adv-x="767" d="M368 -9Q280 -9 215 26T113 129T76 294Q76 383 100 459T169 593T281 682T434 714Q523 714 588 679T690 577T726 412Q726 322 702 246T633 112T521 23T368 -9ZM370 64Q457 64 517 109T608 233T639
411Q639 527 584 584T431 641Q345 641 285 596T194 472T163 295Q163 178 218 121T370 64ZM162 -20Q155 -30 146 -32T127 -32T112 -21T106 -4T114 17L169 91L196 128L556 614L583 651L638 724Q646 734 656 737T675 737T689 726T695 708T687 688L633 614L606 577L246
92L218 54L162 -20Z" />
<glyph unicode="&#xd9;" glyph-name="Ugrave" horiz-adv-x="728" d="M335 -9Q269 -9 218 10T134 67T90 163T90 297L150 673Q154 693 165 702T196 712Q216 712 225 700T231 665L172 290Q154 177 197 121T339 64Q438 64 494 114T568 273L632 673Q635 693 646 702T677
712Q697 712 706 700T712 665L650 269Q635 178 597 116T494 23T335 -9ZM411 771L320 891Q310 903 311 914T319 934T337 945T359 945T379 927L456 801Q463 790 460 780T449 765T430 760T411 771Z" />
<glyph unicode="&#xda;" glyph-name="Uacute" horiz-adv-x="728" d="M335 -9Q269 -9 218 10T134 67T90 163T90 297L150 673Q154 693 165 702T196 712Q216 712 225 700T231 665L172 290Q154 177 197 121T339 64Q438 64 494 114T568 273L632 673Q635 693 646 702T677
712Q697 712 706 700T712 665L650 269Q635 178 597 116T494 23T335 -9ZM483 769Q473 760 463 760T446 764T436 779T442 799L541 929Q550 942 562 945T584 945T601 934T608 915T597 892L483 769Z" />
<glyph unicode="&#xdb;" glyph-name="Ucircumflex" horiz-adv-x="728" d="M335 -9Q269 -9 218 10T134 67T90 163T90 297L150 673Q154 693 165 702T196 712Q216 712 225 700T231 665L172 290Q154 177 197 121T339 64Q438 64 494 114T568 273L632 673Q635 693 646
702T677 712Q697 712 706 700T712 665L650 269Q635 178 597 116T494 23T335 -9ZM342 767Q333 758 323 757T305 761T296 774T302 794L402 916Q414 931 427 939T459 947Q477 947 488 939T509 913L582 794Q590 782 587 773T574 759T554 757T534 771L453 884L342 767Z"
/>
<glyph unicode="&#xdc;" glyph-name="Udieresis" horiz-adv-x="728" d="M335 -9Q269 -9 218 10T134 67T90 163T90 297L150 673Q154 693 165 702T196 712Q216 712 225 700T231 665L172 290Q154 177 197 121T339 64Q438 64 494 114T568 273L632 673Q635 693 646
702T677 712Q697 712 706 700T712 665L650 269Q635 178 597 116T494 23T335 -9ZM540 802Q521 802 510 812T499 839Q499 866 513 880T553 895Q573 895 583 886T594 858Q594 832 580 817T540 802ZM366 802Q347 802 337 812T326 839Q326 866 340 880T380 895Q399 895
409 886T420 858Q420 832 406 817T366 802Z" />
<glyph unicode="&#xdd;" glyph-name="Yacute" horiz-adv-x="596" d="M258 -7Q239 -7 231 6T224 41L276 365L284 308L90 652Q82 668 83 681T94 703T120 712Q136 712 145 705T163 681L327 391H305L567 687Q579 701 589 706T613 712Q628 712 637 703T647 680T635
652L330 308L358 365L305 34Q299 -7 258 -7ZM409 769Q399 760 389 760T372 764T362 779T368 799L467 929Q476 942 488 945T510 945T527 934T534 915T523 892L409 769Z" />
<glyph unicode="&#xde;" glyph-name="Thorn" horiz-adv-x="634" d="M89 -7Q69 -7 60 6T55 42L154 668Q158 689 170 699T202 710Q222 710 231 699T238 670L223 578H395Q503 578 562 530T621 389Q621 281 554 218T357 154H156L136 34Q133 14 122 4T89 -7ZM166 223H363Q449
223 494 264T539 383Q539 449 501 479T388 510H212L166 223Z" />
<glyph unicode="&#xdf;" glyph-name="germandbls" horiz-adv-x="615" d="M378 -9Q332 -9 287 3T213 37Q201 45 197 55T195 75T204 93T221 101T244 94Q272 76 306 66T376 55Q431 55 460 75T490 135Q490 160 471 181T396 221Q329 244 302 273T275 344Q275 371 284
392T314 435T373 484Q405 508 423 530T441 585Q441 612 422 631T363 651Q292 651 251 610T196 491L123 32Q121 13 110 3T79 -7Q59 -7 50 5T44 39L114 483Q132 595 193 654T365 714Q413 714 447 698T501 654T520 594Q520 545 495 514T428 448Q403 429 387 415T361
386T352 353Q352 330 371 312T443 277Q503 256 535 226T567 143Q567 95 544 61T477 9T378 -9Z" />
<glyph unicode="&#xe0;" glyph-name="agrave" horiz-adv-x="530" d="M199 -9Q157 -9 121 10T62 62T40 137Q40 189 68 220T158 267T315 282H395L387 229H326Q249 229 205 221T141 194T122 142Q122 98 151 75T219 52Q256 52 287 68T341 115T370 190L389 312Q399
370 375 400T286 430Q249 430 216 423T150 397Q137 390 126 391T108 399T100 417T105 437T126 455Q164 476 208 485T295 495Q363 495 403 470T459 398T464 290L423 33Q421 13 410 3T379 -7Q361 -7 353 5T347 39L360 120L368 110Q355 70 329 44T268 4T199 -9ZM280
558L173 711Q164 725 165 736T174 754T193 764T216 761T236 740L326 584Q332 571 329 562T318 547T299 544T280 558Z" />
<glyph unicode="&#xe1;" glyph-name="aacute" horiz-adv-x="530" d="M199 -9Q157 -9 121 10T62 62T40 137Q40 189 68 220T158 267T315 282H395L387 229H326Q249 229 205 221T141 194T122 142Q122 98 151 75T219 52Q256 52 287 68T341 115T370 190L389 312Q399
370 375 400T286 430Q249 430 216 423T150 397Q137 390 126 391T108 399T100 417T105 437T126 455Q164 476 208 485T295 495Q363 495 403 470T459 398T464 290L423 33Q421 13 410 3T379 -7Q361 -7 353 5T347 39L360 120L368 110Q355 70 329 44T268 4T199 -9ZM348
555Q339 545 329 544T312 548T302 562T308 584L415 745Q425 760 436 763T458 764T475 753T482 733T473 710L348 555Z" />
<glyph unicode="&#xe2;" glyph-name="acircumflex" horiz-adv-x="530" d="M199 -9Q157 -9 121 10T62 62T40 137Q40 189 68 220T158 267T315 282H395L387 229H326Q249 229 205 221T141 194T122 142Q122 98 151 75T219 52Q256 52 287 68T341 115T370 190L389 312Q399
370 375 400T286 430Q249 430 216 423T150 397Q137 390 126 391T108 399T100 417T105 437T126 455Q164 476 208 485T295 495Q363 495 403 470T459 398T464 290L423 33Q421 13 410 3T379 -7Q361 -7 353 5T347 39L360 120L368 110Q355 70 329 44T268 4T199 -9ZM448
580Q454 568 450 559T437 546T418 544T403 557L331 699L225 556Q218 546 208 544T190 546T180 560T185 581L284 734Q295 751 307 758T336 766Q351 766 362 758T381 734L448 580Z" />
<glyph unicode="&#xe3;" glyph-name="atilde" horiz-adv-x="530" d="M199 -9Q157 -9 121 10T62 62T40 137Q40 189 68 220T158 267T315 282H395L387 229H326Q249 229 205 221T141 194T122 142Q122 98 151 75T219 52Q256 52 287 68T341 115T370 190L389 312Q399
370 375 400T286 430Q249 430 216 423T150 397Q137 390 126 391T108 399T100 417T105 437T126 455Q164 476 208 485T295 495Q363 495 403 470T459 398T464 290L423 33Q421 13 410 3T379 -7Q361 -7 353 5T347 39L360 120L368 110Q355 70 329 44T268 4T199 -9ZM164
588Q153 589 148 596T145 615Q151 642 162 663T187 698T219 719T257 726Q281 726 298 715T330 689T359 662T393 650Q415 650 431 666T457 712Q460 722 467 727T485 731Q496 730 501 723T504 704Q496 669 480 644T442 606T393 593Q368 593 350 604T318 631T289 657T256
669Q234 669 217 653T192 608Q189 597 182 592T164 588Z" />
<glyph unicode="&#xe4;" glyph-name="adieresis" horiz-adv-x="530" d="M199 -9Q157 -9 121 10T62 62T40 137Q40 189 68 220T158 267T315 282H395L387 229H326Q249 229 205 221T141 194T122 142Q122 98 151 75T219 52Q256 52 287 68T341 115T370 190L389 312Q399
370 375 400T286 430Q249 430 216 423T150 397Q137 390 126 391T108 399T100 417T105 437T126 455Q164 476 208 485T295 495Q363 495 403 470T459 398T464 290L423 33Q421 13 410 3T379 -7Q361 -7 353 5T347 39L360 120L368 110Q355 70 329 44T268 4T199 -9ZM412
606Q393 606 383 615T372 643Q372 669 386 684T426 699Q446 699 456 689T466 662Q466 636 452 621T412 606ZM238 606Q218 606 208 615T197 643Q197 669 211 684T251 699Q271 699 281 689T292 662Q292 636 278 621T238 606Z" />
<glyph unicode="&#xe5;" glyph-name="aring" horiz-adv-x="530" d="M199 -9Q157 -9 121 10T62 62T40 137Q40 189 68 220T158 267T315 282H395L387 229H326Q249 229 205 221T141 194T122 142Q122 98 151 75T219 52Q256 52 287 68T341 115T370 190L389 312Q399 370
375 400T286 430Q249 430 216 423T150 397Q137 390 126 391T108 399T100 417T105 437T126 455Q164 476 208 485T295 495Q363 495 403 470T459 398T464 290L423 33Q421 13 410 3T379 -7Q361 -7 353 5T347 39L360 120L368 110Q355 70 329 44T268 4T199 -9ZM334 547Q301
547 274 562T231 603T215 662Q215 695 231 721T274 762T334 778Q368 778 394 763T437 721T453 662Q453 630 437 604T395 562T334 547ZM334 590Q366 590 386 611T406 662Q406 693 386 713T334 734Q303 734 283 714T262 663Q262 632 282 611T334 590Z" />
<glyph unicode="&#xe6;" glyph-name="ae" horiz-adv-x="861" d="M210 -9Q166 -9 127 8T64 58T40 137Q40 189 68 220T158 267T315 282H395L387 228H326Q249 228 205 220T141 193T122 142Q122 99 151 76T219 53Q256 53 287 67T341 111T371 183L390 304Q400 367 375
398T286 430Q249 430 216 423T150 397Q137 390 126 391T108 399T100 417T105 437T126 455Q164 476 208 485T295 495Q365 495 406 464T457 374H426Q457 429 509 462T633 495Q692 495 731 475T792 420T821 343T822 259L820 248Q819 239 812 234T794 228H435L443 282H772L754
266Q761 313 751 351T712 412T631 435Q578 435 542 411T486 348T459 269L455 245Q441 159 480 108T602 56Q638 56 671 64T736 94Q749 103 759 103T777 96T785 80T783 60T766 40Q732 16 686 4T598 -9Q512 -9 458 31T389 144H415Q392 65 336 28T210 -9Z" />
<glyph unicode="&#xe7;" glyph-name="ccedilla" horiz-adv-x="463" d="M258 -9Q186 -9 139 18T69 94T45 207Q45 261 60 312T107 405T188 470T305 495Q343 495 378 485T440 457Q454 449 460 438T464 416T456 398T439 389T418 395Q393 413 366 421T308 429Q259 429
225 410T170 359T138 288T128 208Q128 140 160 99T268 57Q292 57 318 64T370 89Q380 96 390 95T406 86T415 70T414 50T398 32Q371 13 332 2T258 -9ZM221 -192Q203 -192 186 -190T152 -182Q140 -178 136 -169T135 -151T146 -137T167 -136Q178 -141 192 -143T222
-145Q250 -145 267 -135T284 -106Q284 -94 276 -87T249 -80Q242 -80 233 -81T214 -85Q206 -87 201 -87T191 -83Q188 -79 188 -75T190 -62L216 20H267L242 -55L218 -49Q231 -46 242 -44T264 -42Q298 -42 319 -58T340 -105Q340 -144 306 -168T221 -192Z" />
<glyph unicode="&#xe8;" glyph-name="egrave" horiz-adv-x="532" d="M270 -9Q201 -9 150 17T72 91T44 206Q44 285 76 350T166 455T304 495Q361 495 399 475T461 421T491 344T493 254Q491 237 484 232T462 226H107L115 279H443L425 266Q432 313 422 351T383 412T303
435Q249 435 213 411T157 348T129 269L125 245Q111 160 151 108T274 56Q310 56 344 65T408 94Q422 103 432 103T449 96T457 80T455 60T438 40Q404 16 358 4T270 -9ZM287 558L180 711Q171 725 172 736T181 754T200 764T223 761T243 740L333 584Q339 571 336 562T325
547T306 544T287 558Z" />
<glyph unicode="&#xe9;" glyph-name="eacute" horiz-adv-x="532" d="M270 -9Q201 -9 150 17T72 91T44 206Q44 285 76 350T166 455T304 495Q361 495 399 475T461 421T491 344T493 254Q491 237 484 232T462 226H107L115 279H443L425 266Q432 313 422 351T383 412T303
435Q249 435 213 411T157 348T129 269L125 245Q111 160 151 108T274 56Q310 56 344 65T408 94Q422 103 432 103T449 96T457 80T455 60T438 40Q404 16 358 4T270 -9ZM355 555Q346 545 336 544T319 548T309 562T315 584L422 745Q432 760 443 763T465 764T482 753T489
733T480 710L355 555Z" />
<glyph unicode="&#xea;" glyph-name="ecircumflex" horiz-adv-x="532" d="M270 -9Q201 -9 150 17T72 91T44 206Q44 285 76 350T166 455T304 495Q361 495 399 475T461 421T491 344T493 254Q491 237 484 232T462 226H107L115 279H443L425 266Q432 313 422 351T383
412T303 435Q249 435 213 411T157 348T129 269L125 245Q111 160 151 108T274 56Q310 56 344 65T408 94Q422 103 432 103T449 96T457 80T455 60T438 40Q404 16 358 4T270 -9ZM455 580Q461 568 457 559T444 546T425 544T410 557L338 699L232 556Q225 546 215 544T197
546T187 560T192 581L291 734Q302 751 314 758T343 766Q358 766 369 758T388 734L455 580Z" />
<glyph unicode="&#xeb;" glyph-name="edieresis" horiz-adv-x="532" d="M270 -9Q201 -9 150 17T72 91T44 206Q44 285 76 350T166 455T304 495Q361 495 399 475T461 421T491 344T493 254Q491 237 484 232T462 226H107L115 279H443L425 266Q432 313 422 351T383
412T303 435Q249 435 213 411T157 348T129 269L125 245Q111 160 151 108T274 56Q310 56 344 65T408 94Q422 103 432 103T449 96T457 80T455 60T438 40Q404 16 358 4T270 -9ZM419 606Q400 606 390 615T379 643Q379 669 393 684T433 699Q453 699 463 689T473 662Q473
636 459 621T419 606ZM245 606Q225 606 215 615T204 643Q204 669 218 684T258 699Q278 699 288 689T299 662Q299 636 285 621T245 606Z" />
<glyph unicode="&#xec;" glyph-name="igrave" horiz-adv-x="232" d="M76 -7Q57 -7 49 5T43 41L109 453Q112 473 123 483T155 493Q174 493 183 481T188 446L123 33Q120 13 109 3T76 -7ZM130 558L23 711Q14 725 15 736T24 754T43 764T66 761T86 740L176 584Q182
571 179 562T168 547T149 544T130 558Z" />
<glyph unicode="&#xed;" glyph-name="iacute" horiz-adv-x="232" d="M76 -7Q57 -7 49 5T43 41L109 453Q112 473 123 483T155 493Q174 493 183 481T188 446L123 33Q120 13 109 3T76 -7ZM198 555Q189 545 179 544T162 548T152 562T158 584L265 745Q275 760 286 763T308
764T325 753T332 733T323 710L198 555Z" />
<glyph unicode="&#xee;" glyph-name="icircumflex" horiz-adv-x="232" d="M76 -7Q57 -7 49 5T43 41L109 453Q112 473 123 483T155 493Q174 493 183 481T188 446L123 33Q120 13 109 3T76 -7ZM298 580Q304 568 300 559T287 546T268 544T253 557L181 699L75 556Q68
546 58 544T40 546T30 560T35 581L134 734Q145 751 157 758T186 766Q201 766 212 758T231 734L298 580Z" />
<glyph unicode="&#xef;" glyph-name="idieresis" horiz-adv-x="232" d="M76 -7Q57 -7 49 5T43 41L109 453Q112 473 123 483T155 493Q174 493 183 481T188 446L123 33Q120 13 109 3T76 -7ZM262 606Q243 606 233 615T222 643Q222 669 236 684T276 699Q296 699 306
689T316 662Q316 636 302 621T262 606ZM88 606Q68 606 58 615T47 643Q47 669 61 684T101 699Q121 699 131 689T142 662Q142 636 128 621T88 606Z" />
<glyph unicode="&#xf0;" glyph-name="eth" horiz-adv-x="560" d="M253 -9Q193 -9 145 15T69 84T41 188Q41 266 73 325T162 418T289 452Q336 452 374 436T436 386T465 299H448Q453 397 424 473T332 598L347 596L207 535Q195 530 186 534T174 547T173 565T188 580L301
628L300 619Q283 629 263 638T221 654Q205 659 200 669T196 690T210 706T239 708Q276 697 308 683T368 649L351 651L482 706Q495 712 504 708T517 695T518 677T501 662L395 617L397 627Q440 590 467 542T508 436T520 314Q520 251 505 193T457 90T374 18T253 -9ZM259
57Q307 57 345 80T406 147T429 253Q429 317 393 352T294 387Q247 387 208 364T146 298T123 191Q123 128 159 93T259 57Z" />
<glyph unicode="&#xf1;" glyph-name="ntilde" horiz-adv-x="568" d="M77 -6Q58 -6 50 7T44 42L109 453Q113 473 124 483T156 493Q174 493 182 482T187 448L174 364L166 376Q191 433 239 464T355 495Q409 495 445 474T497 408T502 294L461 33Q459 13 447 4T415
-6Q396 -6 387 6T381 41L421 294Q433 362 410 395T331 429Q258 429 215 384T160 264L124 34Q118 -6 77 -6ZM181 588Q170 589 165 596T162 615Q168 642 179 663T204 698T236 719T274 726Q298 726 315 715T347 689T376 662T410 650Q432 650 448 666T474 712Q477 722
484 727T502 731Q513 730 518 723T521 704Q513 669 497 644T459 606T410 593Q385 593 367 604T335 631T306 657T273 669Q251 669 234 653T209 608Q206 597 199 592T181 588Z" />
<glyph unicode="&#xf2;" glyph-name="ograve" horiz-adv-x="556" d="M255 -9Q190 -9 143 17T70 91T44 205Q44 267 62 319T115 412T195 473T301 495Q366 495 413 469T486 396T511 281Q511 219 493 167T441 75T360 13T255 -9ZM258 56Q313 56 351 87T409 170T429
284Q429 356 395 393T298 430Q243 430 205 399T146 317T126 202Q126 131 161 94T258 56ZM293 558L186 711Q177 725 178 736T187 754T206 764T229 761T249 740L339 584Q345 571 342 562T331 547T312 544T293 558Z" />
<glyph unicode="&#xf3;" glyph-name="oacute" horiz-adv-x="556" d="M255 -9Q190 -9 143 17T70 91T44 205Q44 267 62 319T115 412T195 473T301 495Q366 495 413 469T486 396T511 281Q511 219 493 167T441 75T360 13T255 -9ZM258 56Q313 56 351 87T409 170T429
284Q429 356 395 393T298 430Q243 430 205 399T146 317T126 202Q126 131 161 94T258 56ZM361 555Q352 545 342 544T325 548T315 562T321 584L428 745Q438 760 449 763T471 764T488 753T495 733T486 710L361 555Z" />
<glyph unicode="&#xf4;" glyph-name="ocircumflex" horiz-adv-x="556" d="M255 -9Q190 -9 143 17T70 91T44 205Q44 267 62 319T115 412T195 473T301 495Q366 495 413 469T486 396T511 281Q511 219 493 167T441 75T360 13T255 -9ZM258 56Q313 56 351 87T409 170T429
284Q429 356 395 393T298 430Q243 430 205 399T146 317T126 202Q126 131 161 94T258 56ZM461 580Q467 568 463 559T450 546T431 544T416 557L344 699L238 556Q231 546 221 544T203 546T193 560T198 581L297 734Q308 751 320 758T349 766Q364 766 375 758T394 734L461
580Z" />
<glyph unicode="&#xf5;" glyph-name="otilde" horiz-adv-x="556" d="M255 -9Q190 -9 143 17T70 91T44 205Q44 267 62 319T115 412T195 473T301 495Q366 495 413 469T486 396T511 281Q511 219 493 167T441 75T360 13T255 -9ZM258 56Q313 56 351 87T409 170T429
284Q429 356 395 393T298 430Q243 430 205 399T146 317T126 202Q126 131 161 94T258 56ZM177 588Q166 589 161 596T158 615Q164 642 175 663T200 698T232 719T270 726Q294 726 311 715T343 689T372 662T406 650Q428 650 444 666T470 712Q473 722 480 727T498 731Q509
730 514 723T517 704Q509 669 493 644T455 606T406 593Q381 593 363 604T331 631T302 657T269 669Q247 669 230 653T205 608Q202 597 195 592T177 588Z" />
<glyph unicode="&#xf6;" glyph-name="odieresis" horiz-adv-x="556" d="M255 -9Q190 -9 143 17T70 91T44 205Q44 267 62 319T115 412T195 473T301 495Q366 495 413 469T486 396T511 281Q511 219 493 167T441 75T360 13T255 -9ZM258 56Q313 56 351 87T409 170T429
284Q429 356 395 393T298 430Q243 430 205 399T146 317T126 202Q126 131 161 94T258 56ZM425 606Q406 606 396 615T385 643Q385 669 399 684T439 699Q459 699 469 689T479 662Q479 636 465 621T425 606ZM251 606Q231 606 221 615T210 643Q210 669 224 684T264 699Q284
699 294 689T305 662Q305 636 291 621T251 606Z" />
<glyph unicode="&#xf7;" glyph-name="divide" horiz-adv-x="600" d="M89 256Q74 256 65 262T56 281Q56 298 66 308T93 318H524Q541 318 549 312T558 292Q558 275 548 266T521 256H89ZM262 41Q243 41 233 51T222 80Q222 103 237 119T277 135Q296 135 306 125T316
97Q316 73 302 57T262 41ZM325 439Q306 439 296 449T285 477Q285 501 300 517T340 533Q359 533 369 523T380 494Q380 470 366 455T325 439Z" />
<glyph unicode="&#xf8;" glyph-name="oslash" horiz-adv-x="556" d="M256 -9Q191 -9 144 17T71 91T45 206Q45 267 63 320T115 412T196 473T301 495Q367 495 414 469T486 396T512 281Q512 219 494 167T442 75T361 13T256 -9ZM259 53Q316 53 355 84T414 167T435
285Q435 358 399 395T297 433Q241 433 202 403T142 320T121 202Q121 129 157 91T259 53ZM116 -24Q108 -35 98 -35T79 -30T69 -14T75 9L442 510Q451 520 461 521T479 516T489 500T482 477L116 -24Z" />
<glyph unicode="&#xf9;" glyph-name="ugrave" horiz-adv-x="561" d="M211 -9Q159 -9 123 13T71 79T66 193L107 455Q111 475 122 484T152 493Q172 493 181 482T187 448L147 193Q136 125 158 92T235 58Q305 58 347 103T401 223L437 455Q441 475 452 484T482 493Q503
493 512 482T518 449L452 32Q446 -7 408 -7Q389 -7 380 4T374 37L387 124L396 112Q371 54 323 23T211 -9ZM290 559L183 712Q174 726 175 737T184 755T203 765T226 762T246 741L336 585Q342 572 339 563T328 548T309 545T290 559Z" />
<glyph unicode="&#xfa;" glyph-name="uacute" horiz-adv-x="561" d="M211 -9Q159 -9 123 13T71 79T66 193L107 455Q111 475 122 484T152 493Q172 493 181 482T187 448L147 193Q136 125 158 92T235 58Q305 58 347 103T401 223L437 455Q441 475 452 484T482 493Q503
493 512 482T518 449L452 32Q446 -7 408 -7Q389 -7 380 4T374 37L387 124L396 112Q371 54 323 23T211 -9ZM358 556Q349 546 339 545T322 549T312 563T318 585L425 746Q435 761 446 764T468 765T485 754T492 734T483 711L358 556Z" />
<glyph unicode="&#xfb;" glyph-name="ucircumflex" horiz-adv-x="561" d="M211 -9Q159 -9 123 13T71 79T66 193L107 455Q111 475 122 484T152 493Q172 493 181 482T187 448L147 193Q136 125 158 92T235 58Q305 58 347 103T401 223L437 455Q441 475 452 484T482
493Q503 493 512 482T518 449L452 32Q446 -7 408 -7Q389 -7 380 4T374 37L387 124L396 112Q371 54 323 23T211 -9ZM458 581Q464 569 460 560T447 547T428 545T413 558L341 700L235 557Q228 547 218 545T200 547T190 561T195 582L294 735Q305 752 317 759T346 767Q361
767 372 759T391 735L458 581Z" />
<glyph unicode="&#xfc;" glyph-name="udieresis" horiz-adv-x="561" d="M211 -9Q159 -9 123 13T71 79T66 193L107 455Q111 475 122 484T152 493Q172 493 181 482T187 448L147 193Q136 125 158 92T235 58Q305 58 347 103T401 223L437 455Q441 475 452 484T482 493Q503
493 512 482T518 449L452 32Q446 -7 408 -7Q389 -7 380 4T374 37L387 124L396 112Q371 54 323 23T211 -9ZM422 607Q403 607 393 616T382 644Q382 670 396 685T436 700Q456 700 466 690T476 663Q476 637 462 622T422 607ZM248 607Q228 607 218 616T207 644Q207 670
221 685T261 700Q281 700 291 690T302 663Q302 637 288 622T248 607Z" />
<glyph unicode="&#xfd;" glyph-name="yacute" horiz-adv-x="514" d="M119 -187Q103 -187 95 -179T86 -159T94 -132L187 25L182 -10L62 436Q57 453 60 466T73 486T99 493Q117 493 125 485T139 456L238 59H210L443 464Q452 479 462 486T487 493Q503 493 512 486T523
466T515 438L163 -157Q155 -172 145 -179T119 -187ZM327 555Q318 545 308 544T291 548T281 562T287 584L394 745Q404 760 415 763T437 764T454 753T461 733T452 710L327 555Z" />
<glyph unicode="&#xfe;" glyph-name="thorn" horiz-adv-x="583" d="M48 -187Q29 -187 20 -175T15 -140L143 671Q147 692 158 702T190 712Q209 712 218 701T223 666L177 370L168 384Q195 436 242 465T351 495Q408 495 450 470T516 398T539 287Q539 207 511 140T428
32T295 -9Q237 -9 191 20T128 110H136L94 -148Q92 -168 81 -177T48 -187ZM285 56Q341 56 379 87T437 170T457 284Q457 356 422 393T326 430Q271 430 233 399T174 317T154 202Q154 131 189 94T285 56Z" />
<glyph unicode="&#xff;" glyph-name="ydieresis" horiz-adv-x="514" d="M119 -187Q103 -187 95 -179T86 -159T94 -132L187 25L182 -10L62 436Q57 453 60 466T73 486T99 493Q117 493 125 485T139 456L238 59H210L443 464Q452 479 462 486T487 493Q503 493 512 486T523
466T515 438L163 -157Q155 -172 145 -179T119 -187ZM391 606Q372 606 362 615T351 643Q351 669 365 684T405 699Q425 699 435 689T445 662Q445 636 431 621T391 606ZM217 606Q197 606 187 615T176 643Q176 669 190 684T230 699Q250 699 260 689T271 662Q271 636
257 621T217 606Z" />
<glyph unicode="&#x2013;" glyph-name="endash" horiz-adv-x="500" d="M24 240Q9 240 2 246T-6 264Q-6 276 3 284T27 293H483Q499 293 506 287T514 270Q514 256 504 248T481 240H24Z" />
<glyph unicode="&#x2014;" glyph-name="emdash" horiz-adv-x="1000" d="M27 240Q11 240 4 246T-3 264Q-3 276 6 284T29 293H980Q996 293 1003 287T1011 270Q1011 256 1001 248T978 240H27Z" />
<glyph unicode="&#x2018;" glyph-name="quoteleft" horiz-adv-x="228" d="M173 695Q184 706 195 706T213 700T220 682T209 660Q188 640 179 623T165 582L159 602Q185 602 201 587T217 547Q217 524 203 509T163 493Q138 493 124 509T110 554Q110 581 117 606T139
653T173 695Z" />
<glyph unicode="&#x2019;" glyph-name="quoteright" horiz-adv-x="228" d="M168 506Q157 495 147 495T129 501T122 519T133 541Q154 561 163 579T177 619L183 599Q157 599 141 614T125 654Q125 679 139 694T179 709Q204 709 217 693T231 647Q231 620 224 596T203
549T168 506Z" />
<glyph unicode="&#x201a;" glyph-name="quotesinglbase" horiz-adv-x="228" d="M74 -97Q62 -108 51 -108T34 -102T27 -84T38 -62Q59 -42 68 -24T81 17L88 -4Q62 -4 46 11T30 51Q30 75 44 90T84 106Q109 106 122 90T136 44Q136 18 129 -7T108 -54T74 -97Z" />
<glyph unicode="&#x201c;" glyph-name="quotedblleft" horiz-adv-x="394" d="M173 695Q184 706 195 706T213 700T220 682T209 660Q188 640 179 623T165 582L159 602Q185 602 201 587T217 547Q217 524 203 509T163 493Q138 493 124 509T110 554Q110 581 117 606T139
653T173 695ZM339 695Q350 706 361 706T379 700T386 682T375 660Q354 640 345 623T331 582L325 602Q351 602 367 587T383 547Q383 524 369 509T329 493Q304 493 290 509T276 554Q276 581 283 606T305 653T339 695Z" />
<glyph unicode="&#x201d;" glyph-name="quotedblright" horiz-adv-x="394" d="M168 506Q157 495 147 495T129 501T122 519T133 541Q154 561 163 579T177 619L183 599Q157 599 141 614T125 654Q125 679 139 694T179 709Q204 709 217 693T231 647Q231 620 224 596T203
549T168 506ZM334 506Q323 495 313 495T295 501T288 519T299 541Q320 561 329 579T343 619L349 599Q323 599 307 614T291 654Q291 679 305 694T345 709Q370 709 383 693T397 647Q397 620 390 596T369 549T334 506Z" />
<glyph unicode="&#x201e;" glyph-name="quotedblbase" horiz-adv-x="394" d="M74 -97Q62 -108 51 -108T34 -102T27 -84T38 -62Q59 -42 68 -24T81 17L88 -4Q62 -4 46 11T30 51Q30 75 44 90T84 106Q109 106 122 90T136 44Q136 18 129 -7T108 -54T74 -97ZM240 -97Q228
-108 217 -108T200 -102T193 -84T204 -62Q225 -42 234 -24T247 17L254 -4Q228 -4 212 11T196 51Q196 75 210 90T250 106Q275 106 288 90T302 44Q302 18 295 -7T274 -54T240 -97Z" />
<glyph unicode="&#x2022;" glyph-name="bullet" horiz-adv-x="524" d="M265 88Q216 88 175 111T109 175T84 265Q84 311 107 351T172 417T265 443Q313 443 354 420T421 357T446 265Q446 216 422 176T356 112T265 88Z" />
<glyph unicode="&#x2039;" glyph-name="guilsinglleft" horiz-adv-x="260" d="M163 91Q149 85 136 90T116 111L63 238Q58 250 59 264T70 293L176 431Q184 441 195 443T218 441Q232 434 233 420T222 386L135 262L179 135Q184 119 180 108T163 91Z" />
<glyph unicode="&#x203a;" glyph-name="guilsinglright" horiz-adv-x="260" d="M48 90Q35 97 34 111T45 145L132 269L88 397Q83 413 87 424T103 440Q118 446 131 441T151 421L204 294Q209 282 208 267T196 239L91 101Q83 90 72 88T48 90Z" />
</font>
</defs>
</svg>
