<?xml version="1.0" standalone="no"?>
<!DOCTYPE svg PUBLIC "-//W3C//DTD SVG 1.1//EN" "http://www.w3.org/Graphics/SVG/1.1/DTD/svg11.dtd">
<svg xmlns="http://www.w3.org/2000/svg">
<defs >
<font id="Archivo" horiz-adv-x="575" ><font-face
    font-family="Archivo Medium"
    units-per-em="1000"
    panose-1="0 0 0 0 0 0 0 0 0 0"
    ascent="878"
    descent="-210"
    alphabetic="0" />
<glyph unicode=" " glyph-name="space" horiz-adv-x="205" />
<glyph unicode="!" glyph-name="exclam" horiz-adv-x="282" d="M108 185L80 686H202L174 185H108ZM85 0V116H197V0H85Z" />
<glyph unicode="&quot;" glyph-name="quotedbl" horiz-adv-x="407" d="M74 409L59 539V686H168V539L148 409H74ZM254 409L239 539V686H349V539L329 409H254Z" />
<glyph unicode="#" glyph-name="numbersign" horiz-adv-x="582" d="M59 -12L99 174H24V260H117L148 405H70V491H167L212 698H301L256 491H391L435 698H525L480 491H558V405H462L431 260H513V174H413L373 -12H283L323 174H188L149 -12H59ZM206 260H341L373 405H238L206
260Z" />
<glyph unicode="$" glyph-name="dollar" horiz-adv-x="524" d="M240 -49V723H290V-49H240ZM261 68Q206 68 164 79T94 112T52 163T37 229Q37 234 37 238T38 245H141Q141 242 141 240T141 234Q141 203 158 185T203 159T266 151Q296 151 321 158T363 180T380 219Q380
249 359 265T304 290T233 310Q200 319 168 330T109 357T67 400T51 466Q51 503 67 531T111 578T179 607T266 617Q315 617 353 607T417 577T458 531T472 475Q472 468 472 462T471 454H369V463Q369 483 358 499T324 525T261 535Q235 535 215 531T182 518T163 499T156
474Q156 451 172 439T216 418T274 399Q310 389 347 379T415 352T466 308T486 233Q486 189 469 158T422 106T350 77T261 68Z" />
<glyph unicode="%" glyph-name="percent" horiz-adv-x="958" d="M187 0L686 686H774L274 0H187ZM248 337Q199 337 164 353T109 409T90 517Q90 587 109 626T163 681T248 698Q297 698 331 682T385 626T404 517Q404 448 385 409T332 353T248 337ZM248 403Q291 403
305 432T319 512V523Q319 557 313 581T292 619T248 632Q205 632 191 603T176 523V512Q176 461 190 432T248 403ZM712 -12Q664 -12 629 4T574 60T555 168Q555 238 574 277T628 332T712 349Q761 349 796 333T849 277T868 168Q868 99 850 60T796 4T712 -12ZM712 54Q755
54 769 83T783 163V174Q783 208 778 232T757 270T712 283Q670 283 656 254T641 174V163Q641 112 655 83T712 54Z" />
<glyph unicode="&amp;" glyph-name="ampersand" horiz-adv-x="710" d="M316 -12Q238 -12 179 11T85 79T51 184Q51 254 87 295T179 352V356Q131 378 99 413T67 510Q67 571 99 613T190 676T327 698Q402 698 459 675T549 610T582 510V489H478V502Q477 540 458 564T405
599T325 611Q293 611 265 605T217 585T185 550T174 501Q174 464 192 440T240 403T304 391H369V306H307Q269 306 235 297T180 263T159 193Q159 151 179 125T235 87T321 75Q374 75 408 88T460 128T478 194V391H670V305H582V197Q582 132 552 85T463 13T316 -12Z" />
<glyph unicode="&apos;" glyph-name="quotesingle" horiz-adv-x="227" d="M74 409L59 539V686H168V539L148 409H74Z" />
<glyph unicode="(" glyph-name="parenleft" horiz-adv-x="356" d="M242 -157Q158 -64 113 51T68 291Q68 413 113 529T242 736H309Q270 675 238 602T187 450T168 291Q168 211 186 131T237 -22T309 -157H242Z" />
<glyph unicode=")" glyph-name="parenright" horiz-adv-x="356" d="M114 735Q199 642 243 527T288 287Q288 165 244 50T114 -158H47Q87 -97 119 -24T169 128T188 287Q188 367 170 447T119 600T47 735H114Z" />
<glyph unicode="*" glyph-name="asterisk" horiz-adv-x="407" d="M168 331L179 466L74 389L38 452L154 509L38 567L74 629L179 551L168 687H239L228 551L333 629L369 567L252 509L369 452L333 389L228 466L239 331H168Z" />
<glyph unicode="+" glyph-name="plus" horiz-adv-x="630" d="M272 0V212H79V298H272V511H357V298H551V212H357V0H272Z" />
<glyph unicode="," glyph-name="comma" horiz-adv-x="288" d="M79 -154V-109Q101 -105 114 -90T134 -51T141 0H88V116H199V11Q199 -47 182 -81T137 -131T79 -154Z" />
<glyph unicode="-" glyph-name="hyphen" horiz-adv-x="333" d="M40 220V320H293V220H40Z" />
<glyph unicode="." glyph-name="period" horiz-adv-x="288" d="M88 0V116H199V0H88Z" />
<glyph unicode="/" glyph-name="slash" horiz-adv-x="296" d="M0 -49L217 735H296L79 -49H0Z" />
<glyph unicode="0" glyph-name="zero" horiz-adv-x="574" d="M287 -12Q232 -12 188 4T113 61T66 169T49 343Q49 448 65 516T112 625T187 681T287 698Q343 698 387 682T461 625T508 517T525 343Q525 238 509 170T462 61T387 5T287 -12ZM287 74Q340 74 367 101T406
183T417 317V366Q417 448 406 502T368 584T287 612Q235 612 207 585T168 503T157 368V319Q157 239 168 184T207 102T287 74Z" />
<glyph unicode="1" glyph-name="one" horiz-adv-x="547" d="M81 0V87H251V542H81V607Q114 609 154 619T234 646T307 687H356V87H513V0H81Z" />
<glyph unicode="2" glyph-name="two" horiz-adv-x="571" d="M50 0V31Q50 74 66 110T110 177T172 234T241 286Q287 319 326 352T389 423T414 508Q414 535 402 558T363 595T295 610Q249 610 221 595T179 553T165 491V450H61Q60 455 59 465T58 490Q58 564 91 609T180
676T300 698Q362 698 404 681T472 634T509 570T521 502Q521 454 505 415T459 342T390 277T305 214Q277 195 251 175T204 135T177 95H525V0H50Z" />
<glyph unicode="3" glyph-name="three" d="M289 -12Q209 -12 155 13T72 84T43 192V205H148V190Q148 134 183 104T283 74Q345 74 382 102T420 192Q420 237 400 261T347 296T277 306H212V392H280Q314 392 342 403T388 440T406 506Q406 543 391 566T348 600T288 612Q253
612 225 600T180 563T164 502V487H58V508Q58 565 87 608T168 674T286 698Q353 698 404 677T484 614T513 512Q513 470 498 440T458 390T401 356V352Q455 336 491 294T528 184Q528 123 498 79T413 12T289 -12Z" />
<glyph unicode="4" glyph-name="four" horiz-adv-x="566" d="M341 0V161H30V247Q71 317 105 388T167 536T214 698H323Q310 644 291 588T248 477T201 377T158 297T126 247H341V444Q348 461 355 480T370 520T383 560T394 596H445V247H533V161H445V0H341Z" />
<glyph unicode="5" glyph-name="five" horiz-adv-x="573" d="M289 -12Q217 -12 163 15T78 92T48 213H155Q155 170 172 139T219 91T289 74Q327 74 356 90T402 140T419 224Q419 270 404 300T360 345T294 360Q267 360 243 352T201 328T170 292L72 306L100 686H491V590H191L177
398Q193 410 212 421T258 439T319 446Q377 446 424 422T499 350T527 225Q527 150 498 97T416 16T289 -12Z" />
<glyph unicode="6" glyph-name="six" d="M302 -12Q243 -12 197 5T117 60T67 163T50 323Q50 429 66 501T115 616T193 679T298 698Q372 698 418 670T486 594T508 485H402Q402 526 391 554T355 597T293 612Q238 612 209 583T169 499T157 368Q167 384 190 401T246
429T320 441Q393 441 440 412T509 331T532 216Q532 147 502 96T420 16T302 -12ZM295 74Q339 74 367 93T410 145T424 217Q424 256 411 287T369 337T296 356Q252 356 223 338T180 287T166 214Q166 176 180 144T222 93T295 74Z" />
<glyph unicode="7" glyph-name="seven" horiz-adv-x="564" d="M146 0Q146 89 168 172T227 331T309 472T398 590H42V686H528V619Q493 577 455 527T382 419T320 301T276 177T260 49V0H146Z" />
<glyph unicode="8" glyph-name="eight" d="M288 -12Q202 -12 149 15T71 87T46 188Q46 244 73 286T159 352Q112 377 88 418T64 508Q64 561 89 604T164 672T288 698Q362 698 411 673T485 604T511 508Q511 459 487 418T415 352Q475 329 501 287T528 188Q528 133 504
88T426 15T288 -12ZM288 73Q353 73 387 104T421 191Q421 246 387 277T288 308Q222 308 188 277T153 191Q153 136 187 105T288 73ZM288 393Q342 393 373 421T405 503Q405 555 374 584T288 613Q232 613 201 584T169 503Q169 450 200 422T288 393Z" />
<glyph unicode="9" glyph-name="nine" horiz-adv-x="574" d="M276 -12Q202 -12 156 16T88 92T66 201H172Q172 160 184 132T220 89T281 74Q337 74 365 103T405 188T417 318Q408 303 385 286T329 257T256 245Q183 245 136 274T66 355T43 470Q43 540 73 591T155 670T272
698Q331 698 378 681T458 626T508 523T525 363Q525 258 508 186T460 70T382 7T276 -12ZM278 330Q322 330 351 348T394 399T409 472Q409 511 395 543T352 593T279 612Q235 612 207 593T164 541T150 469Q150 430 164 399T206 349T278 330Z" />
<glyph unicode=":" glyph-name="colon" horiz-adv-x="315" d="M102 410V526H213V410H102ZM102 0V116H213V0H102Z" />
<glyph unicode=";" glyph-name="semicolon" horiz-adv-x="315" d="M94 -154V-109Q116 -105 130 -90T150 -51T157 0H103V116H214V11Q214 -47 197 -81T152 -131T94 -154ZM103 410V526H214V410H103Z" />
<glyph unicode="&lt;" glyph-name="less" horiz-adv-x="630" d="M542 4L68 203V310L542 510V414L151 257L542 100V4Z" />
<glyph unicode="=" glyph-name="equal" horiz-adv-x="630" d="M79 317V403H552V317H79ZM79 106V191H552V106H79Z" />
<glyph unicode="&gt;" glyph-name="greater" horiz-adv-x="630" d="M88 4V100L479 257L88 414V510L563 310V203L88 4Z" />
<glyph unicode="?" glyph-name="question" horiz-adv-x="595" d="M242 184V236Q242 276 254 302T285 349T325 385T365 418T396 456T409 507Q409 519 406 535T391 568T356 594T294 605Q253 605 228 592T191 560T174 522T170 488Q170 481 170 475T171 461H65Q64
465 63 473T62 495Q62 523 70 551T96 606T142 653T210 686T302 698Q347 698 383 689T444 662T487 623T512 574T521 520Q521 473 508 441T475 386T431 346T387 312T353 275T340 224V184H242ZM236 0V116H346V0H236Z" />
<glyph unicode="@" glyph-name="at" horiz-adv-x="1002" d="M475 -153Q344 -153 248 -110T100 26T48 262Q48 382 85 465T186 599T335 674T513 698Q608 698 688 677T827 610T920 494T953 321Q953 253 939 203T900 118T846 62T784 32T723 22Q681 22 658 34T624 62T611
89H606Q589 68 566 53T514 29T447 21Q424 21 398 26T349 46T312 87T297 154Q297 203 319 235T383 285T481 311T603 319V366Q603 390 596 407T568 435T509 446Q472 446 451 437T422 412T413 382V368H321Q320 373 320 377T320 388Q320 431 344 460T411 505T512 521Q575
521 616 504T677 455T698 375V137Q698 114 709 105T743 95Q775 95 807 116T859 186T880 322Q880 431 833 500T704 601T512 633Q392 633 304 593T168 469T120 261Q120 87 207 0T475 -88Q502 -88 537 -84T607 -73T662 -57V-126Q638 -134 604 -140T535 -149T475 -153ZM474
97Q503 97 526 106T567 131T594 170T603 222V250Q541 250 494 243T421 217T394 162Q394 141 403 127T430 105T474 97Z" />
<glyph unicode="A" glyph-name="A" horiz-adv-x="695" d="M6 0L275 686H418L688 0H568L507 159H182L121 0H6ZM218 254H470L393 455Q390 464 384 480T372 515T359 553T347 589H341Q335 570 326 544T309 494T294 455L218 254Z" />
<glyph unicode="B" glyph-name="B" horiz-adv-x="702" d="M81 0V686H445Q502 686 545 666T612 607T637 518Q637 479 623 447T583 393T525 360V356Q562 348 591 327T638 271T656 188Q656 123 628 81T552 20T445 0H81ZM193 96H436Q482 96 511 120T541 200Q541 233
529 256T491 292T428 305H193V96ZM193 399H419Q451 399 474 411T509 445T522 494Q522 543 496 566T426 590H193V399Z" />
<glyph unicode="C" glyph-name="C" horiz-adv-x="725" d="M378 -12Q273 -12 200 25T87 142T48 343Q48 523 135 610T379 698Q465 698 533 669T641 583T681 436H567Q567 491 544 528T479 584T380 603Q310 603 262 576T189 493T164 353V331Q164 246 188 191T261 110T380
83Q438 83 481 101T547 157T571 249H681Q681 160 642 102T534 16T378 -12Z" />
<glyph unicode="D" glyph-name="D" horiz-adv-x="731" d="M81 0V686H346Q452 686 527 650T642 538T683 343Q683 225 643 149T527 37T346 0H81ZM193 96H345Q398 96 439 110T509 153T552 226T567 332V353Q567 415 553 459T510 533T440 576T345 590H193V96Z" />
<glyph unicode="E" glyph-name="E" horiz-adv-x="674" d="M81 0V686H613V590H193V399H569V303H193V96H619V0H81Z" />
<glyph unicode="F" glyph-name="F" horiz-adv-x="611" d="M81 0V686H571V590H193V387H535V292H193V0H81Z" />
<glyph unicode="G" glyph-name="G" horiz-adv-x="795" d="M392 -12Q229 -12 142 74T54 343Q54 463 95 541T214 659T404 698Q471 698 528 683T629 638T696 561T720 452H606Q606 491 591 519T548 567T484 594T406 603Q349 603 305 588T230 542T185 464T170 353V332Q170
244 195 189T271 109T395 83Q464 83 511 103T583 162T608 261V271H377V364H720V0H639L628 82Q600 49 564 29T486 -2T392 -12Z" />
<glyph unicode="H" glyph-name="H" horiz-adv-x="734" d="M81 0V686H193V399H541V686H653V0H541V303H193V0H81Z" />
<glyph unicode="I" glyph-name="I" horiz-adv-x="274" d="M81 0V686H193V0H81Z" />
<glyph unicode="J" glyph-name="J" horiz-adv-x="571" d="M264 -12Q191 -12 140 11T62 78T35 188V221H146V185Q146 136 176 110T264 83Q321 83 351 121T381 230V686H493V232Q493 151 466 97T388 15T264 -12Z" />
<glyph unicode="K" glyph-name="K" horiz-adv-x="677" d="M81 0V686H193V344L520 686H658L394 410L665 0H533L318 331L193 216V0H81Z" />
<glyph unicode="L" glyph-name="L" horiz-adv-x="552" d="M81 0V686H193V97H535V0H81Z" />
<glyph unicode="M" glyph-name="M" horiz-adv-x="846" d="M81 0V686H256L389 270Q395 252 401 229T412 185T421 148H429Q431 163 436 184T446 228T458 271L592 686H764V0H653V376Q653 414 654 455T656 528T657 569H649Q647 558 640 532T624 475T609 423L470 0H371L232
422Q226 441 219 467T205 520T193 569H185Q186 545 186 510T188 440T189 376V0H81Z" />
<glyph unicode="N" glyph-name="N" horiz-adv-x="734" d="M81 0V686H189L502 256Q508 250 515 239T530 217T540 199H545Q545 214 545 228T545 256V686H653V0H549L232 435Q224 447 212 465T194 494H189Q189 480 189 466T189 435V0H81Z" />
<glyph unicode="O" glyph-name="O" horiz-adv-x="785" d="M392 -12Q286 -12 209 27T90 145T48 343Q48 463 89 541T208 659T392 698Q500 698 577 659T695 542T737 343Q737 224 696 145T577 27T392 -12ZM392 83Q447 83 489 98T561 144T606 222T622 331V353Q622 417
607 464T562 542T490 588T392 603Q338 603 296 588T224 542T179 464T164 353V331Q164 269 179 222T223 144T295 98T392 83Z" />
<glyph unicode="P" glyph-name="P" horiz-adv-x="667" d="M81 0V686H423Q496 686 544 659T616 585T641 472Q641 407 615 358T540 281T419 254H193V0H81ZM193 350H414Q467 350 497 382T528 471Q528 509 515 535T477 576T414 590H193V350Z" />
<glyph unicode="Q" glyph-name="Q" horiz-adv-x="785" d="M554 -130L436 -10Q425 -11 414 -11T392 -12Q286 -12 209 27T90 145T48 343Q48 463 89 541T208 659T392 698Q500 698 577 659T695 542T737 343Q737 214 689 133T552 16L703 -130H554ZM392 83Q447 83 489
98T561 144T606 222T622 331V353Q622 417 607 464T562 542T490 588T392 603Q338 603 296 588T224 542T179 464T164 353V331Q164 269 179 222T223 144T295 98T392 83Z" />
<glyph unicode="R" glyph-name="R" horiz-adv-x="722" d="M81 0V686H442Q515 686 563 660T635 588T659 479Q659 410 628 359T540 284L683 0H561L431 265H193V0H81ZM193 359H433Q487 359 516 391T546 480Q546 515 533 539T495 577T433 590H193V359Z" />
<glyph unicode="S" glyph-name="S" horiz-adv-x="670" d="M335 -12Q279 -12 227 -1T135 36T72 101T49 196Q49 202 49 207T50 217H162Q162 214 162 208T161 198Q161 161 183 135T244 96T335 83Q363 83 389 86T436 97T474 116T499 144T508 181Q508 213 490 234T440
269T369 294T287 316T206 342T135 378T85 432T66 512Q66 557 85 592T140 650T226 686T339 698Q393 698 441 687T525 651T581 590T602 502V490H491V503Q491 535 472 557T419 591T340 603Q287 603 251 593T197 564T178 519Q178 490 197 472T247 440T318 417T399 395T480
368T551 331T602 277T621 197Q621 123 584 77T483 9T335 -12Z" />
<glyph unicode="T" glyph-name="T" horiz-adv-x="612" d="M249 0V590H22V686H590V590H361V0H249Z" />
<glyph unicode="U" glyph-name="U" horiz-adv-x="728" d="M362 -12Q274 -12 210 16T112 105T78 257V686H190V254Q190 169 235 126T362 83Q445 83 491 126T538 254V686H650V257Q650 165 616 105T517 17T362 -12Z" />
<glyph unicode="V" glyph-name="V" horiz-adv-x="659" d="M263 0L10 686H131L301 207Q306 195 311 179T321 149T330 123H335Q339 134 344 148T354 177T364 206L532 686H649L395 0H263Z" />
<glyph unicode="W" glyph-name="W" horiz-adv-x="938" d="M200 0L11 686H130L247 234Q250 223 254 204T261 165T268 127H274Q277 140 279 155T284 185T289 213T293 234L401 686H545L654 234Q657 223 661 204T668 165T675 127H681Q683 139 686 154T692 183T698
211T704 234L821 686H927L738 0H607L492 458Q489 473 485 492T478 532T472 568H467Q465 552 462 531T455 491T448 458L335 0H200Z" />
<glyph unicode="X" glyph-name="X" horiz-adv-x="683" d="M11 0L269 360L35 686H172L343 443H347L517 686H646L413 361L672 0H536L341 278H335L141 0H11Z" />
<glyph unicode="Y" glyph-name="Y" horiz-adv-x="666" d="M277 0V282L10 686H138L334 382H339L533 686H656L389 282V0H277Z" />
<glyph unicode="Z" glyph-name="Z" horiz-adv-x="635" d="M31 0V55L423 590H57V686H589V631L195 96H598V0H31Z" />
<glyph unicode="[" glyph-name="bracketleft" horiz-adv-x="316" d="M100 -161V735H298V660H191V-86H298V-161H100Z" />
<glyph unicode="\" glyph-name="backslash" horiz-adv-x="296" d="M296 -49H217L0 735H79L296 -49Z" />
<glyph unicode="]" glyph-name="bracketright" horiz-adv-x="316" d="M216 735V-161H19V-86H125V660H19V735H216Z" />
<glyph unicode="^" glyph-name="asciicircum" horiz-adv-x="630" d="M108 294L267 686H363L523 294H431L314 593L199 294H108Z" />
<glyph unicode="_" glyph-name="underscore" horiz-adv-x="495" d="M0 -140V-65H495V-140H0Z" />
<glyph unicode="`" glyph-name="grave" horiz-adv-x="197" d="M197 591H109L0 720L1 723H113L197 591Z" />
<glyph unicode="a" glyph-name="a" horiz-adv-x="550" d="M200 -12Q175 -12 146 -6T92 16T50 60T34 135Q34 189 59 224T129 279T236 307T373 315V367Q373 393 365 413T334 444T269 455Q227 455 204 445T171 419T161 385V370H61Q60 375 60 380T60 392Q60 439 86
471T161 521T272 538Q340 538 385 519T454 463T477 376V109Q477 90 486 82T509 74H545V4Q533 -1 515 -6T473 -11Q446 -11 428 -2T398 25T382 65H376Q358 42 333 25T274 -2T200 -12ZM229 74Q260 74 286 83T332 110T362 152T373 206V241Q304 241 252 233T171 204T142
144Q142 121 152 106T182 82T229 74Z" />
<glyph unicode="b" glyph-name="b" horiz-adv-x="579" d="M331 -12Q279 -12 237 9T168 72H161L152 0H67V723H171V462H177Q194 488 217 505T271 530T336 538Q396 538 442 509T513 420T539 265Q539 168 514 107T443 17T331 -12ZM302 78Q347 78 375 96T418 152T432
253V271Q432 333 419 372T376 429T300 448Q271 448 247 438T206 407T180 351T171 269V255Q171 198 184 159T227 99T302 78Z" />
<glyph unicode="c" glyph-name="c" horiz-adv-x="532" d="M276 -12Q197 -12 144 17T65 108T38 263Q38 357 65 417T145 508T277 538Q331 538 371 525T439 485T480 419T494 330H389Q389 372 377 399T340 439T275 453Q233 453 204 434T160 375T145 271V254Q145 193
159 153T203 93T279 73Q319 73 343 87T380 129T393 196H494Q494 149 481 111T440 46T371 3T276 -12Z" />
<glyph unicode="d" glyph-name="d" horiz-adv-x="579" d="M248 -12Q184 -12 137 17T65 107T39 265Q39 360 65 420T137 509T243 538Q278 538 308 530T361 505T401 462H408V723H512V0H427L417 72H410Q384 30 342 9T248 -12ZM277 78Q323 78 351 98T394 158T408 255V269Q408
317 399 351T373 406T332 438T278 448Q232 448 203 430T161 372T147 271V253Q147 191 161 153T203 96T277 78Z" />
<glyph unicode="e" glyph-name="e" horiz-adv-x="554" d="M285 -12Q204 -12 150 17T67 108T39 263Q39 358 67 418T150 508T287 538Q362 538 412 510T489 423T515 277V237H146Q148 181 163 144T208 89T286 71Q315 71 338 78T377 100T402 135T411 182H513Q513 135
497 99T451 39T378 1T285 -12ZM148 313H406Q406 352 398 378T373 422T335 446T285 454Q243 454 214 439T168 393T148 313Z" />
<glyph unicode="f" glyph-name="f" horiz-adv-x="293" d="M90 0V440H13V526H90V602Q90 635 100 664T137 712T213 731Q227 731 241 730T269 725T292 718V645H241Q217 645 206 633T194 598V526H292V440H194V0H90Z" />
<glyph unicode="g" glyph-name="g" horiz-adv-x="573" d="M155 -182Q119 -182 88 -167T37 -124T18 -56Q18 -12 42 15T100 57Q76 68 62 89T47 137Q47 174 74 197T137 227Q102 250 83 285T63 364Q63 417 88 455T162 516T283 538Q314 538 341 534T391 521Q426 539
441 564T459 612H561Q561 579 548 553T511 509T454 484Q479 461 491 431T504 364Q504 312 480 273T408 212T288 190H206Q182 190 168 180T153 150Q153 133 167 122T204 111H426Q484 111 522 73T560 -26Q560 -70 538 -105T475 -161T381 -182H155ZM189 -105H380Q401
-105 418 -97T445 -75T455 -42Q455 -12 437 5T391 22H189Q161 22 142 4T123 -42Q123 -70 141 -87T189 -105ZM284 265Q343 265 372 291T401 364Q401 411 372 436T284 462Q225 462 196 437T167 364Q167 334 179 312T218 277T284 265Z" />
<glyph unicode="h" glyph-name="h" horiz-adv-x="573" d="M67 0V723H171V463H178Q197 487 221 503T275 529T341 538Q391 538 429 521T488 464T510 359V0H406V343Q406 373 399 393T377 425T344 442T302 447Q266 447 237 430T189 382T171 308V0H67Z" />
<glyph unicode="i" glyph-name="i" horiz-adv-x="238" d="M67 617V723H171V617H67ZM67 0V526H171V0H67Z" />
<glyph unicode="j" glyph-name="j" horiz-adv-x="236" d="M67 617V723H171V617H67ZM51 -182Q39 -182 25 -181T-3 -176T-26 -169V-97H22Q44 -97 55 -85T67 -51V526H171V-56Q171 -88 161 -116T124 -163T51 -182Z" />
<glyph unicode="k" glyph-name="k" horiz-adv-x="528" d="M67 0V723H171V286L378 526H501L323 322L511 0H391L256 246L171 162V0H67Z" />
<glyph unicode="l" glyph-name="l" horiz-adv-x="238" d="M67 0V723H171V0H67Z" />
<glyph unicode="m" glyph-name="m" horiz-adv-x="860" d="M67 0V526H153L162 451H169Q187 480 210 499T263 528T327 538Q376 538 412 518T468 451H475Q493 479 517 498T571 528T637 538Q684 538 720 522T777 467T798 364V0H694V345Q694 375 687 394T668 425T639
442T602 447Q569 447 543 430T501 381T485 308V0H381V345Q381 375 374 394T355 425T326 442T290 447Q257 447 230 430T187 381T171 308V0H67Z" />
<glyph unicode="n" glyph-name="n" horiz-adv-x="573" d="M67 0V526H153L162 451H169Q188 480 214 499T271 528T341 538Q391 538 429 521T488 464T510 359V0H406V343Q406 373 399 393T377 425T344 442T302 447Q266 447 237 430T189 381T171 308V0H67Z" />
<glyph unicode="o" glyph-name="o" horiz-adv-x="583" d="M291 -12Q209 -12 153 17T68 108T39 263Q39 358 67 418T152 508T291 538Q375 538 431 509T515 419T544 263Q544 169 516 108T431 18T291 -12ZM291 74Q341 74 373 93T420 153T436 254V272Q436 333 421 373T373
432T291 452Q242 452 210 433T163 373T147 272V254Q147 193 162 153T210 94T291 74Z" />
<glyph unicode="p" glyph-name="p" horiz-adv-x="579" d="M67 -173V526H152L161 454H168Q195 496 237 517T331 538Q396 538 442 509T514 419T539 261Q539 167 514 107T442 17T336 -12Q301 -12 271 -4T218 21T177 64H171V-173H67ZM300 78Q347 78 376 96T418 154T432
253V271Q432 334 418 373T376 430T302 448Q256 448 227 428T185 367T171 270V256Q171 209 180 175T206 120T247 88T300 78Z" />
<glyph unicode="q" glyph-name="q" horiz-adv-x="579" d="M408 -173V64H401Q385 38 361 21T307 -4T243 -12Q183 -12 137 17T65 106T39 261Q39 358 64 419T137 509T248 538Q300 538 342 517T410 454H417L427 526H512V-173H408ZM278 78Q309 78 332 88T373 119T399
175T408 256V270Q408 327 394 367T352 427T277 448Q232 448 204 430T161 373T147 271V253Q147 193 160 154T203 97T278 78Z" />
<glyph unicode="r" glyph-name="r" horiz-adv-x="346" d="M67 0V526H153L162 441H168Q177 466 191 488T229 524T287 538Q303 538 315 535T335 530V432H300Q268 432 244 422T203 393T179 345T171 282V0H67Z" />
<glyph unicode="s" glyph-name="s" horiz-adv-x="524" d="M261 -12Q206 -12 164 0T94 33T52 83T37 149Q37 154 37 158T38 165H141Q141 162 141 160T141 154Q141 123 158 105T203 79T266 71Q296 71 321 78T363 101T380 139Q380 169 359 185T304 210T233 231Q200
240 168 250T109 278T67 321T51 386Q51 423 67 451T111 498T179 527T266 537Q315 537 353 527T417 497T458 452T472 395Q472 389 472 383T471 374H369V383Q369 403 358 419T324 445T261 455Q235 455 215 451T182 438T163 419T156 394Q156 371 172 359T216 338T274
319Q310 309 347 299T415 272T466 228T486 153Q486 110 469 78T422 27T350 -2T261 -12Z" />
<glyph unicode="t" glyph-name="t" horiz-adv-x="305" d="M198 -12Q153 -12 128 5T92 50T81 109V440H15V526H83L102 673H185V526H280V440H185V121Q185 98 195 86T228 74H280V4Q270 0 256 -3T226 -9T198 -12Z" />
<glyph unicode="u" glyph-name="u" horiz-adv-x="572" d="M232 -12Q156 -12 109 28T62 167V526H166V183Q166 153 173 133T195 101T228 84T270 79Q306 79 335 96T383 145T401 218V526H505V0H420L411 75H404Q385 46 359 27T302 -2T232 -12Z" />
<glyph unicode="v" glyph-name="v" horiz-adv-x="516" d="M204 0L9 526H118L209 275Q215 257 224 229T242 170T258 116H263Q269 139 277 168T295 227T311 275L401 526H507L311 0H204Z" />
<glyph unicode="w" glyph-name="w" horiz-adv-x="740" d="M165 0L7 526H115L192 238Q198 217 202 194T211 153T217 128H223Q227 146 232 169T241 211T247 241L317 526H429L501 240Q505 224 509 204T518 163T525 128H531Q534 142 538 161T548 201T557 238L633 526H732L575
0H467L403 262Q399 281 393 306T382 356T374 400H368Q366 389 363 368T353 320T339 262L273 0H165Z" />
<glyph unicode="x" glyph-name="x" horiz-adv-x="529" d="M12 0L200 270L23 526H149L265 350H271L388 526H507L329 273L517 0H392L264 193H259L131 0H12Z" />
<glyph unicode="y" glyph-name="y" horiz-adv-x="516" d="M124 -182Q94 -182 74 -178T49 -172V-97H99Q121 -97 143 -87T184 -55T214 0L9 526H118L220 264Q227 246 235 219T252 164T267 114H272Q277 129 282 148T294 189T306 229T316 263L401 526H507L329 20Q314
-22 296 -59T255 -123T199 -166T124 -182Z" />
<glyph unicode="z" glyph-name="z" horiz-adv-x="503" d="M28 0V52L308 440H47V526H458V475L177 86H472V0H28Z" />
<glyph unicode="{" glyph-name="braceleft" horiz-adv-x="372" d="M318 -159Q279 -159 245 -154T186 -133T146 -91T132 -20V185Q132 207 119 220T86 238T44 244V331Q65 331 85 337T119 356T132 391V596Q132 639 146 666T185 709T245 729T318 735V672Q299 672 278
667T242 649T225 609L217 399Q216 349 193 321T109 293V283Q150 283 173 270T206 234T217 176L225 -33Q226 -59 241 -72T277 -91T318 -96V-159Z" />
<glyph unicode="|" glyph-name="bar" horiz-adv-x="245" d="M81 -187V723H164V-187H81Z" />
<glyph unicode="}" glyph-name="braceright" horiz-adv-x="372" d="M54 735Q93 735 127 730T186 709T226 667T240 596V391Q240 370 253 357T287 338T328 332V245Q308 245 288 239T254 221T240 185V-20Q240 -63 226 -90T187 -133T127 -153T54 -159V-96Q73 -96 94
-91T130 -73T147 -33L155 177Q157 227 180 255T263 283V293Q223 293 200 306T166 343T155 400L147 609Q146 635 131 648T96 667T54 672V735Z" />
<glyph unicode="~" glyph-name="asciitilde" horiz-adv-x="630" d="M64 209V307Q75 323 95 339T145 367T209 379Q238 379 263 370T314 349T365 328T421 319Q452 319 480 330T530 359T566 391V294Q556 279 535 262T486 233T421 221Q393 221 367 230T316 251T265
272T209 282Q178 282 150 270T100 242T64 209Z" />
<glyph unicode="&#xa0;" glyph-name="uni00A0" horiz-adv-x="205" />
<glyph unicode="&#xa1;" glyph-name="exclamdown" horiz-adv-x="282" d="M80 -161L108 341H174L202 -161H80ZM85 410V525H197V410H85Z" />
<glyph unicode="&#xa2;" glyph-name="cent" horiz-adv-x="572" d="M264 -49V723H315V-49H264ZM290 68Q212 68 159 97T79 188T52 343Q52 437 79 497T159 588T292 618Q345 618 385 605T453 564T494 499T508 410H403Q403 452 391 478T354 518T290 532Q247 532 218
513T174 454T159 351V334Q159 272 173 232T217 173T293 153Q333 153 358 167T395 209T408 276H508Q508 229 495 191T454 125T386 83T290 68Z" />
<glyph unicode="&#xa3;" glyph-name="sterling" horiz-adv-x="574" d="M39 0V89H110V296H26V383H110V505Q110 569 135 612T207 676T317 698Q379 698 425 677T497 615T523 508V494H419V511Q419 545 407 567T371 601T317 612Q286 612 263 601T228 569T215 515V383H377V296H214L204
89H520V0H39Z" />
<glyph unicode="&#xa4;" glyph-name="currency" horiz-adv-x="574" d="M81 99L36 143L91 199Q65 231 53 270T40 351Q40 392 52 432T91 501L36 555L82 602L139 546Q169 572 207 585T286 598Q326 598 365 585T432 546L489 602L536 555L481 501Q507 472 519 432T531
351Q531 309 519 270T481 199L535 143L491 99L435 157Q405 129 366 116T286 102Q245 102 206 115T136 157L81 99ZM286 173Q334 173 372 197T434 262T457 351Q457 398 434 437T372 501T286 526Q238 526 199 502T137 438T114 351Q114 303 137 263T199 198T286 173Z"
/>
<glyph unicode="&#xa5;" glyph-name="yen" horiz-adv-x="567" d="M232 0V155H37V224H232V294H37V363H198Q191 376 178 396T155 432L10 686H131L241 480Q249 465 257 449T272 419T286 393H291Q296 403 303 418T319 449T335 480L442 686H557L417 439Q406 420 393
399T372 363H530V294H338V224H530V155H338V0H232Z" />
<glyph unicode="&#xa6;" glyph-name="brokenbar" horiz-adv-x="245" d="M81 348V723H164V348H81ZM81 -187V188H164V-187H81Z" />
<glyph unicode="&#xa7;" glyph-name="section" horiz-adv-x="573" d="M282 -182Q230 -182 191 -172T124 -141T82 -95T67 -38Q67 -31 67 -25T69 -17H176V-24Q176 -39 181 -52T200 -76T234 -93T288 -99Q326 -99 350 -89T386 -61T399 -22Q399 4 381 22T331 55T263
82T189 111T121 148T71 200T52 274Q52 304 63 329T95 374T142 410Q110 432 89 463T67 541Q67 579 83 608T128 657T199 687T292 698Q344 698 383 688T451 657T493 611T507 554Q507 548 507 542T506 533H398V541Q398 555 392 568T374 592T340 608T286 614Q249 614
224 604T187 577T175 538Q175 512 194 494T243 461T311 434T385 405T453 368T503 316T522 242Q522 212 511 187T480 142T432 106Q465 84 486 53T507 -25Q507 -63 491 -92T446 -141T375 -171T282 -182ZM360 144Q386 156 402 175T418 220Q418 254 400 276T352 315T286
344T213 372Q188 359 172 340T156 295Q156 262 174 239T221 199T287 170T360 144Z" />
<glyph unicode="&#xa8;" glyph-name="dieresis" horiz-adv-x="295" d="M0 621V722H98V621H0ZM196 621V722H295V621H196Z" />
<glyph unicode="&#xa9;" glyph-name="copyright" horiz-adv-x="757" d="M379 -12Q302 -12 237 14T125 88T51 201T24 343Q24 420 50 485T124 597T237 671T379 698Q456 698 521 672T633 598T707 485T734 343Q734 266 708 201T634 89T521 15T379 -12ZM377 132Q320
132 281 153T223 221T203 342Q203 416 222 462T281 530T377 552Q430 552 465 535T517 481T535 389H468Q468 428 459 451T429 485T377 496Q325 496 298 461T271 353V331Q271 281 283 250T318 204T377 189Q409 189 430 200T461 235T471 295H535Q535 247 518 211T466
153T377 132ZM379 39Q466 39 534 78T640 186T679 343Q679 431 641 499T534 606T379 646Q291 646 223 607T116 499T77 343Q77 255 115 187T222 79T379 39Z" />
<glyph unicode="&#xaa;" glyph-name="ordfeminine" horiz-adv-x="390" d="M140 330Q118 330 93 338T51 367T33 428Q33 465 49 488T94 525T161 544T247 550V586Q247 602 242 614T223 634T183 642Q158 642 144 635T124 618T118 595V584H50Q49 587 49 592T49 600Q49
647 87 672T184 698Q228 698 257 686T301 649T315 592V412Q315 399 322 394T336 388H360V341Q352 338 340 336T313 333Q289 333 273 345T252 381H248Q231 357 205 344T140 330ZM158 387Q183 387 203 398T235 430T247 476V498Q205 499 173 494T123 474T105 433Q105
418 111 408T129 393T158 387Z" />
<glyph unicode="&#xab;" glyph-name="guillemotleft" horiz-adv-x="560" d="M215 126L65 326L215 526H295L173 326L295 126H215ZM419 126L269 326L419 526H500L377 326L500 126H419Z" />
<glyph unicode="&#xac;" glyph-name="logicalnot" horiz-adv-x="630" d="M467 196V364H69V448H551V196H467Z" />
<glyph unicode="&#xad;" glyph-name="uni00AD" horiz-adv-x="333" d="M40 220V320H293V220H40Z" />
<glyph unicode="&#xae;" glyph-name="registered" horiz-adv-x="757" d="M379 -12Q302 -12 237 14T125 88T51 201T24 343Q24 420 50 485T124 597T237 671T379 698Q456 698 521 672T633 598T707 485T734 343Q734 266 708 201T634 89T521 15T379 -12ZM379 39Q466
39 534 78T640 186T679 343Q679 431 641 499T534 606T379 646Q291 646 223 607T116 499T77 343Q77 255 115 187T222 79T379 39ZM236 137V549H422Q485 549 517 516T549 425Q549 385 531 354T477 308L564 137H492L413 296H302V137H236ZM302 354H416Q444 354 462 372T480
425Q480 458 463 475T416 492H302V354Z" />
<glyph unicode="&#xaf;" glyph-name="overscore" horiz-adv-x="303" d="M0 627V700H303V627H0Z" />
<glyph unicode="&#xb0;" glyph-name="degree" horiz-adv-x="400" d="M201 415Q162 415 130 433T78 484T59 556Q59 596 78 628T129 679T200 698Q240 698 272 679T323 628T342 556Q342 517 324 485T273 434T201 415ZM200 477Q234 477 256 500T279 556Q279 589 257
612T200 635Q168 635 145 612T121 556Q121 524 144 501T200 477Z" />
<glyph unicode="&#xb1;" glyph-name="plusminus" horiz-adv-x="630" d="M272 134V346H79V432H272V645H357V432H551V346H357V134H272ZM79 0V86H551V0H79Z" />
<glyph unicode="&#xb2;" glyph-name="uni00B2" horiz-adv-x="351" d="M48 440V464Q48 494 62 516T98 557T145 592Q178 616 205 640T232 696Q232 713 220 726T179 740Q158 740 146 734T127 715T121 687V665H54Q53 669 52 677T51 692Q51 730 69 753T117 788T182
799Q226 799 252 783T289 743T301 694Q301 667 292 646T266 608T230 577T191 549Q174 537 159 526T133 502H303V440H48Z" />
<glyph unicode="&#xb3;" glyph-name="uni00B3" horiz-adv-x="351" d="M176 428Q112 428 78 457T44 538V547H112V537Q112 512 128 499T173 486Q192 486 206 491T227 508T235 537Q235 557 226 567T202 582T170 587H133V646H172Q188 646 200 651T220 667T228 695Q228
711 221 721T202 736T176 741Q160 741 148 736T128 720T120 693V682H51V696Q51 727 67 750T111 786T175 799Q211 799 238 788T281 754T297 698Q297 670 283 652T246 622V618Q273 608 289 587T305 533Q305 501 289 477T243 441T176 428Z" />
<glyph unicode="&#xb4;" glyph-name="acute" horiz-adv-x="197" d="M0 591L84 723H196L197 720L88 591H0Z" />
<glyph unicode="&#xb5;" glyph-name="uni00B5" horiz-adv-x="577" d="M67 -182V526H171V183Q171 153 178 133T199 101T232 84T275 79Q310 79 340 96T388 145T406 218V526H510V0H424L415 75H408Q391 45 369 26T319 -3T260 -12Q232 -12 208 -5T166 19Q169 3 170
-18T171 -59V-182H67Z" />
<glyph unicode="&#xb6;" glyph-name="paragraph" horiz-adv-x="577" d="M257 -169V252Q202 254 155 279T78 352T48 468Q48 545 80 593T166 663T286 686H538V628H476V-169H400V628H332V-169H257Z" />
<glyph unicode="&#xb7;" glyph-name="middot" horiz-adv-x="333" d="M110 298V415H223V298H110Z" />
<glyph unicode="&#xb8;" glyph-name="cedilla" horiz-adv-x="220" d="M96 -179Q72 -179 47 -177T0 -171V-127H94Q114 -127 124 -121T135 -101Q135 -89 127 -83T95 -77H48L63 11H131L125 -36Q151 -37 172 -44T207 -64T220 -101Q220 -125 208 -140T178 -163T138
-175T96 -179Z" />
<glyph unicode="&#xb9;" glyph-name="uni00B9" horiz-adv-x="351" d="M62 440V502H148V707H62V753Q81 754 102 759T144 773T181 793H217V502H295V440H62Z" />
<glyph unicode="&#xba;" glyph-name="ordmasculine" horiz-adv-x="385" d="M192 330Q141 330 105 350T51 411T33 515Q33 578 51 618T105 678T193 698Q246 698 281 679T335 619T353 515Q353 452 335 411T281 350T192 330ZM193 388Q242 388 261 420T281 508V518Q281
577 261 608T193 639Q146 639 126 609T106 520V508Q106 453 125 421T193 388Z" />
<glyph unicode="&#xbb;" glyph-name="guillemotright" horiz-adv-x="560" d="M345 526L495 326L345 126H264L387 326L264 526H345ZM140 526L290 326L140 126H60L182 326L60 526H140Z" />
<glyph unicode="&#xbc;" glyph-name="onequarter" horiz-adv-x="850" d="M115 -12L661 698H737L191 -12H115ZM62 340V402H148V607H62V653Q81 654 102 659T144 673T181 693H217V402H295V340H62ZM663 0V76H505V130Q535 180 557 237T595 359H668Q661 326 649 293T623
228T596 173T573 135H663V210Q668 222 673 236T683 264T691 292H731V135H774V76H731V0H663Z" />
<glyph unicode="&#xbd;" glyph-name="onehalf" horiz-adv-x="850" d="M115 -12L661 698H737L191 -12H115ZM534 0V24Q534 54 548 76T584 117T630 152Q664 176 691 200T718 256Q718 273 705 286T665 300Q644 300 631 294T612 275T606 247V225H540Q539 229 538 237T537
252Q537 290 555 313T603 348T668 359Q712 359 738 343T775 303T787 254Q787 227 777 206T751 168T716 137T676 109Q660 97 644 86T619 62H789V0H534ZM62 340V402H148V607H62V653Q81 654 102 659T144 673T181 693H217V402H295V340H62Z" />
<glyph unicode="&#xbe;" glyph-name="threequarters" horiz-adv-x="850" d="M115 -12L661 698H737L191 -12H115ZM176 328Q112 328 78 357T44 438V447H112V437Q112 412 128 399T173 386Q192 386 206 391T227 408T235 437Q235 457 226 467T202 482T170 487H133V546H172Q188
546 200 551T220 567T228 595Q228 611 221 621T202 636T176 641Q160 641 148 636T128 620T120 593V582H51V596Q51 627 67 650T111 686T175 699Q211 699 238 688T281 654T297 598Q297 570 283 552T246 522V518Q273 508 289 487T305 433Q305 401 289 377T243 341T176
328ZM663 0V76H505V130Q535 180 557 237T595 359H668Q661 326 649 293T623 228T596 173T573 135H663V210Q668 222 673 236T683 264T691 292H731V135H774V76H731V0H663Z" />
<glyph unicode="&#xbf;" glyph-name="questiondown" horiz-adv-x="595" d="M294 -172Q249 -172 213 -163T152 -136T109 -97T84 -48T75 6Q75 53 88 85T122 140T165 180T209 214T243 251T256 302V342H354V290Q354 251 342 224T311 177T271 141T231 108T200 70T187
18Q187 7 190 -9T205 -42T240 -69T302 -80Q343 -80 368 -67T405 -35T422 5T426 38Q426 46 426 53T425 65H531Q532 60 533 51T534 31Q534 3 526 -26T500 -81T454 -127T386 -160T294 -172ZM250 410V526H360V410H250Z" />
<glyph unicode="&#xc0;" glyph-name="Agrave" horiz-adv-x="695" d="M6 0L275 686H418L688 0H568L507 159H182L121 0H6ZM218 254H470L393 455Q390 464 384 480T372 515T359 553T347 589H341Q335 570 326 544T309 494T294 455L218 254ZM404 736H311L202 865L203
868H320L404 736Z" />
<glyph unicode="&#xc1;" glyph-name="Aacute" horiz-adv-x="695" d="M6 0L275 686H418L688 0H568L507 159H182L121 0H6ZM218 254H470L393 455Q390 464 384 480T372 515T359 553T347 589H341Q335 570 326 544T309 494T294 455L218 254ZM298 736L382 868H499L500
865L391 736H298Z" />
<glyph unicode="&#xc2;" glyph-name="Acircumflex" horiz-adv-x="695" d="M6 0L275 686H418L688 0H568L507 159H182L121 0H6ZM218 254H470L393 455Q390 464 384 480T372 515T359 553T347 589H341Q335 570 326 544T309 494T294 455L218 254ZM189 736L294 868H401L506
736H409L323 843L373 842L286 736H189Z" />
<glyph unicode="&#xc3;" glyph-name="Atilde" horiz-adv-x="695" d="M6 0L275 686H418L688 0H568L507 159H182L121 0H6ZM218 254H470L393 455Q390 464 384 480T372 515T359 553T347 589H341Q335 570 326 544T309 494T294 455L218 254ZM185 762Q185 791 194 815T224
854T275 869Q301 869 324 861T369 844T415 835Q429 835 437 843T448 869H510Q509 840 500 816T471 777T419 762Q394 762 371 771T325 788T281 797Q266 797 258 789T247 762H185Z" />
<glyph unicode="&#xc4;" glyph-name="Adieresis" horiz-adv-x="695" d="M6 0L275 686H418L688 0H568L507 159H182L121 0H6ZM218 254H470L393 455Q390 464 384 480T372 515T359 553T347 589H341Q335 570 326 544T309 494T294 455L218 254ZM200 766V867H299V766H200ZM397
766V867H495V766H397Z" />
<glyph unicode="&#xc5;" glyph-name="Aring" horiz-adv-x="695" d="M6 0L275 686H418L688 0H568L507 159H182L121 0H6ZM218 254H470L393 455Q390 464 384 480T372 515T359 553T347 589H341Q335 570 326 544T309 494T294 455L218 254ZM348 729Q303 729 275 756T246
825Q246 868 274 895T348 922Q392 922 420 895T449 825Q449 784 421 757T348 729ZM348 780Q368 780 381 793T395 825Q395 845 382 858T348 871Q327 871 314 858T300 825Q300 806 313 793T348 780Z" />
<glyph unicode="&#xc6;" glyph-name="AE" horiz-adv-x="999" d="M-4 0L338 686H938V590H512L562 399H894V303H588L642 96H944V0H553L512 161H190L112 0H-4ZM235 255H488L417 526Q416 533 414 541T410 557T406 572T402 587H396Q392 580 389 573T381 557T374 541T366
526L235 255Z" />
<glyph unicode="&#xc7;" glyph-name="Ccedilla" horiz-adv-x="725" d="M378 -12Q273 -12 200 25T87 142T48 343Q48 523 135 610T379 698Q465 698 533 669T641 583T681 436H567Q567 491 544 528T479 584T380 603Q310 603 262 576T189 493T164 353V331Q164 246 188
191T261 110T380 83Q438 83 481 101T547 157T571 249H681Q681 160 642 102T534 16T378 -12ZM378 -179Q354 -179 329 -177T282 -171V-127H376Q395 -127 406 -121T417 -101Q417 -89 409 -83T377 -77H330L345 11H413L406 -36Q432 -37 454 -44T488 -64T501 -101Q501
-125 490 -140T460 -163T420 -175T378 -179Z" />
<glyph unicode="&#xc8;" glyph-name="Egrave" horiz-adv-x="674" d="M81 0V686H613V590H193V399H569V303H193V96H619V0H81ZM407 736H315L205 865L206 868H323L407 736Z" />
<glyph unicode="&#xc9;" glyph-name="Eacute" horiz-adv-x="674" d="M81 0V686H613V590H193V399H569V303H193V96H619V0H81ZM302 736L386 868H503V865L394 736H302Z" />
<glyph unicode="&#xca;" glyph-name="Ecircumflex" horiz-adv-x="674" d="M81 0V686H613V590H193V399H569V303H193V96H619V0H81ZM192 736L298 868H405L510 736H412L327 843L376 842L290 736H192Z" />
<glyph unicode="&#xcb;" glyph-name="Edieresis" horiz-adv-x="674" d="M81 0V686H613V590H193V399H569V303H193V96H619V0H81ZM204 766V867H302V766H204ZM400 766V867H499V766H400Z" />
<glyph unicode="&#xcc;" glyph-name="Igrave" horiz-adv-x="274" d="M81 0V686H193V0H81ZM193 736H101L-9 865L-8 868H109L193 736Z" />
<glyph unicode="&#xcd;" glyph-name="Iacute" horiz-adv-x="274" d="M81 0V686H193V0H81ZM88 736L172 868H288L289 865L180 736H88Z" />
<glyph unicode="&#xce;" glyph-name="Icircumflex" horiz-adv-x="274" d="M81 0V686H193V0H81ZM-22 736L84 868H191L296 736H198L113 843L162 842L76 736H-22Z" />
<glyph unicode="&#xcf;" glyph-name="Idieresis" horiz-adv-x="274" d="M81 0V686H193V0H81ZM-10 766V867H88V766H-10ZM186 766V867H285V766H186Z" />
<glyph unicode="&#xd0;" glyph-name="Eth" horiz-adv-x="731" d="M0 304V392H374V304H0ZM81 0V686H346Q452 686 527 650T642 538T683 343Q683 225 643 149T527 37T346 0H81ZM193 96H345Q398 96 439 110T509 153T552 226T567 332V353Q567 415 553 459T510 533T440
576T345 590H193V96Z" />
<glyph unicode="&#xd1;" glyph-name="Ntilde" horiz-adv-x="734" d="M81 0V686H189L502 256Q508 250 515 239T530 217T540 199H545Q545 214 545 228T545 256V686H653V0H549L232 435Q224 447 212 465T194 494H189Q189 480 189 466T189 435V0H81ZM205 762Q206 791
215 815T244 854T295 869Q321 869 344 861T390 844T435 835Q450 835 458 843T468 869H530Q530 840 521 816T492 777T440 762Q415 762 392 771T346 788T301 797Q287 797 279 789T268 762H205Z" />
<glyph unicode="&#xd2;" glyph-name="Ograve" horiz-adv-x="785" d="M392 -12Q286 -12 209 27T90 145T48 343Q48 463 89 541T208 659T392 698Q500 698 577 659T695 542T737 343Q737 224 696 145T577 27T392 -12ZM392 83Q447 83 489 98T561 144T606 222T622 331V353Q622
417 607 464T562 542T490 588T392 603Q338 603 296 588T224 542T179 464T164 353V331Q164 269 179 222T223 144T295 98T392 83ZM448 736H356L246 865L247 868H364L448 736Z" />
<glyph unicode="&#xd3;" glyph-name="Oacute" horiz-adv-x="785" d="M392 -12Q286 -12 209 27T90 145T48 343Q48 463 89 541T208 659T392 698Q500 698 577 659T695 542T737 343Q737 224 696 145T577 27T392 -12ZM392 83Q447 83 489 98T561 144T606 222T622 331V353Q622
417 607 464T562 542T490 588T392 603Q338 603 296 588T224 542T179 464T164 353V331Q164 269 179 222T223 144T295 98T392 83ZM342 736L426 868H543L544 865L435 736H342Z" />
<glyph unicode="&#xd4;" glyph-name="Ocircumflex" horiz-adv-x="785" d="M392 -12Q286 -12 209 27T90 145T48 343Q48 463 89 541T208 659T392 698Q500 698 577 659T695 542T737 343Q737 224 696 145T577 27T392 -12ZM392 83Q447 83 489 98T561 144T606 222T622
331V353Q622 417 607 464T562 542T490 588T392 603Q338 603 296 588T224 542T179 464T164 353V331Q164 269 179 222T223 144T295 98T392 83ZM233 736L339 868H445L551 736H453L367 843L417 842L331 736H233Z" />
<glyph unicode="&#xd5;" glyph-name="Otilde" horiz-adv-x="785" d="M392 -12Q286 -12 209 27T90 145T48 343Q48 463 89 541T208 659T392 698Q500 698 577 659T695 542T737 343Q737 224 696 145T577 27T392 -12ZM392 83Q447 83 489 98T561 144T606 222T622 331V353Q622
417 607 464T562 542T490 588T392 603Q338 603 296 588T224 542T179 464T164 353V331Q164 269 179 222T223 144T295 98T392 83ZM229 762Q230 791 239 815T268 854T319 869Q345 869 368 861T414 844T459 835Q474 835 482 843T492 869H554Q554 840 545 816T516 777T464
762Q439 762 416 771T370 788T325 797Q311 797 303 789T292 762H229Z" />
<glyph unicode="&#xd6;" glyph-name="Odieresis" horiz-adv-x="785" d="M392 -12Q286 -12 209 27T90 145T48 343Q48 463 89 541T208 659T392 698Q500 698 577 659T695 542T737 343Q737 224 696 145T577 27T392 -12ZM392 83Q447 83 489 98T561 144T606 222T622
331V353Q622 417 607 464T562 542T490 588T392 603Q338 603 296 588T224 542T179 464T164 353V331Q164 269 179 222T223 144T295 98T392 83ZM245 766V867H343V766H245ZM441 766V867H539V766H441Z" />
<glyph unicode="&#xd7;" glyph-name="multiply" horiz-adv-x="630" d="M165 43L104 105L254 255L104 405L164 466L315 316L466 467L527 405L375 254L526 105L465 44L315 194L165 43Z" />
<glyph unicode="&#xd8;" glyph-name="Oslash" horiz-adv-x="785" d="M392 -12Q286 -12 209 27T90 145T48 343Q48 463 89 541T208 659T392 698Q500 698 577 659T695 542T737 343Q737 224 696 145T577 27T392 -12ZM392 83Q447 83 489 98T561 144T606 222T622 331V353Q622
417 607 464T562 542T490 588T392 603Q338 603 296 588T224 542T179 464T164 353V331Q164 269 179 222T223 144T295 98T392 83ZM53 -49L640 735H731L144 -49H53Z" />
<glyph unicode="&#xd9;" glyph-name="Ugrave" horiz-adv-x="728" d="M362 -12Q274 -12 210 16T112 105T78 257V686H190V254Q190 169 235 126T362 83Q445 83 491 126T538 254V686H650V257Q650 165 616 105T517 17T362 -12ZM420 736H327L218 865L219 868H336L420 736Z" />
<glyph unicode="&#xda;" glyph-name="Uacute" horiz-adv-x="728" d="M362 -12Q274 -12 210 16T112 105T78 257V686H190V254Q190 169 235 126T362 83Q445 83 491 126T538 254V686H650V257Q650 165 616 105T517 17T362 -12ZM314 736L398 868H515L516 865L407 736H314Z" />
<glyph unicode="&#xdb;" glyph-name="Ucircumflex" horiz-adv-x="728" d="M362 -12Q274 -12 210 16T112 105T78 257V686H190V254Q190 169 235 126T362 83Q445 83 491 126T538 254V686H650V257Q650 165 616 105T517 17T362 -12ZM205 736L311 868H417L522 736H425L339
843L389 842L302 736H205Z" />
<glyph unicode="&#xdc;" glyph-name="Udieresis" horiz-adv-x="728" d="M362 -12Q274 -12 210 16T112 105T78 257V686H190V254Q190 169 235 126T362 83Q445 83 491 126T538 254V686H650V257Q650 165 616 105T517 17T362 -12ZM216 766V867H315V766H216ZM413 766V867H511V766H413Z"
/>
<glyph unicode="&#xdd;" glyph-name="Yacute" horiz-adv-x="666" d="M277 0V282L10 686H138L334 382H339L533 686H656L389 282V0H277ZM284 736L368 868H485L486 865L377 736H284Z" />
<glyph unicode="&#xde;" glyph-name="Thorn" horiz-adv-x="684" d="M83 0V686H194V571H414Q488 571 536 544T609 469T633 357Q633 291 607 242T532 166T412 139H194V0H83ZM194 234H407Q460 234 490 267T521 357Q521 394 508 420T470 461T407 475H194V234Z" />
<glyph unicode="&#xdf;" glyph-name="germandbls" horiz-adv-x="622" d="M77 0V514Q77 573 96 615T149 683T227 722T322 735Q378 735 420 722T492 685T537 629T552 557Q552 499 521 456T436 396V392Q503 374 540 325T578 207Q578 144 551 98T474 26T359 0H259V86H349Q386
86 413 102T456 146T472 214Q472 251 456 279T412 323T347 339H259V429H339Q370 429 394 444T432 485T446 543Q446 590 415 620T321 650Q278 650 247 635T199 591T181 519V0H77Z" />
<glyph unicode="&#xe0;" glyph-name="agrave" horiz-adv-x="550" d="M200 -12Q175 -12 146 -6T92 16T50 60T34 135Q34 189 59 224T129 279T236 307T373 315V367Q373 393 365 413T334 444T269 455Q227 455 204 445T171 419T161 385V370H61Q60 375 60 380T60 392Q60
439 86 471T161 521T272 538Q340 538 385 519T454 463T477 376V109Q477 90 486 82T509 74H545V4Q533 -1 515 -6T473 -11Q446 -11 428 -2T398 25T382 65H376Q358 42 333 25T274 -2T200 -12ZM229 74Q260 74 286 83T332 110T362 152T373 206V241Q304 241 252 233T171
204T142 144Q142 121 152 106T182 82T229 74ZM330 591H242L133 720L134 723H246L330 591Z" />
<glyph unicode="&#xe1;" glyph-name="aacute" horiz-adv-x="550" d="M200 -12Q175 -12 146 -6T92 16T50 60T34 135Q34 189 59 224T129 279T236 307T373 315V367Q373 393 365 413T334 444T269 455Q227 455 204 445T171 419T161 385V370H61Q60 375 60 380T60 392Q60
439 86 471T161 521T272 538Q340 538 385 519T454 463T477 376V109Q477 90 486 82T509 74H545V4Q533 -1 515 -6T473 -11Q446 -11 428 -2T398 25T382 65H376Q358 42 333 25T274 -2T200 -12ZM229 74Q260 74 286 83T332 110T362 152T373 206V241Q304 241 252 233T171
204T142 144Q142 121 152 106T182 82T229 74ZM211 591L295 723H408L409 720L300 591H211Z" />
<glyph unicode="&#xe2;" glyph-name="acircumflex" horiz-adv-x="550" d="M200 -12Q175 -12 146 -6T92 16T50 60T34 135Q34 189 59 224T129 279T236 307T373 315V367Q373 393 365 413T334 444T269 455Q227 455 204 445T171 419T161 385V370H61Q60 375 60 380T60
392Q60 439 86 471T161 521T272 538Q340 538 385 519T454 463T477 376V109Q477 90 486 82T509 74H545V4Q533 -1 515 -6T473 -11Q446 -11 428 -2T398 25T382 65H376Q358 42 333 25T274 -2T200 -12ZM229 74Q260 74 286 83T332 110T362 152T373 206V241Q304 241 252
233T171 204T142 144Q142 121 152 106T182 82T229 74ZM115 591L221 723H319L424 591H331L245 698L294 697L208 591H115Z" />
<glyph unicode="&#xe3;" glyph-name="atilde" horiz-adv-x="550" d="M200 -12Q175 -12 146 -6T92 16T50 60T34 135Q34 189 59 224T129 279T236 307T373 315V367Q373 393 365 413T334 444T269 455Q227 455 204 445T171 419T161 385V370H61Q60 375 60 380T60 392Q60
439 86 471T161 521T272 538Q340 538 385 519T454 463T477 376V109Q477 90 486 82T509 74H545V4Q533 -1 515 -6T473 -11Q446 -11 428 -2T398 25T382 65H376Q358 42 333 25T274 -2T200 -12ZM229 74Q260 74 286 83T332 110T362 152T373 206V241Q304 241 252 233T171
204T142 144Q142 121 152 106T182 82T229 74ZM107 614Q107 644 116 668T146 707T197 722Q223 722 246 714T291 696T337 687Q351 687 359 695T370 722H431Q431 693 422 669T393 629T341 614Q316 614 293 623T247 641T202 650Q188 650 180 641T169 614H107Z" />
<glyph unicode="&#xe4;" glyph-name="adieresis" horiz-adv-x="550" d="M200 -12Q175 -12 146 -6T92 16T50 60T34 135Q34 189 59 224T129 279T236 307T373 315V367Q373 393 365 413T334 444T269 455Q227 455 204 445T171 419T161 385V370H61Q60 375 60 380T60
392Q60 439 86 471T161 521T272 538Q340 538 385 519T454 463T477 376V109Q477 90 486 82T509 74H545V4Q533 -1 515 -6T473 -11Q446 -11 428 -2T398 25T382 65H376Q358 42 333 25T274 -2T200 -12ZM229 74Q260 74 286 83T332 110T362 152T373 206V241Q304 241 252
233T171 204T142 144Q142 121 152 106T182 82T229 74ZM121 621V722H220V621H121ZM318 621V722H417V621H318Z" />
<glyph unicode="&#xe5;" glyph-name="aring" horiz-adv-x="550" d="M200 -12Q175 -12 146 -6T92 16T50 60T34 135Q34 189 59 224T129 279T236 307T373 315V367Q373 393 365 413T334 444T269 455Q227 455 204 445T171 419T161 385V370H61Q60 375 60 380T60 392Q60
439 86 471T161 521T272 538Q340 538 385 519T454 463T477 376V109Q477 90 486 82T509 74H545V4Q533 -1 515 -6T473 -11Q446 -11 428 -2T398 25T382 65H376Q358 42 333 25T274 -2T200 -12ZM229 74Q260 74 286 83T332 110T362 152T373 206V241Q304 241 252 233T171
204T142 144Q142 121 152 106T182 82T229 74ZM270 579Q228 579 201 606T173 675Q173 718 200 745T270 772Q312 772 339 745T367 675Q367 634 340 607T270 579ZM270 628Q290 628 303 641T317 675Q317 696 304 710T270 724Q249 724 236 710T222 675Q222 655 235 642T270
628Z" />
<glyph unicode="&#xe6;" glyph-name="ae" horiz-adv-x="894" d="M224 -12Q196 -12 163 -6T101 16T53 60T34 135Q34 189 60 224T133 278T245 306T387 314V367Q387 393 378 413T344 444T274 455Q230 455 205 445T171 419T161 385V370H61Q60 375 60 380T60 392Q60
439 87 471T163 521T277 538Q341 538 385 521T454 471Q484 505 528 521T629 538Q703 538 753 510T829 424T855 278V238H492Q494 181 508 144T552 89T629 71Q657 71 679 78T718 100T743 135T752 182H854Q854 135 838 99T791 39T720 1T627 -12Q560 -12 512 9T434
75Q409 44 377 25T306 -3T224 -12ZM235 72Q268 72 295 81T343 108T375 150T387 206V238Q315 238 259 231T173 203T142 144Q142 120 153 104T185 80T235 72ZM494 314H747Q747 353 738 379T714 423T676 447T628 454Q586 454 557 440T513 394T494 314Z" />
<glyph unicode="&#xe7;" glyph-name="ccedilla" horiz-adv-x="532" d="M276 -12Q197 -12 144 17T65 108T38 263Q38 357 65 417T145 508T277 538Q331 538 371 525T439 485T480 419T494 330H389Q389 372 377 399T340 439T275 453Q233 453 204 434T160 375T145 271V254Q145
193 159 153T203 93T279 73Q319 73 343 87T380 129T393 196H494Q494 149 481 111T440 46T371 3T276 -12ZM266 -179Q242 -179 217 -177T170 -171V-127H264Q284 -127 295 -121T306 -101Q306 -89 298 -83T266 -77H218L233 11H301L295 -36Q321 -37 342 -44T377 -64T390
-101Q390 -125 378 -140T348 -163T308 -175T266 -179Z" />
<glyph unicode="&#xe8;" glyph-name="egrave" horiz-adv-x="554" d="M285 -12Q204 -12 150 17T67 108T39 263Q39 358 67 418T150 508T287 538Q362 538 412 510T489 423T515 277V237H146Q148 181 163 144T208 89T286 71Q315 71 338 78T377 100T402 135T411 182H513Q513
135 497 99T451 39T378 1T285 -12ZM148 313H406Q406 352 398 378T373 422T335 446T285 454Q243 454 214 439T168 393T148 313ZM345 591H257L148 720L149 723H261L345 591Z" />
<glyph unicode="&#xe9;" glyph-name="eacute" horiz-adv-x="554" d="M285 -12Q204 -12 150 17T67 108T39 263Q39 358 67 418T150 508T287 538Q362 538 412 510T489 423T515 277V237H146Q148 181 163 144T208 89T286 71Q315 71 338 78T377 100T402 135T411 182H513Q513
135 497 99T451 39T378 1T285 -12ZM148 313H406Q406 352 398 378T373 422T335 446T285 454Q243 454 214 439T168 393T148 313ZM226 591L310 723H423L424 720L315 591H226Z" />
<glyph unicode="&#xea;" glyph-name="ecircumflex" horiz-adv-x="554" d="M285 -12Q204 -12 150 17T67 108T39 263Q39 358 67 418T150 508T287 538Q362 538 412 510T489 423T515 277V237H146Q148 181 163 144T208 89T286 71Q315 71 338 78T377 100T402 135T411
182H513Q513 135 497 99T451 39T378 1T285 -12ZM148 313H406Q406 352 398 378T373 422T335 446T285 454Q243 454 214 439T168 393T148 313ZM130 591L236 723H334L439 591H346L260 698L309 697L223 591H130Z" />
<glyph unicode="&#xeb;" glyph-name="edieresis" horiz-adv-x="554" d="M285 -12Q204 -12 150 17T67 108T39 263Q39 358 67 418T150 508T287 538Q362 538 412 510T489 423T515 277V237H146Q148 181 163 144T208 89T286 71Q315 71 338 78T377 100T402 135T411 182H513Q513
135 497 99T451 39T378 1T285 -12ZM148 313H406Q406 352 398 378T373 422T335 446T285 454Q243 454 214 439T168 393T148 313ZM136 621V722H235V621H136ZM333 621V722H432V621H333Z" />
<glyph unicode="&#xec;" glyph-name="igrave" horiz-adv-x="238" d="M67 0V526H171V0H67ZM179 591H91L-18 720L-17 723H95L179 591Z" />
<glyph unicode="&#xed;" glyph-name="iacute" horiz-adv-x="238" d="M67 0V526H171V0H67ZM60 591L144 723H257L258 720L148 591H60Z" />
<glyph unicode="&#xee;" glyph-name="icircumflex" horiz-adv-x="238" d="M67 0V526H171V0H67ZM-36 591L69 723H167L273 591H180L94 698L143 697L57 591H-36Z" />
<glyph unicode="&#xef;" glyph-name="idieresis" horiz-adv-x="238" d="M67 0V526H171V0H67ZM-30 621V722H68V621H-30ZM167 621V722H266V621H167Z" />
<glyph unicode="&#xf0;" glyph-name="eth" horiz-adv-x="589" d="M294 -12Q212 -12 156 17T72 106T44 261Q44 350 70 410T146 502T266 533Q289 533 310 529T351 516L354 519Q338 542 321 564T283 608L128 596V659L225 666Q209 680 193 693T159 719L162 723H286Q297
715 307 707T326 691T346 674L496 686V623L405 616Q450 567 481 512T529 394T546 261Q546 167 518 107T433 17T294 -12ZM295 74Q344 74 375 93T422 152T438 252V269Q438 331 423 370T376 428T295 447Q245 447 214 428T167 370T151 270V253Q151 192 166 153T213
94T295 74Z" />
<glyph unicode="&#xf1;" glyph-name="ntilde" horiz-adv-x="573" d="M67 0V526H153L162 451H169Q188 480 214 499T271 528T341 538Q391 538 429 521T488 464T510 359V0H406V343Q406 373 399 393T377 425T344 442T302 447Q266 447 237 430T189 381T171 308V0H67ZM125
614Q126 644 135 668T164 707T215 722Q241 722 264 714T310 696T355 687Q370 687 378 695T388 722H450Q450 693 441 669T411 629T360 614Q335 614 312 623T266 641T221 650Q207 650 198 641T187 614H125Z" />
<glyph unicode="&#xf2;" glyph-name="ograve" horiz-adv-x="583" d="M291 -12Q209 -12 153 17T68 108T39 263Q39 358 67 418T152 508T291 538Q375 538 431 509T515 419T544 263Q544 169 516 108T431 18T291 -12ZM291 74Q341 74 373 93T420 153T436 254V272Q436
333 421 373T373 432T291 452Q242 452 210 433T163 373T147 272V254Q147 193 162 153T210 94T291 74ZM352 591H264L155 720L156 723H268L352 591Z" />
<glyph unicode="&#xf3;" glyph-name="oacute" horiz-adv-x="583" d="M291 -12Q209 -12 153 17T68 108T39 263Q39 358 67 418T152 508T291 538Q375 538 431 509T515 419T544 263Q544 169 516 108T431 18T291 -12ZM291 74Q341 74 373 93T420 153T436 254V272Q436
333 421 373T373 432T291 452Q242 452 210 433T163 373T147 272V254Q147 193 162 153T210 94T291 74ZM233 591L317 723H430L431 720L321 591H233Z" />
<glyph unicode="&#xf4;" glyph-name="ocircumflex" horiz-adv-x="583" d="M291 -12Q209 -12 153 17T68 108T39 263Q39 358 67 418T152 508T291 538Q375 538 431 509T515 419T544 263Q544 169 516 108T431 18T291 -12ZM291 74Q341 74 373 93T420 153T436 254V272Q436
333 421 373T373 432T291 452Q242 452 210 433T163 373T147 272V254Q147 193 162 153T210 94T291 74ZM137 591L242 723H340L446 591H353L267 698L316 697L230 591H137Z" />
<glyph unicode="&#xf5;" glyph-name="otilde" horiz-adv-x="583" d="M291 -12Q209 -12 153 17T68 108T39 263Q39 358 67 418T152 508T291 538Q375 538 431 509T515 419T544 263Q544 169 516 108T431 18T291 -12ZM291 74Q341 74 373 93T420 153T436 254V272Q436
333 421 373T373 432T291 452Q242 452 210 433T163 373T147 272V254Q147 193 162 153T210 94T291 74ZM129 614Q129 644 138 668T167 707T218 722Q244 722 267 714T313 696T358 687Q373 687 381 695T391 722H453Q453 693 444 669T415 629T363 614Q338 614 315 623T269
641T224 650Q210 650 202 641T191 614H129Z" />
<glyph unicode="&#xf6;" glyph-name="odieresis" horiz-adv-x="583" d="M291 -12Q209 -12 153 17T68 108T39 263Q39 358 67 418T152 508T291 538Q375 538 431 509T515 419T544 263Q544 169 516 108T431 18T291 -12ZM291 74Q341 74 373 93T420 153T436 254V272Q436
333 421 373T373 432T291 452Q242 452 210 433T163 373T147 272V254Q147 193 162 153T210 94T291 74ZM143 621V722H242V621H143ZM340 621V722H439V621H340Z" />
<glyph unicode="&#xf7;" glyph-name="divide" horiz-adv-x="630" d="M79 212V299H551V212H79ZM263 13V111H365V13H263ZM263 401V499H365V401H263Z" />
<glyph unicode="&#xf8;" glyph-name="oslash" horiz-adv-x="583" d="M291 -12Q209 -12 153 17T68 108T39 263Q39 358 67 418T152 508T291 538Q375 538 431 509T515 419T544 263Q544 169 516 108T431 18T291 -12ZM291 74Q341 74 373 93T420 153T436 254V272Q436
333 421 373T373 432T291 452Q242 452 210 433T163 373T147 272V254Q147 193 162 153T210 94T291 74ZM32 -48L477 576H550L107 -48H32Z" />
<glyph unicode="&#xf9;" glyph-name="ugrave" horiz-adv-x="572" d="M232 -12Q156 -12 109 28T62 167V526H166V183Q166 153 173 133T195 101T228 84T270 79Q306 79 335 96T383 145T401 218V526H505V0H420L411 75H404Q385 46 359 27T302 -2T232 -12ZM347 591H259L150
720L151 723H263L347 591Z" />
<glyph unicode="&#xfa;" glyph-name="uacute" horiz-adv-x="572" d="M232 -12Q156 -12 109 28T62 167V526H166V183Q166 153 173 133T195 101T228 84T270 79Q306 79 335 96T383 145T401 218V526H505V0H420L411 75H404Q385 46 359 27T302 -2T232 -12ZM228 591L312
723H425L426 720L316 591H228Z" />
<glyph unicode="&#xfb;" glyph-name="ucircumflex" horiz-adv-x="572" d="M232 -12Q156 -12 109 28T62 167V526H166V183Q166 153 173 133T195 101T228 84T270 79Q306 79 335 96T383 145T401 218V526H505V0H420L411 75H404Q385 46 359 27T302 -2T232 -12ZM132 591L237
723H335L441 591H348L262 698L311 697L225 591H132Z" />
<glyph unicode="&#xfc;" glyph-name="udieresis" horiz-adv-x="572" d="M232 -12Q156 -12 109 28T62 167V526H166V183Q166 153 173 133T195 101T228 84T270 79Q306 79 335 96T383 145T401 218V526H505V0H420L411 75H404Q385 46 359 27T302 -2T232 -12ZM138 621V722H236V621H138ZM335
621V722H434V621H335Z" />
<glyph unicode="&#xfd;" glyph-name="yacute" horiz-adv-x="516" d="M124 -182Q94 -182 74 -178T49 -172V-97H99Q121 -97 143 -87T184 -55T214 0L9 526H118L220 264Q227 246 235 219T252 164T267 114H272Q277 129 282 148T294 189T306 229T316 263L401 526H507L329
20Q314 -22 296 -59T255 -123T199 -166T124 -182ZM210 591L294 723H406L407 720L298 591H210Z" />
<glyph unicode="&#xfe;" glyph-name="thorn" horiz-adv-x="576" d="M67 -173V731H171V462H177Q194 488 218 505T272 530T337 538Q397 538 442 509T512 420T537 264Q537 168 512 107T441 17T335 -12Q300 -12 271 -4T218 21T177 64H171V-173H67ZM301 78Q345 78 373
96T415 152T429 253V271Q429 333 416 372T375 429T301 448Q271 448 247 439T206 408T180 353T171 271V256Q171 199 184 159T227 99T301 78Z" />
<glyph unicode="&#xff;" glyph-name="ydieresis" horiz-adv-x="516" d="M124 -182Q94 -182 74 -178T49 -172V-97H99Q121 -97 143 -87T184 -55T214 0L9 526H118L220 264Q227 246 235 219T252 164T267 114H272Q277 129 282 148T294 189T306 229T316 263L401 526H507L329
20Q314 -22 296 -59T255 -123T199 -166T124 -182ZM120 621V722H218V621H120ZM316 621V722H415V621H316Z" />
<glyph unicode="&#x2013;" glyph-name="endash" horiz-adv-x="500" d="M0 230V311H500V230H0Z" />
<glyph unicode="&#x2014;" glyph-name="emdash" horiz-adv-x="1000" d="M0 230V311H1000V230H0Z" />
<glyph unicode="&#x2018;" glyph-name="quoteleft" horiz-adv-x="258" d="M191 686V640Q169 636 156 621T136 582T129 532H182V416H71V521Q71 579 88 613T133 664T191 686Z" />
<glyph unicode="&#x2019;" glyph-name="quoteright" horiz-adv-x="258" d="M67 416V462Q89 466 103 481T123 520T129 570H76V686H188V581Q188 524 170 490T125 439T67 416Z" />
<glyph unicode="&#x201a;" glyph-name="quotesinglbase" horiz-adv-x="258" d="M67 -154V-109Q89 -105 103 -90T123 -51T129 0H76V116H188V11Q188 -47 170 -81T125 -131T67 -154Z" />
<glyph unicode="&#x201c;" glyph-name="quotedblleft" horiz-adv-x="435" d="M368 686V640Q346 636 333 621T313 582T306 532H359V416H248V521Q248 579 265 613T310 664T368 686ZM191 686V640Q169 636 156 621T136 582T129 532H182V416H71V521Q71 579 88 613T133
664T191 686Z" />
<glyph unicode="&#x201d;" glyph-name="quotedblright" horiz-adv-x="435" d="M67 416V462Q89 466 103 481T123 520T129 570H76V686H188V581Q188 524 170 490T125 439T67 416ZM245 416V462Q266 466 280 481T300 520T307 570H253V686H365V581Q365 524 347 490T302
439T245 416Z" />
<glyph unicode="&#x201e;" glyph-name="quotedblbase" horiz-adv-x="435" d="M67 -154V-109Q89 -105 103 -90T123 -51T129 0H76V116H188V11Q188 -47 170 -81T125 -131T67 -154ZM245 -154V-109Q266 -105 280 -90T300 -51T307 0H253V116H365V11Q365 -47 347 -81T302
-131T245 -154Z" />
<glyph unicode="&#x2022;" glyph-name="bullet" horiz-adv-x="407" d="M203 216Q166 216 138 232T93 277T76 343Q76 381 92 409T137 454T203 471Q241 471 269 455T314 410T331 343Q331 306 315 278T270 233T203 216Z" />
<glyph unicode="&#x2039;" glyph-name="guilsinglleft" horiz-adv-x="355" d="M215 126L65 326L215 526H295L173 326L295 126H215Z" />
<glyph unicode="&#x203a;" glyph-name="guilsinglright" horiz-adv-x="355" d="M140 526L290 326L140 126H60L182 326L60 526H140Z" />
</font>
</defs>
</svg>
