<?xml version="1.0" standalone="no"?>
<!DOCTYPE svg PUBLIC "-//W3C//DTD SVG 1.1//EN" "http://www.w3.org/Graphics/SVG/1.1/DTD/svg11.dtd">
<svg xmlns="http://www.w3.org/2000/svg">
<defs >
<font id="Archivo" horiz-adv-x="575" ><font-face
    font-family="Archivo"
    units-per-em="1000"
    panose-1="0 0 0 0 0 0 0 0 0 0"
    ascent="878"
    descent="-210"
    alphabetic="0" />
<glyph unicode=" " glyph-name="space" horiz-adv-x="209" />
<glyph unicode="!" glyph-name="exclam" horiz-adv-x="273" d="M108 181L84 686H189L165 181H108ZM88 0V105H186V0H88Z" />
<glyph unicode="&quot;" glyph-name="quotedbl" horiz-adv-x="374" d="M70 410L56 539V686H149V539L132 410H70ZM234 410L220 539V686H314V539L296 410H234Z" />
<glyph unicode="#" glyph-name="numbersign" horiz-adv-x="582" d="M63 -12L105 179H24V255H121L155 410H70V486H172L219 698H298L251 486H398L445 698H525L477 486H557V410H462L427 255H512V179H411L369 -12H290L332 179H184L143 -12H63ZM200 255H348L382 410H235L200
255Z" />
<glyph unicode="$" glyph-name="dollar" horiz-adv-x="510" d="M233 -49V723H283V-49H233ZM253 68Q199 68 158 79T90 110T49 160T35 227Q35 231 35 235T36 243H123Q122 239 122 237T122 231Q123 196 140 176T189 147T258 139Q291 139 319 148T363 174T380 218Q380
252 359 269T302 296T229 318Q197 327 165 337T108 364T67 406T51 471Q51 506 65 533T107 578T172 607T258 617Q308 617 345 606T408 575T445 529T457 474Q457 469 457 464T456 455H370V466Q370 486 360 504T324 534T253 546Q224 546 203 541T168 527T147 506T140
476Q140 450 157 436T202 413T264 394Q299 384 335 373T402 346T451 303T470 230Q470 189 454 158T409 107T340 78T253 68Z" />
<glyph unicode="%" glyph-name="percent" horiz-adv-x="950" d="M189 0L684 686H764L268 0H189ZM244 337Q197 337 163 353T110 409T92 517Q92 587 110 626T162 681T244 698Q292 698 325 682T376 626T395 517Q395 448 377 409T325 353T244 337ZM244 396Q289 396
304 426T319 512V522Q319 559 313 585T291 625T244 639Q200 639 184 609T168 522V512Q168 457 184 427T244 396ZM708 -12Q661 -12 627 4T575 60T557 168Q557 238 575 277T627 332T708 349Q756 349 789 333T841 277T859 168Q859 99 841 60T790 4T708 -12ZM708 47Q754
47 768 77T783 164V173Q783 210 777 236T755 276T708 290Q664 290 649 260T633 173V164Q633 108 648 78T708 47Z" />
<glyph unicode="&amp;" glyph-name="ampersand" horiz-adv-x="692" d="M308 -12Q232 -12 174 11T82 79T49 184Q49 253 84 294T171 352V356Q126 378 96 413T65 510Q65 571 96 613T185 676T318 698Q392 698 448 675T537 610T569 510V493H481V504Q480 545 459 571T401
610T316 623Q284 623 255 617T204 596T168 560T155 505Q155 464 175 438T227 398T298 385H360V312H300Q260 312 223 302T164 266T141 190Q141 145 162 117T223 76T315 63Q371 63 408 77T463 120T481 191V385H654V311H569V194Q569 128 540 82T452 12T308 -12Z" />
<glyph unicode="&apos;" glyph-name="quotesingle" horiz-adv-x="209" d="M70 410L56 539V686H149V539L132 410H70Z" />
<glyph unicode="(" glyph-name="parenleft" horiz-adv-x="355" d="M248 -157Q163 -64 118 51T72 290Q72 412 117 528T248 736H305Q265 675 232 602T179 450T159 290Q159 210 178 130T231 -23T305 -157H248Z" />
<glyph unicode=")" glyph-name="parenright" horiz-adv-x="355" d="M107 735Q193 642 238 527T283 288Q283 166 238 50T107 -158H50Q91 -97 124 -24T176 128T196 288Q196 369 177 448T124 601T50 735H107Z" />
<glyph unicode="*" glyph-name="asterisk" horiz-adv-x="407" d="M170 333L181 470L75 392L41 451L158 509L41 569L75 627L181 548L170 687H237L226 548L332 627L366 569L248 509L366 451L332 392L226 470L237 333H170Z" />
<glyph unicode="+" glyph-name="plus" horiz-adv-x="625" d="M275 0V217H76V293H275V511H350V293H548V217H350V0H275Z" />
<glyph unicode="," glyph-name="comma" horiz-adv-x="277" d="M79 -147V-106Q98 -102 110 -87T129 -50T135 0H89V105H186V11Q186 -47 170 -79T129 -127T79 -147Z" />
<glyph unicode="-" glyph-name="hyphen" horiz-adv-x="333" d="M40 226V315H293V226H40Z" />
<glyph unicode="." glyph-name="period" horiz-adv-x="277" d="M89 0V105H187V0H89Z" />
<glyph unicode="/" glyph-name="slash" horiz-adv-x="294" d="M0 -49L223 735H294L71 -49H0Z" />
<glyph unicode="0" glyph-name="zero" horiz-adv-x="573" d="M287 -12Q231 -12 187 4T112 61T65 170T49 343Q49 447 65 515T112 624T187 681T287 698Q343 698 386 682T461 625T508 516T524 343Q524 239 508 171T461 62T387 5T287 -12ZM287 62Q344 62 375 91T419
177T432 319V365Q432 451 420 508T376 595T287 624Q230 624 198 595T154 509T141 366V321Q141 236 153 178T198 91T287 62Z" />
<glyph unicode="1" glyph-name="one" horiz-adv-x="521" d="M67 0V75H240V550H66V606Q103 609 142 617T220 642T289 688H329V75H492V0H67Z" />
<glyph unicode="2" glyph-name="two" horiz-adv-x="567" d="M50 0V29Q50 71 66 106T110 171T173 228T244 281Q293 315 334 349T401 422T426 511Q426 542 412 567T368 608T294 623Q241 623 209 605T163 557T148 491V450H61Q60 455 59 465T58 490Q58 564 91 609T179
676T298 698Q355 698 396 683T464 640T504 579T517 506Q517 459 501 420T455 348T386 283T300 220Q268 199 237 176T184 128T156 82H521V0H50Z" />
<glyph unicode="3" glyph-name="three" horiz-adv-x="573" d="M288 -12Q208 -12 153 12T70 82T42 189V202H131V189Q131 127 170 95T280 62Q350 62 393 92T436 190Q436 239 413 265T354 301T276 312H204V386H279Q317 386 349 398T400 437T420 509Q420 549 403 574T355
611T289 624Q249 624 217 611T167 570T148 502V489H58V507Q58 564 87 607T168 674T287 698Q353 698 403 677T483 615T512 514Q512 470 496 440T454 389T398 356V352Q453 336 490 294T527 184Q527 123 497 79T412 12T288 -12Z" />
<glyph unicode="4" glyph-name="four" horiz-adv-x="555" d="M347 0V168H28V242Q70 314 104 387T166 537T212 698H306Q293 643 274 586T232 474T187 373T145 292T113 242H347V460Q353 476 359 493T372 529T383 564T391 596H435V242H526V168H435V0H347Z" />
<glyph unicode="5" glyph-name="five" horiz-adv-x="571" d="M290 -12Q218 -12 164 15T80 92T50 213H139Q139 166 159 132T213 80T290 62Q333 62 366 79T417 133T436 224Q436 274 419 306T371 355T298 371Q268 371 241 362T193 335T157 293L74 306L103 686H492V604H180L164
390Q181 405 202 417T252 437T316 445Q375 445 423 422T499 351T527 227Q527 152 499 98T417 16T290 -12Z" />
<glyph unicode="6" glyph-name="six" horiz-adv-x="573" d="M300 -12Q241 -12 195 5T116 60T66 162T49 323Q49 429 66 500T114 615T192 678T298 698Q372 698 417 670T484 595T505 486H415Q415 532 402 563T362 609T293 624Q233 624 200 593T154 501T140 358Q154
381 179 400T240 430T314 442Q388 442 436 413T507 332T530 218Q530 149 500 97T418 17T300 -12ZM294 62Q343 62 375 83T422 140T438 219Q438 260 423 294T377 348T296 369Q247 369 214 348T165 293T149 214Q149 173 165 138T213 83T294 62Z" />
<glyph unicode="7" glyph-name="seven" horiz-adv-x="553" d="M145 0Q145 93 169 179T231 342T316 485T406 604H39V686H522V631Q485 588 446 536T370 425T305 303T259 176T242 47V0H145Z" />
<glyph unicode="8" glyph-name="eight" horiz-adv-x="574" d="M287 -12Q202 -12 149 15T72 87T47 187Q47 243 75 286T163 352Q115 377 91 418T66 509Q66 562 90 604T164 672T287 698Q360 698 409 673T483 605T508 509Q508 459 483 418T410 352Q471 329 498 286T526
187Q526 132 502 87T425 15T287 -12ZM287 61Q360 61 397 95T434 188Q434 246 397 280T287 314Q214 314 177 280T139 188Q139 129 176 95T287 61ZM287 387Q348 387 383 418T418 507Q418 563 383 594T287 625Q226 625 191 594T156 507Q156 450 191 419T287 387Z"
/>
<glyph unicode="9" glyph-name="nine" horiz-adv-x="573" d="M275 -12Q202 -12 156 16T89 92T68 200H158Q158 154 171 123T212 77T280 62Q341 62 373 93T419 185T433 328Q420 306 394 287T334 256T260 244Q186 244 138 273T67 354T43 468Q43 538 73 589T155 669T272
698Q331 698 378 681T457 626T507 524T524 363Q524 258 508 186T459 71T381 8T275 -12ZM278 317Q327 317 359 338T408 394T424 472Q424 514 409 548T361 603T279 624Q230 624 198 603T151 546T135 467Q135 426 150 392T196 338T278 317Z" />
<glyph unicode=":" glyph-name="colon" horiz-adv-x="296" d="M99 421V526H197V421H99ZM99 0V105H197V0H99Z" />
<glyph unicode=";" glyph-name="semicolon" horiz-adv-x="296" d="M90 -147V-106Q109 -102 121 -87T140 -50T146 0H100V105H198V11Q198 -47 181 -79T140 -127T90 -147ZM100 421V526H198V421H100Z" />
<glyph unicode="&lt;" glyph-name="less" horiz-adv-x="625" d="M539 5L65 207V302L539 504V420L138 254L539 89V5Z" />
<glyph unicode="=" glyph-name="equal" horiz-adv-x="625" d="M76 322V398H549V322H76ZM76 111V187H549V111H76Z" />
<glyph unicode="&gt;" glyph-name="greater" horiz-adv-x="625" d="M86 5V89L487 254L86 420V504L560 302V207L86 5Z" />
<glyph unicode="?" glyph-name="question" horiz-adv-x="578" d="M240 177V233Q240 272 252 298T283 343T324 378T365 412T397 453T409 510Q409 523 406 541T390 577T352 607T286 619Q240 619 213 605T173 568T155 525T150 490Q150 483 150 477T151 462H62Q61
466 60 474T59 496Q59 519 66 546T89 600T132 649T198 684T292 698Q341 698 377 687T437 656T476 613T497 565T504 520Q504 472 491 439T458 384T415 344T371 311T337 274T324 223V177H240ZM233 0V105H331V0H233Z" />
<glyph unicode="@" glyph-name="at" horiz-adv-x="1005" d="M476 -153Q346 -153 251 -110T103 26T51 262Q51 382 88 465T189 599T336 674T513 698Q608 698 688 677T827 610T920 494T953 321Q953 253 939 203T901 119T848 63T787 32T728 22Q687 22 665 33T632 61T621
94H615Q598 71 573 55T517 30T449 21Q423 21 396 27T347 48T312 89T298 153Q298 203 321 234T388 283T489 308T615 316V370Q615 396 606 415T573 445T506 456Q465 456 442 446T409 418T399 382V368H321Q320 373 320 377T320 388Q320 432 344 461T411 506T513 521Q573
521 613 505T674 457T695 379V129Q695 106 706 96T741 86Q777 86 810 108T866 181T889 322Q889 434 841 504T709 607T512 640Q391 640 302 599T164 473T115 261Q115 84 203 -5T476 -95Q502 -95 537 -91T606 -80T659 -64V-126Q636 -134 603 -140T535 -149T476 -153ZM469
86Q499 86 525 95T571 122T603 163T615 217V255Q541 255 489 247T409 218T381 159Q381 134 392 118T423 94T469 86Z" />
<glyph unicode="A" glyph-name="A" horiz-adv-x="682" d="M7 0L278 686H403L675 0H572L505 170H171L105 0H7ZM202 251H473L390 466Q387 475 381 491T368 526T354 566T341 604H335Q328 584 319 558T301 508T286 466L202 251Z" />
<glyph unicode="B" glyph-name="B" horiz-adv-x="698" d="M86 0V686H440Q499 686 542 666T608 608T632 520Q632 481 618 448T579 393T522 360V356Q558 348 587 327T633 272T651 187Q651 120 623 79T548 19T440 0H86ZM181 82H439Q490 82 522 108T554 197Q554 235
540 260T499 298T431 311H181V82ZM181 392H422Q456 392 481 405T520 443T535 499Q535 553 506 578T429 604H181V392Z" />
<glyph unicode="C" glyph-name="C" horiz-adv-x="728" d="M379 -12Q274 -12 201 26T90 143T51 343Q51 522 138 610T380 698Q468 698 536 670T642 584T681 439H585Q585 499 560 538T488 596T380 616Q308 616 256 588T177 502T150 351V330Q150 239 177 182T255 97T380
70Q444 70 490 89T562 147T588 247H681Q681 158 642 101T534 16T379 -12Z" />
<glyph unicode="D" glyph-name="D" horiz-adv-x="734" d="M86 0V686H342Q450 686 526 650T642 539T683 343Q683 225 643 149T526 37T342 0H86ZM181 82H340Q397 82 442 96T519 141T567 218T584 332V352Q584 420 568 467T520 545T443 589T340 604H181V82Z" />
<glyph unicode="E" glyph-name="E" horiz-adv-x="677" d="M86 0V686H614V604H181V392H570V310H181V82H620V0H86Z" />
<glyph unicode="F" glyph-name="F" horiz-adv-x="612" d="M86 0V686H572V604H181V384H537V303H181V0H86Z" />
<glyph unicode="G" glyph-name="G" horiz-adv-x="796" d="M395 -12Q229 -12 143 75T56 343Q56 461 96 540T214 658T404 698Q474 698 531 683T629 638T693 561T716 452H619Q619 496 603 527T558 579T489 607T406 616Q346 616 299 601T220 554T171 472T154 353V332Q154
239 182 181T265 97T395 70Q472 70 522 91T596 157T621 268V280H379V361H717V0H645L635 87Q608 52 571 30T490 -2T395 -12Z" />
<glyph unicode="H" glyph-name="H" horiz-adv-x="736" d="M86 0V686H181V392H554V686H650V0H554V309H181V0H86Z" />
<glyph unicode="I" glyph-name="I" horiz-adv-x="267" d="M86 0V686H181V0H86Z" />
<glyph unicode="J" glyph-name="J" horiz-adv-x="559" d="M254 -12Q185 -12 136 10T61 76T35 186V216H130V181Q130 127 162 99T254 70Q315 70 347 109T380 225V686H475V230Q475 149 449 95T374 15T254 -12Z" />
<glyph unicode="K" glyph-name="K" horiz-adv-x="662" d="M86 0V686H181V323L530 686H648L387 412L657 0H544L321 344L181 212V0H86Z" />
<glyph unicode="L" glyph-name="L" horiz-adv-x="536" d="M86 0V686H181V83H522V0H86Z" />
<glyph unicode="M" glyph-name="M" horiz-adv-x="847" d="M86 0V686H233L389 241Q395 223 401 202T413 161T422 128H429Q432 143 437 162T448 203T459 241L615 686H761V0H666V402Q666 433 667 469T669 536T670 580H662Q659 567 652 544T638 495T624 449L463 0H381L220
449Q214 466 208 488T195 535T182 580H175Q176 558 176 526T177 461T178 402V0H86Z" />
<glyph unicode="N" glyph-name="N" horiz-adv-x="736" d="M86 0V686H178L511 234Q516 228 524 216T540 193T553 172H557Q557 188 557 203T557 234V686H650V0H563L226 460Q219 471 206 491T183 523H178Q178 507 178 492T178 460V0H86Z" />
<glyph unicode="O" glyph-name="O" horiz-adv-x="788" d="M394 -12Q287 -12 211 27T93 145T51 343Q51 463 92 541T210 659T394 698Q501 698 577 659T695 542T737 343Q737 224 696 145T578 27T394 -12ZM394 70Q450 70 495 85T572 132T621 214T638 332V353Q638 422
621 471T573 553T496 601T394 616Q337 616 292 601T215 554T167 472T150 353V332Q150 264 166 215T215 133T292 85T394 70Z" />
<glyph unicode="P" glyph-name="P" horiz-adv-x="665" d="M86 0V686H425Q496 686 543 660T613 586T637 477Q637 414 611 366T538 290T424 263H181V0H86ZM181 345H418Q474 345 507 380T541 476Q541 517 527 545T486 588T418 604H181V345Z" />
<glyph unicode="Q" glyph-name="Q" horiz-adv-x="788" d="M569 -130L446 -9Q433 -11 420 -11T394 -12Q287 -12 211 27T93 145T51 343Q51 463 92 541T210 659T394 698Q501 698 577 659T695 542T737 343Q737 213 687 131T547 13L694 -130H569ZM394 70Q450 70 495
85T572 132T621 214T638 332V353Q638 422 621 471T573 553T496 601T394 616Q337 616 292 601T215 554T167 472T150 353V332Q150 264 166 215T215 133T292 85T394 70Z" />
<glyph unicode="R" glyph-name="R" horiz-adv-x="727" d="M86 0V686H447Q517 686 563 661T633 590T656 485Q656 414 624 363T536 290L680 0H576L442 273H181V0H86ZM181 354H438Q495 354 527 389T560 485Q560 523 546 549T505 589T438 604H181V354Z" />
<glyph unicode="S" glyph-name="S" horiz-adv-x="673" d="M338 -12Q282 -12 231 -1T139 34T76 98T52 194Q52 199 52 204T53 214H149Q149 211 149 205T148 193Q148 153 172 125T238 84T335 70Q359 70 385 73T436 83T480 103T511 134T523 180Q523 214 504 236T452
273T380 299T296 322T213 347T140 383T89 437T69 515Q69 558 86 592T138 649T224 685T341 698Q395 698 441 687T523 652T579 592T599 505V493H505V508Q505 542 484 566T427 603T344 616Q284 616 244 605T185 572T165 523Q165 492 184 471T236 437T309 412T392 390T475
364T548 328T600 274T619 194Q619 121 583 76T484 9T338 -12Z" />
<glyph unicode="T" glyph-name="T" horiz-adv-x="606" d="M254 0V603H19V686H586V603H349V0H254Z" />
<glyph unicode="U" glyph-name="U" horiz-adv-x="731" d="M364 -12Q277 -12 214 16T118 104T84 260V686H179V250Q179 160 227 115T364 70Q453 70 503 115T553 250V686H647V260Q647 165 613 105T516 16T364 -12Z" />
<glyph unicode="V" glyph-name="V" horiz-adv-x="648" d="M266 0L10 686H113L289 200Q295 186 301 168T313 133T324 103H330Q334 115 340 132T352 166T364 200L538 686H638L381 0H266Z" />
<glyph unicode="W" glyph-name="W" horiz-adv-x="924" d="M203 0L12 686H114L236 223Q239 212 243 192T253 149T261 110H268Q271 123 273 139T279 171T286 201T290 223L404 686H527L641 223Q644 212 648 192T657 149T665 110H672Q675 123 678 138T685 170T692
200T698 223L821 686H911L720 0H606L487 466Q484 481 480 501T472 544T465 582H459Q457 565 453 543T445 500T437 466L321 0H203Z" />
<glyph unicode="X" glyph-name="X" horiz-adv-x="680" d="M11 0L279 360L36 686H153L340 431H345L530 686H641L401 361L669 0H552L340 289H335L124 0H11Z" />
<glyph unicode="Y" glyph-name="Y" horiz-adv-x="655" d="M280 0V285L10 686H119L328 369H333L541 686H645L376 285V0H280Z" />
<glyph unicode="Z" glyph-name="Z" horiz-adv-x="635" d="M32 0V49L448 604H58V686H589V637L172 82H598V0H32Z" />
<glyph unicode="[" glyph-name="bracketleft" horiz-adv-x="296" d="M93 -161V735H281V670H172V-96H281V-161H93Z" />
<glyph unicode="\" glyph-name="backslash" horiz-adv-x="294" d="M294 -49H223L0 735H71L294 -49Z" />
<glyph unicode="]" glyph-name="bracketright" horiz-adv-x="296" d="M203 735V-161H15V-96H124V670H15V735H203Z" />
<glyph unicode="^" glyph-name="asciicircum" horiz-adv-x="625" d="M107 294L269 686H355L518 294H437L311 606L187 294H107Z" />
<glyph unicode="_" glyph-name="underscore" horiz-adv-x="485" d="M0 -132V-65H485V-132H0Z" />
<glyph unicode="`" glyph-name="grave" horiz-adv-x="187" d="M187 591H110L0 720L1 723H100L187 591Z" />
<glyph unicode="a" glyph-name="a" horiz-adv-x="545" d="M201 -12Q172 -12 143 -5T89 18T49 62T34 134Q34 188 60 223T132 277T243 304T382 312V372Q382 401 372 422T337 454T264 466Q219 466 193 455T156 425T145 385V370H60Q59 375 59 380T59 392Q59 440 85
472T160 521T270 538Q336 538 380 519T447 465T470 381V96Q470 77 479 70T501 62H540V4Q526 -2 509 -6T470 -11Q444 -11 427 -1T401 28T389 70H382Q364 45 337 27T275 -2T201 -12ZM223 62Q255 62 283 72T334 100T369 145T382 202V246Q301 246 244 237T157 205T126
140Q126 113 138 96T172 71T223 62Z" />
<glyph unicode="b" glyph-name="b" horiz-adv-x="567" d="M319 -12Q266 -12 224 9T155 75H148L139 0H69V723H157V460H163Q181 488 205 505T259 530T323 538Q384 538 430 509T501 420T527 267Q527 169 502 108T431 17T319 -12ZM298 65Q343 65 373 83T420 142T436
252V273Q436 339 421 380T375 441T295 461Q267 461 242 452T198 421T168 362T157 271V255Q157 193 171 151T217 87T298 65Z" />
<glyph unicode="c" glyph-name="c" horiz-adv-x="519" d="M269 -12Q193 -12 142 17T64 108T37 263Q37 356 63 417T142 508T272 538Q326 538 365 524T431 483T469 418T482 331H393Q393 377 381 406T341 450T270 465Q226 465 194 446T145 384T128 273V252Q128 187
144 144T193 81T271 61Q316 61 343 77T383 123T396 195H482Q482 151 470 113T431 47T365 4T269 -12Z" />
<glyph unicode="d" glyph-name="d" horiz-adv-x="567" d="M248 -12Q183 -12 137 17T65 107T39 267Q39 360 65 420T137 509T244 538Q279 538 309 530T362 505T404 460H410V723H498V0H427L419 75H412Q385 31 342 10T248 -12ZM269 65Q319 65 350 87T395 151T410 255V271Q410
325 399 362T369 421T325 452T272 461Q223 461 192 442T146 381T131 273V252Q131 184 147 143T193 83T269 65Z" />
<glyph unicode="e" glyph-name="e" horiz-adv-x="548" d="M279 -12Q201 -12 148 17T67 108T39 263Q39 358 66 418T148 508T283 538Q357 538 407 510T482 425T508 283V241H130Q132 178 148 138T198 79T281 60Q315 60 340 68T383 93T410 131T420 179H506Q505 137
490 102T446 41T375 2T279 -12ZM132 307H417Q417 351 407 381T379 430T336 457T280 466Q234 466 202 449T153 397T132 307Z" />
<glyph unicode="f" glyph-name="f" horiz-adv-x="280" d="M90 0V452H12V526H90V610Q90 641 99 668T133 713T203 731Q217 731 230 730T256 726T279 720V657H226Q201 657 190 645T178 609V526H279V452H178V0H90Z" />
<glyph unicode="g" glyph-name="g" horiz-adv-x="556" d="M158 -182Q120 -182 88 -167T37 -122T18 -53Q18 -9 42 20T101 63Q76 75 62 96T48 144Q48 179 73 203T136 235Q102 257 83 291T63 368Q63 418 86 456T158 516T277 538Q309 538 337 534T387 519Q422 535
439 560T461 611H548Q548 581 535 555T498 511T442 487Q467 463 479 433T492 368Q492 318 469 280T398 219T280 197H198Q171 197 154 187T137 153Q137 133 154 121T198 108H412Q470 108 507 70T544 -29Q544 -72 523 -106T463 -161T373 -182H158ZM183 -115H372Q395
-115 414 -106T444 -79T455 -42Q455 -8 435 12T385 32H183Q151 32 129 11T107 -42Q107 -75 129 -95T183 -115ZM278 263Q342 263 373 291T404 368Q404 416 373 444T278 472Q214 472 183 444T151 368Q151 337 165 313T207 276T278 263Z" />
<glyph unicode="h" glyph-name="h" horiz-adv-x="563" d="M69 0V723H157V460H164Q184 487 209 504T264 529T331 538Q381 538 418 521T477 466T499 363V0H411V351Q411 384 403 405T380 438T345 455T299 460Q262 460 229 443T177 392T157 309V0H69Z" />
<glyph unicode="i" glyph-name="i" horiz-adv-x="225" d="M69 625V723H157V625H69ZM69 0V526H157V0H69Z" />
<glyph unicode="j" glyph-name="j" horiz-adv-x="223" d="M69 625V723H157V625H69ZM46 -182Q35 -182 22 -181T-3 -177T-23 -171V-110H22Q45 -110 57 -98T69 -62V526H157V-64Q157 -94 147 -121T114 -165T46 -182Z" />
<glyph unicode="k" glyph-name="k" horiz-adv-x="514" d="M69 0V723H157V271L380 526H484L304 322L494 0H393L247 257L157 166V0H69Z" />
<glyph unicode="l" glyph-name="l" horiz-adv-x="225" d="M69 0V723H157V0H69Z" />
<glyph unicode="m" glyph-name="m" horiz-adv-x="860" d="M69 0V526H140L148 447H155Q175 479 200 499T255 528T320 538Q371 538 408 518T463 447H469Q488 479 513 498T569 528T635 538Q683 538 719 522T775 468T796 367V0H708V353Q708 385 701 406T679 438T647
455T607 460Q572 460 543 442T495 390T477 309V0H389V353Q389 385 381 406T360 438T329 455T290 460Q254 460 224 442T175 390T157 309V0H69Z" />
<glyph unicode="n" glyph-name="n" horiz-adv-x="563" d="M69 0V526H140L148 447H155Q176 479 202 499T261 528T331 538Q381 538 418 521T477 466T499 363V0H411V351Q411 384 403 405T380 438T345 455T299 460Q262 460 229 442T177 390T157 309V0H69Z" />
<glyph unicode="o" glyph-name="o" horiz-adv-x="570" d="M285 -12Q205 -12 151 17T68 108T39 263Q39 358 67 418T150 508T285 538Q365 538 419 509T502 419T530 263Q530 169 502 108T420 18T285 -12ZM285 62Q336 62 370 82T421 144T439 252V274Q439 340 422 382T370
444T285 464Q234 464 200 444T148 382T131 274V252Q131 187 148 145T199 82T285 62Z" />
<glyph unicode="p" glyph-name="p" horiz-adv-x="567" d="M69 -173V526H139L148 451H155Q182 495 224 516T319 538Q385 538 431 509T502 419T527 259Q527 167 502 107T430 17T323 -12Q289 -12 259 -4T205 21T163 66H157V-173H69ZM295 65Q344 65 375 84T421 145T436
252V273Q436 342 420 383T374 443T298 461Q249 461 218 440T172 375T157 270V255Q157 200 167 164T197 105T242 74T295 65Z" />
<glyph unicode="q" glyph-name="q" horiz-adv-x="567" d="M410 -173V66H404Q386 39 362 22T307 -4T244 -12Q183 -12 137 17T65 106T39 259Q39 357 64 418T136 509T248 538Q301 538 343 517T412 451H419L427 526H498V-173H410ZM272 65Q301 65 326 74T369 105T399
163T410 255V270Q410 332 396 375T350 439T269 461Q224 461 194 443T147 384T131 273V252Q131 187 146 146T192 85T272 65Z" />
<glyph unicode="r" glyph-name="r" horiz-adv-x="332" d="M69 0V526H140L148 439H155Q163 464 177 486T215 523T274 538Q289 538 301 536T320 530V449H287Q253 449 229 438T188 405T165 355T157 293V0H69Z" />
<glyph unicode="s" glyph-name="s" horiz-adv-x="510" d="M253 -12Q199 -12 158 -1T90 31T49 81T35 147Q35 152 35 156T36 164H123Q122 160 122 157T122 151Q123 116 140 96T189 68T258 60Q291 60 319 68T363 94T380 139Q380 172 359 189T302 217T229 238Q197
247 165 258T108 285T67 326T51 391Q51 426 65 453T107 499T172 527T258 537Q308 537 345 526T408 495T445 450T457 395Q457 389 457 384T456 375H370V386Q370 406 360 424T324 454T253 466Q224 466 203 462T168 448T147 426T140 397Q140 371 157 357T202 334T264
314Q299 304 335 294T402 267T451 224T470 151Q470 109 454 78T409 27T340 -2T253 -12Z" />
<glyph unicode="t" glyph-name="t" horiz-adv-x="297" d="M192 -12Q151 -12 128 3T95 44T85 99V452H17V526H87L103 673H173V526H272V452H173V112Q173 87 182 75T216 62H272V4Q262 -1 248 -4T220 -9T192 -12Z" />
<glyph unicode="u" glyph-name="u" horiz-adv-x="562" d="M232 -12Q156 -12 110 27T64 163V526H152V175Q152 142 160 121T183 88T218 71T263 66Q301 66 333 84T385 136T406 217V526H494V0H423L415 79H408Q387 47 361 27T302 -2T232 -12Z" />
<glyph unicode="v" glyph-name="v" horiz-adv-x="504" d="M208 0L13 526H105L201 263Q208 244 217 216T235 158T251 105H256Q263 127 272 156T290 214T307 263L402 526H491L296 0H208Z" />
<glyph unicode="w" glyph-name="w" horiz-adv-x="723" d="M170 0L11 526H102L182 237Q188 216 193 192T204 147T212 115H218Q222 134 227 158T237 204T245 238L317 526H412L485 238Q489 221 494 199T504 154T512 115H518Q522 131 527 152T538 196T549 236L628
526H712L554 0H464L396 272Q392 291 386 316T375 368T365 415H359Q357 400 353 377T342 327T328 272L260 0H170Z" />
<glyph unicode="x" glyph-name="x" horiz-adv-x="513" d="M14 0L203 269L23 526H129L257 338H262L390 526H490L310 272L500 0H395L257 203H252L114 0H14Z" />
<glyph unicode="y" glyph-name="y" horiz-adv-x="504" d="M114 -182Q90 -182 73 -179T49 -174V-110H93Q117 -110 140 -100T183 -66T217 0L13 526H105L210 255Q217 236 226 209T245 152T261 101H267Q271 117 277 137T289 178T302 219T313 254L402 526H491L313 15Q298
-28 280 -64T240 -127T187 -167T114 -182Z" />
<glyph unicode="z" glyph-name="z" horiz-adv-x="498" d="M31 0V47L324 452H52V526H450V480L156 74H466V0H31Z" />
<glyph unicode="{" glyph-name="braceleft" horiz-adv-x="353" d="M300 -159Q266 -159 235 -154T181 -134T144 -94T130 -28V186Q130 208 117 221T85 239T45 245V330Q65 330 84 335T117 354T130 388V604Q130 644 143 669T180 709T235 729T300 735V679Q283 679 263
674T228 656T212 617L203 398Q201 348 180 320T102 292V283Q140 283 161 270T192 234T203 177L212 -41Q213 -66 227 -79T262 -98T300 -103V-159Z" />
<glyph unicode="|" glyph-name="bar" horiz-adv-x="245" d="M86 -183V723H159V-183H86Z" />
<glyph unicode="}" glyph-name="braceright" horiz-adv-x="353" d="M52 735Q87 735 117 730T172 710T209 670T223 604V390Q223 369 236 356T268 337T308 331V246Q288 246 269 241T236 222T223 188V-28Q223 -68 210 -93T172 -133T118 -153T52 -159V-103Q70 -103
90 -98T125 -80T141 -41L150 178Q152 228 173 256T251 284V293Q213 293 192 306T161 342T150 399L141 617Q140 643 126 656T91 674T52 679V735Z" />
<glyph unicode="~" glyph-name="asciitilde" horiz-adv-x="625" d="M61 215V301Q72 317 92 333T142 362T206 374Q235 374 260 365T311 344T362 322T418 313Q449 313 477 325T527 354T563 386V299Q553 284 532 267T483 239T418 227Q390 227 364 236T313 257T262
278T206 287Q175 287 147 276T97 248T61 215Z" />
<glyph unicode="&#xa0;" glyph-name="uni00A0" horiz-adv-x="209" />
<glyph unicode="&#xa1;" glyph-name="exclamdown" horiz-adv-x="273" d="M84 -161L108 345H165L189 -161H84ZM88 421V525H186V421H88Z" />
<glyph unicode="&#xa2;" glyph-name="cent" horiz-adv-x="567" d="M260 -49V723H310V-49H260ZM285 68Q209 68 158 97T80 188T53 343Q53 435 79 496T158 587T288 618Q342 618 381 604T447 563T485 498T498 411H409Q409 457 397 486T357 530T286 544Q242 544 210
525T161 464T144 353V332Q144 266 160 224T209 161T288 141Q333 141 360 156T400 202T413 274H498Q498 230 486 193T447 127T381 84T285 68Z" />
<glyph unicode="&#xa3;" glyph-name="sterling" horiz-adv-x="569" d="M41 0V77H116V302H27V378H116V510Q116 572 141 614T212 677T318 698Q377 698 421 678T491 616T517 512V497H429V514Q429 552 415 576T376 613T318 625Q285 625 259 613T219 577T204 517V378H369V302H204L195
77H517V0H41Z" />
<glyph unicode="&#xa4;" glyph-name="currency" horiz-adv-x="569" d="M78 99L34 143L88 198Q62 230 50 269T37 350Q37 392 49 432T88 502L33 556L79 601L135 545Q166 571 204 584T283 598Q324 598 363 585T432 545L488 601L533 556L478 502Q505 472 517 432T530
350Q530 309 518 270T478 198L533 143L489 99L434 156Q403 129 364 116T283 102Q242 102 203 115T133 156L78 99ZM283 166Q333 166 373 191T438 258T463 350Q463 400 439 441T374 507T283 532Q234 532 193 507T128 441T103 350Q103 300 127 259T193 192T283 166Z"
/>
<glyph unicode="&#xa5;" glyph-name="yen" horiz-adv-x="562" d="M236 0V159H39V222H236V292H39V355H205Q196 371 182 392T160 428L10 686H113L233 469Q240 456 248 440T266 407T282 377H287Q293 390 302 406T319 439T335 469L453 686H552L406 433Q396 416 382
394T359 355H523V292H327V222H523V159H327V0H236Z" />
<glyph unicode="&#xa6;" glyph-name="brokenbar" horiz-adv-x="245" d="M86 351V723H159V351H86ZM86 -183V189H159V-183H86Z" />
<glyph unicode="&#xa7;" glyph-name="section" horiz-adv-x="568" d="M281 -182Q225 -182 185 -171T118 -139T78 -93T65 -37Q65 -31 65 -26T66 -17H158V-27Q158 -42 163 -57T183 -84T223 -103T286 -110Q327 -110 355 -99T397 -69T412 -23Q412 6 393 25T341 59T270
85T193 112T122 147T70 198T50 273Q50 303 61 328T94 375T143 411Q109 432 87 462T64 541Q64 578 79 606T124 656T194 687T288 698Q344 698 384 687T451 655T491 609T504 553Q504 548 504 542T503 533H411V544Q411 558 405 572T385 599T346 618T283 625Q242 625
214 615T172 585T157 539Q157 510 176 491T228 457T299 431T376 404T447 369T499 318T519 243Q519 213 508 187T475 141T426 105Q460 84 482 54T504 -25Q504 -61 489 -90T445 -140T375 -171T281 -182ZM360 138Q391 151 410 173T429 225Q429 261 410 284T357 322T286
350T208 377Q178 365 159 343T140 290Q140 255 159 232T211 192T282 164T360 138Z" />
<glyph unicode="&#xa8;" glyph-name="dieresis" horiz-adv-x="280" d="M0 629V721H89V629H0ZM191 629V721H280V629H191Z" />
<glyph unicode="&#xa9;" glyph-name="copyright" horiz-adv-x="752" d="M376 -12Q299 -12 234 14T122 88T48 201T21 343Q21 420 47 485T121 597T234 671T376 698Q453 698 518 672T630 598T704 485T731 343Q731 266 705 201T631 89T518 15T376 -12ZM373 131Q320
131 282 152T223 219T203 342Q203 418 222 464T280 531T373 553Q422 553 457 537T511 484T530 389H470Q470 431 459 455T426 490T373 501Q321 501 292 466T263 354V330Q263 279 276 246T313 198T373 183Q404 183 426 194T461 230T473 294H530Q530 242 511 206T458
151T373 131ZM376 34Q465 34 534 74T642 184T682 343Q682 432 643 501T534 611T376 651Q287 651 218 611T109 502T69 343Q69 254 108 184T217 74T376 34Z" />
<glyph unicode="&#xaa;" glyph-name="ordfeminine" horiz-adv-x="385" d="M137 330Q112 330 87 339T46 369T29 428Q29 465 45 488T92 525T162 543T251 548V589Q251 606 245 619T223 639T178 647Q150 647 134 640T112 622T105 596V585H45Q44 587 44 592T44 600Q44
649 82 673T181 698Q224 698 253 686T296 650T311 594V405Q311 392 317 387T331 382H357V341Q347 338 336 336T312 333Q285 333 272 347T255 384H250Q233 359 204 345T137 330ZM150 381Q177 381 200 393T237 426T251 476V501Q201 502 166 496T111 475T92 431Q92
414 99 404T120 387T150 381Z" />
<glyph unicode="&#xab;" glyph-name="guillemotleft" horiz-adv-x="550" d="M219 126L62 326L219 526H290L161 326L290 126H219ZM414 126L257 326L414 526H486L356 326L486 126H414Z" />
<glyph unicode="&#xac;" glyph-name="logicalnot" horiz-adv-x="625" d="M469 198V369H71V443H544V198H469Z" />
<glyph unicode="&#xad;" glyph-name="uni00AD" horiz-adv-x="333" d="M40 226V315H293V226H40Z" />
<glyph unicode="&#xae;" glyph-name="registered" horiz-adv-x="752" d="M376 -12Q299 -12 234 14T122 88T48 201T21 343Q21 420 47 485T121 597T234 671T376 698Q453 698 518 672T630 598T704 485T731 343Q731 266 705 201T631 89T518 15T376 -12ZM376 34Q465
34 534 74T642 184T682 343Q682 432 643 501T534 611T376 651Q287 651 218 611T109 502T69 343Q69 254 108 184T217 74T376 34ZM236 137V549H417Q480 549 511 516T543 425Q543 384 525 353T471 308L558 137H493L413 297H296V137H236ZM296 349H415Q445 349 463 369T482
425Q482 460 465 478T415 497H296V349Z" />
<glyph unicode="&#xaf;" glyph-name="overscore" horiz-adv-x="300" d="M0 635V700H300V635H0Z" />
<glyph unicode="&#xb0;" glyph-name="degree" horiz-adv-x="400" d="M201 428Q164 428 133 446T84 495T65 563Q65 601 83 631T133 680T201 698Q239 698 269 680T318 632T336 563Q336 526 318 495T270 446T201 428ZM201 481Q235 481 258 505T282 563Q282 597 259
621T201 645Q167 645 143 621T118 563Q118 530 142 506T201 481Z" />
<glyph unicode="&#xb1;" glyph-name="plusminus" horiz-adv-x="625" d="M275 127V344H76V420H275V638H350V420H548V344H350V127H275ZM76 0V76H548V0H76Z" />
<glyph unicode="&#xb2;" glyph-name="uni00B2" horiz-adv-x="346" d="M45 440V463Q45 493 59 515T97 556T145 591Q181 616 208 640T236 697Q236 717 222 731T176 745Q152 745 138 737T117 716T110 686V662H51Q50 667 49 674T48 690Q48 728 66 752T114 787T179
798Q220 798 246 784T285 747T298 696Q298 670 288 649T261 611T224 579T183 550Q163 536 145 523T119 496H300V440H45Z" />
<glyph unicode="&#xb3;" glyph-name="uni00B3" horiz-adv-x="346" d="M174 428Q109 428 75 457T41 537V547H102V536Q102 509 120 495T170 481Q192 481 208 486T232 504T241 537Q241 558 231 569T204 585T168 590H126V643H170Q188 643 202 648T224 665T233 696Q233
713 226 724T205 740T174 746Q157 746 142 740T119 722T110 693V681H48V695Q48 726 64 749T109 785T173 798Q209 798 236 787T280 753T296 698Q296 670 282 651T246 621V618Q272 608 288 587T304 533Q304 501 287 477T241 441T174 428Z" />
<glyph unicode="&#xb4;" glyph-name="acute" horiz-adv-x="187" d="M0 591L87 723H186L187 720L77 591H0Z" />
<glyph unicode="&#xb5;" glyph-name="uni00B5" horiz-adv-x="567" d="M69 -179V526H157V175Q157 142 165 121T187 88T223 71T268 66Q305 66 337 84T390 136T411 217V526H499V0H427L419 79H412Q394 46 370 26T316 -3T254 -12Q223 -12 197 -4T152 21Q155 6 156 -14T157
-52V-179H69Z" />
<glyph unicode="&#xb6;" glyph-name="paragraph" horiz-adv-x="565" d="M254 -170V251Q199 255 153 281T79 355T51 467Q51 542 82 590T167 662T284 686H522V631H459V-170H392V631H321V-170H254Z" />
<glyph unicode="&#xb7;" glyph-name="middot" horiz-adv-x="333" d="M117 303V410H217V303H117Z" />
<glyph unicode="&#xb8;" glyph-name="cedilla" horiz-adv-x="209" d="M91 -176Q69 -176 45 -174T0 -168V-129H97Q115 -129 125 -122T136 -101Q136 -89 128 -83T97 -77H46L62 11H121L114 -39Q140 -39 161 -45T196 -64T209 -101Q209 -123 199 -137T171 -160T133
-172T91 -176Z" />
<glyph unicode="&#xb9;" glyph-name="uni00B9" horiz-adv-x="346" d="M59 440V496H148V711H59V752Q80 754 101 758T142 771T178 793H209V496H290V440H59Z" />
<glyph unicode="&#xba;" glyph-name="ordmasculine" horiz-adv-x="379" d="M189 329Q138 329 103 349T50 410T32 514Q32 578 50 618T104 678T191 698Q242 698 277 679T330 619T348 514Q348 451 330 410T276 349T189 329ZM190 382Q240 382 262 413T284 506V520Q284
583 262 614T190 645Q142 645 120 614T97 521V507Q97 446 119 414T190 382Z" />
<glyph unicode="&#xbb;" glyph-name="guillemotright" horiz-adv-x="550" d="M331 526L488 326L331 126H259L389 326L259 526H331ZM135 526L293 326L135 126H64L193 326L64 526H135Z" />
<glyph unicode="&#xbc;" glyph-name="onequarter" horiz-adv-x="845" d="M118 -12L664 698H733L187 -12H118ZM59 340V396H148V611H59V652Q80 654 101 658T142 671T178 693H209V396H290V340H59ZM668 0V79H505V126Q536 178 559 235T597 357H663Q655 324 643 290T618
225T591 170T569 132H668V221Q672 233 676 245T685 270T691 295H728V132H774V79H728V0H668Z" />
<glyph unicode="&#xbd;" glyph-name="onehalf" horiz-adv-x="845" d="M118 -12L664 698H733L187 -12H118ZM531 0V23Q531 53 546 75T584 116T632 151Q667 176 695 200T723 257Q723 277 708 291T663 305Q639 305 625 297T604 276T597 246V222H538Q537 227 536 234T535
250Q535 288 553 312T600 347T665 358Q706 358 732 344T771 307T784 256Q784 230 774 209T747 171T710 139T670 110Q649 96 632 83T606 56H786V0H531ZM59 340V396H148V611H59V652Q80 654 101 658T142 671T178 693H209V396H290V340H59Z" />
<glyph unicode="&#xbe;" glyph-name="threequarters" horiz-adv-x="845" d="M118 -12L664 698H733L187 -12H118ZM174 328Q109 328 75 357T41 437V447H102V436Q102 409 120 395T170 381Q192 381 208 386T232 404T241 437Q241 458 231 469T204 485T168 490H126V543H170Q188
543 202 548T224 565T233 596Q233 613 226 624T205 640T174 646Q157 646 142 640T119 622T110 593V581H48V595Q48 626 64 649T109 685T173 698Q209 698 236 687T280 653T296 598Q296 570 282 551T246 521V518Q272 508 288 487T304 433Q304 401 287 377T241 341T174
328ZM668 0V79H505V126Q536 178 559 235T597 357H663Q655 324 643 290T618 225T591 170T569 132H668V221Q672 233 676 245T685 270T691 295H728V132H774V79H728V0H668Z" />
<glyph unicode="&#xbf;" glyph-name="questiondown" horiz-adv-x="578" d="M287 -172Q238 -172 202 -161T142 -130T103 -88T82 -40T75 6Q75 54 88 86T121 142T165 182T208 215T242 251T255 302V348H339V292Q339 254 327 228T296 183T255 147T214 113T182 72T170
15Q170 3 174 -15T190 -51T227 -81T294 -93Q339 -93 366 -79T406 -43T424 0T429 35Q429 44 429 51T428 63H517Q519 59 520 50T521 29Q521 7 514 -20T490 -74T447 -123T381 -158T287 -172ZM248 421V526H346V421H248Z" />
<glyph unicode="&#xc0;" glyph-name="Agrave" horiz-adv-x="682" d="M7 0L278 686H403L675 0H572L505 170H171L105 0H7ZM202 251H473L390 466Q387 475 381 491T368 526T354 566T341 604H335Q328 584 319 558T301 508T286 466L202 251ZM390 736H309L199 865L200
868H304L390 736Z" />
<glyph unicode="&#xc1;" glyph-name="Aacute" horiz-adv-x="682" d="M7 0L278 686H403L675 0H572L505 170H171L105 0H7ZM202 251H473L390 466Q387 475 381 491T368 526T354 566T341 604H335Q328 584 319 558T301 508T286 466L202 251ZM299 736L385 868H489L490
865L380 736H299Z" />
<glyph unicode="&#xc2;" glyph-name="Acircumflex" horiz-adv-x="682" d="M7 0L278 686H403L675 0H572L505 170H171L105 0H7ZM202 251H473L390 466Q387 475 381 491T368 526T354 566T341 604H335Q328 584 319 558T301 508T286 466L202 251ZM190 736L296 868H387L492
736H407L319 845H363L275 736H190Z" />
<glyph unicode="&#xc3;" glyph-name="Atilde" horiz-adv-x="682" d="M7 0L278 686H403L675 0H572L505 170H171L105 0H7ZM202 251H473L390 466Q387 475 381 491T368 526T354 566T341 604H335Q328 584 319 558T301 508T286 466L202 251ZM182 767Q183 794 192 816T220
852T268 866Q294 866 318 858T365 841T410 832Q425 832 433 841T443 866H499Q499 839 490 817T461 781T412 767Q388 767 364 776T317 793T272 802Q256 802 248 793T238 767H182Z" />
<glyph unicode="&#xc4;" glyph-name="Adieresis" horiz-adv-x="682" d="M7 0L278 686H403L675 0H572L505 170H171L105 0H7ZM202 251H473L390 466Q387 475 381 491T368 526T354 566T341 604H335Q328 584 319 558T301 508T286 466L202 251ZM201 774V866H290V774H201ZM392
774V866H481V774H392Z" />
<glyph unicode="&#xc5;" glyph-name="Aring" horiz-adv-x="682" d="M7 0L278 686H403L675 0H572L505 170H171L105 0H7ZM202 251H473L390 466Q387 475 381 491T368 526T354 566T341 604H335Q328 584 319 558T301 508T286 466L202 251ZM341 730Q298 730 271 756T243
823Q243 864 270 890T341 917Q384 917 412 891T440 823Q440 783 412 757T341 730ZM341 776Q363 776 376 789T390 823Q390 844 377 857T341 870Q320 870 307 857T293 823Q293 803 306 790T341 776Z" />
<glyph unicode="&#xc6;" glyph-name="AE" horiz-adv-x="1000" d="M-3 0L344 686H938V604H492L546 392H894V310H568L626 82H944V0H550L506 173H183L97 0H-3ZM222 254H485L417 526Q415 535 413 544T408 562T403 581T399 598H393Q388 590 384 581T375 563T366 544T356
526L222 254Z" />
<glyph unicode="&#xc7;" glyph-name="Ccedilla" horiz-adv-x="728" d="M379 -12Q274 -12 201 26T90 143T51 343Q51 522 138 610T380 698Q468 698 536 670T642 584T681 439H585Q585 499 560 538T488 596T380 616Q308 616 256 588T177 502T150 351V330Q150 239 177
182T255 97T380 70Q444 70 490 89T562 147T588 247H681Q681 158 642 101T534 16T379 -12ZM380 -176Q357 -176 333 -174T289 -168V-129H385Q404 -129 414 -122T425 -101Q425 -89 417 -83T385 -77H335L351 11H410L403 -39Q429 -39 450 -45T484 -64T497 -101Q497 -123
487 -137T459 -160T422 -172T380 -176Z" />
<glyph unicode="&#xc8;" glyph-name="Egrave" horiz-adv-x="677" d="M86 0V686H614V604H181V392H570V310H181V82H620V0H86ZM405 736H324L214 865L215 868H318L405 736Z" />
<glyph unicode="&#xc9;" glyph-name="Eacute" horiz-adv-x="677" d="M86 0V686H614V604H181V392H570V310H181V82H620V0H86ZM314 736L400 868H504L505 865L394 736H314Z" />
<glyph unicode="&#xca;" glyph-name="Ecircumflex" horiz-adv-x="677" d="M86 0V686H614V604H181V392H570V310H181V82H620V0H86ZM205 736L311 868H402L507 736H422L334 845H378L290 736H205Z" />
<glyph unicode="&#xcb;" glyph-name="Edieresis" horiz-adv-x="677" d="M86 0V686H614V604H181V392H570V310H181V82H620V0H86ZM216 774V866H305V774H216ZM407 774V866H496V774H407Z" />
<glyph unicode="&#xcc;" glyph-name="Igrave" horiz-adv-x="267" d="M86 0V686H181V0H86ZM183 736H102L-8 865L-7 868H96L183 736Z" />
<glyph unicode="&#xcd;" glyph-name="Iacute" horiz-adv-x="267" d="M86 0V686H181V0H86ZM92 736L178 868H282L283 865L172 736H92Z" />
<glyph unicode="&#xce;" glyph-name="Icircumflex" horiz-adv-x="267" d="M86 0V686H181V0H86ZM-17 736L89 868H180L285 736H200L112 845H156L68 736H-17Z" />
<glyph unicode="&#xcf;" glyph-name="Idieresis" horiz-adv-x="267" d="M86 0V686H181V0H86ZM-6 774V866H83V774H-6ZM185 774V866H274V774H185Z" />
<glyph unicode="&#xd0;" glyph-name="Eth" horiz-adv-x="734" d="M0 310V386H375V310H0ZM86 0V686H342Q450 686 526 650T642 539T683 343Q683 225 643 149T526 37T342 0H86ZM181 82H340Q397 82 442 96T519 141T567 218T584 332V352Q584 420 568 467T520 545T443
589T340 604H181V82Z" />
<glyph unicode="&#xd1;" glyph-name="Ntilde" horiz-adv-x="736" d="M86 0V686H178L511 234Q516 228 524 216T540 193T553 172H557Q557 188 557 203T557 234V686H650V0H563L226 460Q219 471 206 491T183 523H178Q178 507 178 492T178 460V0H86ZM211 767Q212 794
221 816T249 852T297 866Q323 866 347 858T394 841T439 832Q454 832 462 841T472 866H528Q528 839 519 817T490 781T441 767Q417 767 393 776T346 793T301 802Q285 802 277 793T267 767H211Z" />
<glyph unicode="&#xd2;" glyph-name="Ograve" horiz-adv-x="788" d="M394 -12Q287 -12 211 27T93 145T51 343Q51 463 92 541T210 659T394 698Q501 698 577 659T695 542T737 343Q737 224 696 145T578 27T394 -12ZM394 70Q450 70 495 85T572 132T621 214T638 332V353Q638
422 621 471T573 553T496 601T394 616Q337 616 292 601T215 554T167 472T150 353V332Q150 264 166 215T215 133T292 85T394 70ZM442 736H361L251 865L252 868H356L442 736Z" />
<glyph unicode="&#xd3;" glyph-name="Oacute" horiz-adv-x="788" d="M394 -12Q287 -12 211 27T93 145T51 343Q51 463 92 541T210 659T394 698Q501 698 577 659T695 542T737 343Q737 224 696 145T578 27T394 -12ZM394 70Q450 70 495 85T572 132T621 214T638 332V353Q638
422 621 471T573 553T496 601T394 616Q337 616 292 601T215 554T167 472T150 353V332Q150 264 166 215T215 133T292 85T394 70ZM351 736L437 868H541L542 865L432 736H351Z" />
<glyph unicode="&#xd4;" glyph-name="Ocircumflex" horiz-adv-x="788" d="M394 -12Q287 -12 211 27T93 145T51 343Q51 463 92 541T210 659T394 698Q501 698 577 659T695 542T737 343Q737 224 696 145T578 27T394 -12ZM394 70Q450 70 495 85T572 132T621 214T638
332V353Q638 422 621 471T573 553T496 601T394 616Q337 616 292 601T215 554T167 472T150 353V332Q150 264 166 215T215 133T292 85T394 70ZM242 736L348 868H439L544 736H459L371 845H415L328 736H242Z" />
<glyph unicode="&#xd5;" glyph-name="Otilde" horiz-adv-x="788" d="M394 -12Q287 -12 211 27T93 145T51 343Q51 463 92 541T210 659T394 698Q501 698 577 659T695 542T737 343Q737 224 696 145T578 27T394 -12ZM394 70Q450 70 495 85T572 132T621 214T638 332V353Q638
422 621 471T573 553T496 601T394 616Q337 616 292 601T215 554T167 472T150 353V332Q150 264 166 215T215 133T292 85T394 70ZM234 767Q235 794 244 816T272 852T320 866Q346 866 370 858T417 841T462 832Q477 832 485 841T495 866H551Q551 839 542 817T513 781T464
767Q440 767 416 776T369 793T324 802Q308 802 300 793T290 767H234Z" />
<glyph unicode="&#xd6;" glyph-name="Odieresis" horiz-adv-x="788" d="M394 -12Q287 -12 211 27T93 145T51 343Q51 463 92 541T210 659T394 698Q501 698 577 659T695 542T737 343Q737 224 696 145T578 27T394 -12ZM394 70Q450 70 495 85T572 132T621 214T638
332V353Q638 422 621 471T573 553T496 601T394 616Q337 616 292 601T215 554T167 472T150 353V332Q150 264 166 215T215 133T292 85T394 70ZM253 774V866H342V774H253ZM444 774V866H533V774H444Z" />
<glyph unicode="&#xd7;" glyph-name="multiply" horiz-adv-x="625" d="M159 47L105 101L259 255L105 409L158 463L312 309L467 463L521 409L366 254L520 102L466 48L312 202L159 47Z" />
<glyph unicode="&#xd8;" glyph-name="Oslash" horiz-adv-x="788" d="M394 -12Q287 -12 211 27T93 145T51 343Q51 463 92 541T210 659T394 698Q501 698 577 659T695 542T737 343Q737 224 696 145T578 27T394 -12ZM394 70Q450 70 495 85T572 132T621 214T638 332V353Q638
422 621 471T573 553T496 601T394 616Q337 616 292 601T215 554T167 472T150 353V332Q150 264 166 215T215 133T292 85T394 70ZM57 -49L648 735H728L138 -49H57Z" />
<glyph unicode="&#xd9;" glyph-name="Ugrave" horiz-adv-x="731" d="M364 -12Q277 -12 214 16T118 104T84 260V686H179V250Q179 160 227 115T364 70Q453 70 503 115T553 250V686H647V260Q647 165 613 105T516 16T364 -12ZM415 736H334L223 865L224 868H328L415 736Z" />
<glyph unicode="&#xda;" glyph-name="Uacute" horiz-adv-x="731" d="M364 -12Q277 -12 214 16T118 104T84 260V686H179V250Q179 160 227 115T364 70Q453 70 503 115T553 250V686H647V260Q647 165 613 105T516 16T364 -12ZM323 736L410 868H513L514 865L404 736H323Z" />
<glyph unicode="&#xdb;" glyph-name="Ucircumflex" horiz-adv-x="731" d="M364 -12Q277 -12 214 16T118 104T84 260V686H179V250Q179 160 227 115T364 70Q453 70 503 115T553 250V686H647V260Q647 165 613 105T516 16T364 -12ZM215 736L320 868H411L517 736H431L344
845H388L300 736H215Z" />
<glyph unicode="&#xdc;" glyph-name="Udieresis" horiz-adv-x="731" d="M364 -12Q277 -12 214 16T118 104T84 260V686H179V250Q179 160 227 115T364 70Q453 70 503 115T553 250V686H647V260Q647 165 613 105T516 16T364 -12ZM226 774V866H315V774H226ZM416 774V866H505V774H416Z"
/>
<glyph unicode="&#xdd;" glyph-name="Yacute" horiz-adv-x="655" d="M280 0V285L10 686H119L328 369H333L541 686H645L376 285V0H280ZM287 736L374 868H477L478 865L368 736H287Z" />
<glyph unicode="&#xde;" glyph-name="Thorn" horiz-adv-x="679" d="M85 0V686H180V567H418Q490 567 537 541T608 467T632 358Q632 294 606 246T533 171T419 144H180V0H85ZM180 226H413Q469 226 502 261T536 358Q536 397 522 425T481 469T413 485H180V226Z" />
<glyph unicode="&#xdf;" glyph-name="germandbls" horiz-adv-x="619" d="M79 0V516Q79 575 98 616T151 684T227 722T320 735Q375 735 417 722T488 685T532 629T547 558Q547 501 515 458T428 396V392Q495 375 534 327T573 207Q573 141 546 95T469 24T357 0H255V74H347Q388
74 418 89T466 136T483 213Q483 255 465 285T416 331T347 347H255V423H337Q370 423 396 440T439 485T456 548Q456 598 421 630T319 662Q273 662 239 646T187 598T168 519V0H79Z" />
<glyph unicode="&#xe0;" glyph-name="agrave" horiz-adv-x="545" d="M201 -12Q172 -12 143 -5T89 18T49 62T34 134Q34 188 60 223T132 277T243 304T382 312V372Q382 401 372 422T337 454T264 466Q219 466 193 455T156 425T145 385V370H60Q59 375 59 380T59 392Q59
440 85 472T160 521T270 538Q336 538 380 519T447 465T470 381V96Q470 77 479 70T501 62H540V4Q526 -2 509 -6T470 -11Q444 -11 427 -1T401 28T389 70H382Q364 45 337 27T275 -2T201 -12ZM223 62Q255 62 283 72T334 100T369 145T382 202V246Q301 246 244 237T157
205T126 140Q126 113 138 96T172 71T223 62ZM321 591H244L134 720L135 723H234L321 591Z" />
<glyph unicode="&#xe1;" glyph-name="aacute" horiz-adv-x="545" d="M201 -12Q172 -12 143 -5T89 18T49 62T34 134Q34 188 60 223T132 277T243 304T382 312V372Q382 401 372 422T337 454T264 466Q219 466 193 455T156 425T145 385V370H60Q59 375 59 380T59 392Q59
440 85 472T160 521T270 538Q336 538 380 519T447 465T470 381V96Q470 77 479 70T501 62H540V4Q526 -2 509 -6T470 -11Q444 -11 427 -1T401 28T389 70H382Q364 45 337 27T275 -2T201 -12ZM223 62Q255 62 283 72T334 100T369 145T382 202V246Q301 246 244 237T157
205T126 140Q126 113 138 96T172 71T223 62ZM214 591L301 723H400L401 720L291 591H214Z" />
<glyph unicode="&#xe2;" glyph-name="acircumflex" horiz-adv-x="545" d="M201 -12Q172 -12 143 -5T89 18T49 62T34 134Q34 188 60 223T132 277T243 304T382 312V372Q382 401 372 422T337 454T264 466Q219 466 193 455T156 425T145 385V370H60Q59 375 59 380T59
392Q59 440 85 472T160 521T270 538Q336 538 380 519T447 465T470 381V96Q470 77 479 70T501 62H540V4Q526 -2 509 -6T470 -11Q444 -11 427 -1T401 28T389 70H382Q364 45 337 27T275 -2T201 -12ZM223 62Q255 62 283 72T334 100T369 145T382 202V246Q301 246 244
237T157 205T126 140Q126 113 138 96T172 71T223 62ZM119 591L225 723H308L414 591H332L245 700H289L201 591H119Z" />
<glyph unicode="&#xe3;" glyph-name="atilde" horiz-adv-x="545" d="M201 -12Q172 -12 143 -5T89 18T49 62T34 134Q34 188 60 223T132 277T243 304T382 312V372Q382 401 372 422T337 454T264 466Q219 466 193 455T156 425T145 385V370H60Q59 375 59 380T59 392Q59
440 85 472T160 521T270 538Q336 538 380 519T447 465T470 381V96Q470 77 479 70T501 62H540V4Q526 -2 509 -6T470 -11Q444 -11 427 -1T401 28T389 70H382Q364 45 337 27T275 -2T201 -12ZM223 62Q255 62 283 72T334 100T369 145T382 202V246Q301 246 244 237T157
205T126 140Q126 113 138 96T172 71T223 62ZM107 622Q108 649 117 671T145 707T194 720Q220 720 243 712T290 695T335 686Q351 686 358 695T368 720H425Q424 693 415 671T387 636T338 622Q313 622 289 630T243 647T197 656Q182 656 174 647T164 622H107Z" />
<glyph unicode="&#xe4;" glyph-name="adieresis" horiz-adv-x="545" d="M201 -12Q172 -12 143 -5T89 18T49 62T34 134Q34 188 60 223T132 277T243 304T382 312V372Q382 401 372 422T337 454T264 466Q219 466 193 455T156 425T145 385V370H60Q59 375 59 380T59
392Q59 440 85 472T160 521T270 538Q336 538 380 519T447 465T470 381V96Q470 77 479 70T501 62H540V4Q526 -2 509 -6T470 -11Q444 -11 427 -1T401 28T389 70H382Q364 45 337 27T275 -2T201 -12ZM223 62Q255 62 283 72T334 100T369 145T382 202V246Q301 246 244
237T157 205T126 140Q126 113 138 96T172 71T223 62ZM126 629V721H215V629H126ZM317 629V721H406V629H317Z" />
<glyph unicode="&#xe5;" glyph-name="aring" horiz-adv-x="545" d="M201 -12Q172 -12 143 -5T89 18T49 62T34 134Q34 188 60 223T132 277T243 304T382 312V372Q382 401 372 422T337 454T264 466Q219 466 193 455T156 425T145 385V370H60Q59 375 59 380T59 392Q59
440 85 472T160 521T270 538Q336 538 380 519T447 465T470 381V96Q470 77 479 70T501 62H540V4Q526 -2 509 -6T470 -11Q444 -11 427 -1T401 28T389 70H382Q364 45 337 27T275 -2T201 -12ZM223 62Q255 62 283 72T334 100T369 145T382 202V246Q301 246 244 237T157
205T126 140Q126 113 138 96T172 71T223 62ZM267 580Q226 580 199 606T172 673Q172 714 199 740T267 767Q308 767 334 741T361 673Q361 633 335 607T267 580ZM267 624Q288 624 301 638T315 673Q315 694 302 708T267 723Q246 723 232 709T218 673Q218 652 232 638T267
624Z" />
<glyph unicode="&#xe6;" glyph-name="ae" horiz-adv-x="894" d="M218 -12Q187 -12 155 -5T96 18T51 62T34 134Q34 188 60 222T135 275T249 302T393 310V372Q393 401 383 422T345 454T268 466Q221 466 194 455T156 425T145 385V370H60Q59 375 59 380T59 392Q59
440 86 472T161 521T274 538Q340 538 385 519T452 463Q482 501 527 519T632 538Q704 538 754 510T829 426T854 286V243H483Q484 179 500 139T549 79T630 60Q663 60 688 68T730 93T756 131T766 179H852Q851 137 836 102T793 41T723 2T628 -12Q559 -12 511 12T434
86Q407 49 372 28T298 -3T218 -12ZM227 60Q260 60 290 70T343 98T380 143T393 202V243Q310 243 250 235T158 204T126 140Q126 112 138 95T174 69T227 60ZM484 309H763Q763 353 753 383T725 431T683 458T629 466Q584 466 553 450T505 399T484 309Z" />
<glyph unicode="&#xe7;" glyph-name="ccedilla" horiz-adv-x="519" d="M269 -12Q193 -12 142 17T64 108T37 263Q37 356 63 417T142 508T272 538Q326 538 365 524T431 483T469 418T482 331H393Q393 377 381 406T341 450T270 465Q226 465 194 446T145 384T128 273V252Q128
187 144 144T193 81T271 61Q316 61 343 77T383 123T396 195H482Q482 151 470 113T431 47T365 4T269 -12ZM260 -176Q237 -176 213 -174T168 -168V-129H265Q284 -129 294 -122T304 -101Q304 -89 296 -83T265 -77H214L230 11H290L283 -39Q309 -39 330 -45T364 -64T377
-101Q377 -123 367 -137T339 -160T302 -172T260 -176Z" />
<glyph unicode="&#xe8;" glyph-name="egrave" horiz-adv-x="548" d="M279 -12Q201 -12 148 17T67 108T39 263Q39 358 66 418T148 508T283 538Q357 538 407 510T482 425T508 283V241H130Q132 178 148 138T198 79T281 60Q315 60 340 68T383 93T410 131T420 179H506Q505
137 490 102T446 41T375 2T279 -12ZM132 307H417Q417 351 407 381T379 430T336 457T280 466Q234 466 202 449T153 397T132 307ZM334 591H257L147 720L148 723H248L334 591Z" />
<glyph unicode="&#xe9;" glyph-name="eacute" horiz-adv-x="548" d="M279 -12Q201 -12 148 17T67 108T39 263Q39 358 66 418T148 508T283 538Q357 538 407 510T482 425T508 283V241H130Q132 178 148 138T198 79T281 60Q315 60 340 68T383 93T410 131T420 179H506Q505
137 490 102T446 41T375 2T279 -12ZM132 307H417Q417 351 407 381T379 430T336 457T280 466Q234 466 202 449T153 397T132 307ZM228 591L314 723H414L415 720L304 591H228Z" />
<glyph unicode="&#xea;" glyph-name="ecircumflex" horiz-adv-x="548" d="M279 -12Q201 -12 148 17T67 108T39 263Q39 358 66 418T148 508T283 538Q357 538 407 510T482 425T508 283V241H130Q132 178 148 138T198 79T281 60Q315 60 340 68T383 93T410 131T420
179H506Q505 137 490 102T446 41T375 2T279 -12ZM132 307H417Q417 351 407 381T379 430T336 457T280 466Q234 466 202 449T153 397T132 307ZM133 591L238 723H322L427 591H346L258 700H302L214 591H133Z" />
<glyph unicode="&#xeb;" glyph-name="edieresis" horiz-adv-x="548" d="M279 -12Q201 -12 148 17T67 108T39 263Q39 358 66 418T148 508T283 538Q357 538 407 510T482 425T508 283V241H130Q132 178 148 138T198 79T281 60Q315 60 340 68T383 93T410 131T420 179H506Q505
137 490 102T446 41T375 2T279 -12ZM132 307H417Q417 351 407 381T379 430T336 457T280 466Q234 466 202 449T153 397T132 307ZM139 629V721H228V629H139ZM330 629V721H419V629H330Z" />
<glyph unicode="&#xec;" glyph-name="igrave" horiz-adv-x="225" d="M69 0V526H157V0H69ZM167 591H90L-20 720L-19 723H80L167 591Z" />
<glyph unicode="&#xed;" glyph-name="iacute" horiz-adv-x="225" d="M69 0V526H157V0H69ZM60 591L147 723H246L247 720L137 591H60Z" />
<glyph unicode="&#xee;" glyph-name="icircumflex" horiz-adv-x="225" d="M69 0V526H157V0H69ZM-35 591L71 723H154L260 591H178L91 700H135L47 591H-35Z" />
<glyph unicode="&#xef;" glyph-name="idieresis" horiz-adv-x="225" d="M69 0V526H157V0H69ZM-28 629V721H61V629H-28ZM163 629V721H252V629H163Z" />
<glyph unicode="&#xf0;" glyph-name="eth" horiz-adv-x="567" d="M282 -12Q204 -12 150 17T69 107T41 261Q41 352 67 412T143 503T264 534Q287 534 308 530T348 519L350 521Q333 546 314 569T272 615L125 604V661L218 667Q202 681 185 694T151 719L154 723H262Q273
715 283 707T303 691T322 675L466 686V629L377 622Q424 572 457 516T509 397T527 261Q527 167 499 106T416 17T282 -12ZM284 62Q334 62 368 82T418 143T435 251V272Q435 338 419 379T368 440T284 460Q233 460 200 441T149 380T132 272V252Q132 185 149 144T199
82T284 62Z" />
<glyph unicode="&#xf1;" glyph-name="ntilde" horiz-adv-x="563" d="M69 0V526H140L148 447H155Q176 479 202 499T261 528T331 538Q381 538 418 521T477 466T499 363V0H411V351Q411 384 403 405T380 438T345 455T299 460Q262 460 229 442T177 390T157 309V0H69ZM124
622Q125 649 134 671T162 707T210 720Q236 720 260 712T307 695T352 686Q367 686 375 695T385 720H441Q441 693 432 671T403 636T354 622Q330 622 306 630T259 647T214 656Q198 656 190 647T180 622H124Z" />
<glyph unicode="&#xf2;" glyph-name="ograve" horiz-adv-x="570" d="M285 -12Q205 -12 151 17T68 108T39 263Q39 358 67 418T150 508T285 538Q365 538 419 509T502 419T530 263Q530 169 502 108T420 18T285 -12ZM285 62Q336 62 370 82T421 144T439 252V274Q439
340 422 382T370 444T285 464Q234 464 200 444T148 382T131 274V252Q131 187 148 145T199 82T285 62ZM339 591H262L152 720L153 723H252L339 591Z" />
<glyph unicode="&#xf3;" glyph-name="oacute" horiz-adv-x="570" d="M285 -12Q205 -12 151 17T68 108T39 263Q39 358 67 418T150 508T285 538Q365 538 419 509T502 419T530 263Q530 169 502 108T420 18T285 -12ZM285 62Q336 62 370 82T421 144T439 252V274Q439
340 422 382T370 444T285 464Q234 464 200 444T148 382T131 274V252Q131 187 148 145T199 82T285 62ZM233 591L319 723H419L420 720L309 591H233Z" />
<glyph unicode="&#xf4;" glyph-name="ocircumflex" horiz-adv-x="570" d="M285 -12Q205 -12 151 17T68 108T39 263Q39 358 67 418T150 508T285 538Q365 538 419 509T502 419T530 263Q530 169 502 108T420 18T285 -12ZM285 62Q336 62 370 82T421 144T439 252V274Q439
340 422 382T370 444T285 464Q234 464 200 444T148 382T131 274V252Q131 187 148 145T199 82T285 62ZM137 591L243 723H327L432 591H350L263 700H307L219 591H137Z" />
<glyph unicode="&#xf5;" glyph-name="otilde" horiz-adv-x="570" d="M285 -12Q205 -12 151 17T68 108T39 263Q39 358 67 418T150 508T285 538Q365 538 419 509T502 419T530 263Q530 169 502 108T420 18T285 -12ZM285 62Q336 62 370 82T421 144T439 252V274Q439
340 422 382T370 444T285 464Q234 464 200 444T148 382T131 274V252Q131 187 148 145T199 82T285 62ZM126 622Q126 649 135 671T163 707T212 720Q238 720 262 712T308 695T353 686Q369 686 376 695T386 720H443Q442 693 433 671T405 636T356 622Q331 622 307 630T261
647T216 656Q200 656 192 647T182 622H126Z" />
<glyph unicode="&#xf6;" glyph-name="odieresis" horiz-adv-x="570" d="M285 -12Q205 -12 151 17T68 108T39 263Q39 358 67 418T150 508T285 538Q365 538 419 509T502 419T530 263Q530 169 502 108T420 18T285 -12ZM285 62Q336 62 370 82T421 144T439 252V274Q439
340 422 382T370 444T285 464Q234 464 200 444T148 382T131 274V252Q131 187 148 145T199 82T285 62ZM144 629V721H233V629H144ZM335 629V721H424V629H335Z" />
<glyph unicode="&#xf7;" glyph-name="divide" horiz-adv-x="625" d="M76 217V294H548V217H76ZM266 24V114H357V24H266ZM266 398V488H357V398H266Z" />
<glyph unicode="&#xf8;" glyph-name="oslash" horiz-adv-x="570" d="M285 -12Q205 -12 151 17T68 108T39 263Q39 358 67 418T150 508T285 538Q365 538 419 509T502 419T530 263Q530 169 502 108T420 18T285 -12ZM285 62Q336 62 370 82T421 144T439 252V274Q439
340 422 382T370 444T285 464Q234 464 200 444T148 382T131 274V252Q131 187 148 145T199 82T285 62ZM27 -48L475 576H542L96 -48H27Z" />
<glyph unicode="&#xf9;" glyph-name="ugrave" horiz-adv-x="562" d="M232 -12Q156 -12 110 27T64 163V526H152V175Q152 142 160 121T183 88T218 71T263 66Q301 66 333 84T385 136T406 217V526H494V0H423L415 79H408Q387 47 361 27T302 -2T232 -12ZM336 591H259L149
720L150 723H249L336 591Z" />
<glyph unicode="&#xfa;" glyph-name="uacute" horiz-adv-x="562" d="M232 -12Q156 -12 110 27T64 163V526H152V175Q152 142 160 121T183 88T218 71T263 66Q301 66 333 84T385 136T406 217V526H494V0H423L415 79H408Q387 47 361 27T302 -2T232 -12ZM229 591L316
723H415L416 720L306 591H229Z" />
<glyph unicode="&#xfb;" glyph-name="ucircumflex" horiz-adv-x="562" d="M232 -12Q156 -12 110 27T64 163V526H152V175Q152 142 160 121T183 88T218 71T263 66Q301 66 333 84T385 136T406 217V526H494V0H423L415 79H408Q387 47 361 27T302 -2T232 -12ZM134 591L240
723H323L429 591H347L259 700H303L216 591H134Z" />
<glyph unicode="&#xfc;" glyph-name="udieresis" horiz-adv-x="562" d="M232 -12Q156 -12 110 27T64 163V526H152V175Q152 142 160 121T183 88T218 71T263 66Q301 66 333 84T385 136T406 217V526H494V0H423L415 79H408Q387 47 361 27T302 -2T232 -12ZM141 629V721H230V629H141ZM332
629V721H421V629H332Z" />
<glyph unicode="&#xfd;" glyph-name="yacute" horiz-adv-x="504" d="M114 -182Q90 -182 73 -179T49 -174V-110H93Q117 -110 140 -100T183 -66T217 0L13 526H105L210 255Q217 236 226 209T245 152T261 101H267Q271 117 277 137T289 178T302 219T313 254L402 526H491L313
15Q298 -28 280 -64T240 -127T187 -167T114 -182ZM210 591L296 723H395L396 720L286 591H210Z" />
<glyph unicode="&#xfe;" glyph-name="thorn" horiz-adv-x="562" d="M69 -173V728H157V460H163Q181 488 205 505T260 530T324 538Q384 538 429 509T498 420T523 266Q523 169 498 108T428 17T320 -12Q287 -12 258 -4T204 22T163 66H157V-173H69ZM296 65Q340 65 370
83T415 142T431 252V273Q431 339 417 380T373 441T296 461Q268 461 243 452T199 422T168 364T157 273V256Q157 194 171 152T217 87T296 65Z" />
<glyph unicode="&#xff;" glyph-name="ydieresis" horiz-adv-x="504" d="M114 -182Q90 -182 73 -179T49 -174V-110H93Q117 -110 140 -100T183 -66T217 0L13 526H105L210 255Q217 236 226 209T245 152T261 101H267Q271 117 277 137T289 178T302 219T313 254L402
526H491L313 15Q298 -28 280 -64T240 -127T187 -167T114 -182ZM121 629V721H210V629H121ZM312 629V721H401V629H312Z" />
<glyph unicode="&#x2013;" glyph-name="endash" horiz-adv-x="500" d="M0 235V306H500V235H0Z" />
<glyph unicode="&#x2014;" glyph-name="emdash" horiz-adv-x="1000" d="M0 235V306H1000V235H0Z" />
<glyph unicode="&#x2018;" glyph-name="quoteleft" horiz-adv-x="239" d="M176 686V645Q157 641 145 626T127 589T121 539H166V435H68V528Q68 586 85 618T127 666T176 686Z" />
<glyph unicode="&#x2019;" glyph-name="quoteright" horiz-adv-x="239" d="M62 435V475Q82 480 94 495T112 532T118 581H72V686H170V592Q170 535 153 502T112 455T62 435Z" />
<glyph unicode="&#x201a;" glyph-name="quotesinglbase" horiz-adv-x="239" d="M62 -147V-106Q82 -102 94 -87T112 -50T118 0H72V105H170V11Q170 -47 153 -79T112 -127T62 -147Z" />
<glyph unicode="&#x201c;" glyph-name="quotedblleft" horiz-adv-x="394" d="M331 686V645Q312 641 300 626T282 589T276 539H322V435H224V528Q224 586 240 618T282 666T331 686ZM176 686V645Q157 641 145 626T127 589T121 539H166V435H68V528Q68 586 85 618T127
666T176 686Z" />
<glyph unicode="&#x201d;" glyph-name="quotedblright" horiz-adv-x="394" d="M62 435V475Q82 480 94 495T112 532T118 581H72V686H170V592Q170 535 153 502T112 455T62 435ZM218 435V475Q237 480 249 495T267 532T273 581H227V686H325V592Q325 535 309 502T267
455T218 435Z" />
<glyph unicode="&#x201e;" glyph-name="quotedblbase" horiz-adv-x="394" d="M62 -147V-106Q82 -102 94 -87T112 -50T118 0H72V105H170V11Q170 -47 153 -79T112 -127T62 -147ZM218 -147V-106Q237 -102 249 -87T267 -50T273 0H227V105H325V11Q325 -47 309 -79T267
-127T218 -147Z" />
<glyph unicode="&#x2022;" glyph-name="bullet" horiz-adv-x="391" d="M195 220Q159 220 132 236T88 279T72 343Q72 379 88 407T131 451T195 467Q231 467 259 451T303 407T319 343Q319 307 303 280T259 236T195 220Z" />
<glyph unicode="&#x2039;" glyph-name="guilsinglleft" horiz-adv-x="355" d="M219 126L62 326L219 526H290L161 326L290 126H219Z" />
<glyph unicode="&#x203a;" glyph-name="guilsinglright" horiz-adv-x="355" d="M135 526L293 326L135 126H64L193 326L64 526H135Z" />
</font>
</defs>
</svg>
