<?xml version="1.0" standalone="no"?>
<!DOCTYPE svg PUBLIC "-//W3C//DTD SVG 1.1//EN" "http://www.w3.org/Graphics/SVG/1.1/DTD/svg11.dtd">
<svg xmlns="http://www.w3.org/2000/svg">
<defs >
<font id="Archivo" horiz-adv-x="575" ><font-face
    font-family="Archivo ExtraLight"
    units-per-em="1000"
    panose-1="0 0 0 0 0 0 0 0 0 0"
    ascent="878"
    descent="-210"
    alphabetic="0" />
<glyph unicode=" " glyph-name="space" horiz-adv-x="217" />
<glyph unicode="!" glyph-name="exclam" horiz-adv-x="256" d="M108 173L92 686H163L148 173H108ZM92 0V84H164V0H92Z" />
<glyph unicode="&quot;" glyph-name="quotedbl" horiz-adv-x="312" d="M62 413L51 539V686H113V539L100 413H62ZM197 413L186 539V686H248V539L235 413H197Z" />
<glyph unicode="#" glyph-name="numbersign" horiz-adv-x="580" d="M71 -12L116 190H25V244H129L169 421H69V475H181L233 698H293L241 475H412L464 698H524L473 475H556V421H460L420 244H511V190H408L362 -12H302L348 190H177L131 -12H71ZM189 244H360L400 421H229L189
244Z" />
<glyph unicode="$" glyph-name="dollar" horiz-adv-x="482" d="M220 -49V723H269V-49H220ZM238 67Q187 67 148 77T83 107T44 156T30 223Q30 227 30 232T31 241H89Q88 235 88 232T88 224Q88 182 107 159T162 127T243 117Q283 117 314 128T363 162T382 217Q382 256
359 276T298 308T221 331Q190 340 159 351T104 377T64 417T49 479Q49 510 62 535T99 579T159 607T241 617Q295 617 331 605T389 572T420 525T430 473Q430 470 430 466T429 456H371V471Q371 492 362 514T324 551T238 567Q205 567 181 562T141 545T117 518T108 481Q108
449 127 432T178 406T244 384Q279 373 314 363T378 336T424 294T442 226Q442 187 427 158T384 108T320 78T238 67Z" />
<glyph unicode="%" glyph-name="percent" horiz-adv-x="937" d="M191 0L680 686H745L257 0H191ZM236 337Q192 337 160 353T111 409T94 517Q94 587 111 626T160 681T236 698Q281 698 312 682T361 626T378 517Q378 448 361 409T313 353T236 337ZM236 382Q286 382
302 415T319 514V521Q319 564 312 593T287 637T236 653Q189 653 172 619T154 521V514Q154 449 171 416T236 382ZM701 -12Q657 -12 625 4T576 60T559 168Q559 238 576 277T625 332T701 349Q746 349 777 333T826 277T843 168Q843 99 826 60T778 4T701 -12ZM701 33Q751
33 767 67T784 165V172Q784 215 777 244T752 288T701 304Q654 304 637 270T619 172V165Q619 101 636 67T701 33Z" />
<glyph unicode="&amp;" glyph-name="ampersand" horiz-adv-x="660" d="M291 -12Q219 -12 164 11T77 79T46 184Q46 251 78 293T157 352V356Q117 378 89 415T61 510Q61 571 90 613T174 676T301 698Q372 698 427 675T514 610T546 510V500H488V506Q486 556 460 586T392
631T300 646Q268 646 237 640T179 618T137 576T121 512Q121 465 144 434T204 389T285 374H343V325H287Q242 325 201 313T133 271T107 186Q107 134 132 102T201 55T302 40Q365 40 406 55T467 103T488 185V374H625V322H546V188Q546 121 517 76T432 10T291 -12Z" />
<glyph unicode="&apos;" glyph-name="quotesingle" horiz-adv-x="177" d="M62 413L51 539V686H113V539L100 413H62Z" />
<glyph unicode="(" glyph-name="parenleft" horiz-adv-x="354" d="M261 -157Q174 -65 127 51T79 289Q79 411 126 527T261 735H298Q256 675 220 603T164 452T143 289Q143 207 163 128T220 -24T298 -157H261Z" />
<glyph unicode=")" glyph-name="parenright" horiz-adv-x="354" d="M93 735Q181 643 228 527T275 289Q275 167 228 51T93 -157H55Q99 -96 134 -25T190 126T211 289Q211 371 190 450T134 602T55 735H93Z" />
<glyph unicode="*" glyph-name="asterisk" horiz-adv-x="407" d="M174 336L185 478L77 397L47 450L166 511L47 572L77 625L185 544L174 686H234L223 544L331 625L361 572L241 511L361 450L331 397L223 478L234 336H174Z" />
<glyph unicode="+" glyph-name="plus" horiz-adv-x="615" d="M279 0V227H72V283H279V511H336V283H544V227H336V0H279Z" />
<glyph unicode="," glyph-name="comma" horiz-adv-x="257" d="M78 -133V-101Q94 -96 103 -82T117 -47T122 0H90V84H163V11Q163 -46 149 -75T114 -117T78 -133Z" />
<glyph unicode="-" glyph-name="hyphen" horiz-adv-x="333" d="M40 236V305H293V236H40Z" />
<glyph unicode="." glyph-name="period" horiz-adv-x="257" d="M92 0V84H165V0H92Z" />
<glyph unicode="/" glyph-name="slash" horiz-adv-x="290" d="M0 -49L235 735H290L55 -49H0Z" />
<glyph unicode="0" glyph-name="zero" horiz-adv-x="571" d="M285 -12Q230 -12 186 5T111 62T64 171T47 343Q47 446 63 514T110 623T185 681T285 698Q341 698 385 681T459 624T506 515T523 343Q523 240 507 172T460 63T385 5T285 -12ZM285 39Q352 39 390 71T445
166T461 323V363Q461 457 445 520T391 615T285 647Q219 647 181 615T126 520T109 363V323Q109 230 125 167T180 71T285 39Z" />
<glyph unicode="1" glyph-name="one" horiz-adv-x="473" d="M39 0V52H221V567H39V605Q82 607 121 612T194 635T257 689H279V52H451V0H39Z" />
<glyph unicode="2" glyph-name="two" horiz-adv-x="560" d="M48 0V25Q48 65 65 99T111 162T175 217T248 270Q304 308 349 344T422 421T449 515Q449 556 431 586T377 631T291 647Q224 647 186 624T133 564T117 491V450H59Q58 455 57 466T56 490Q56 564 89 609T177
676T295 698Q341 698 380 687T449 652T494 595T510 514Q510 467 494 429T448 358T378 295T291 233Q252 206 213 176T147 115T115 56H514V0H48Z" />
<glyph unicode="3" glyph-name="three" horiz-adv-x="571" d="M286 -12Q205 -12 151 11T69 79T41 185V196H98V187Q98 115 145 77T275 39Q361 39 412 74T464 188Q464 241 437 270T366 311T275 323H190V374H278Q322 374 361 387T424 432T448 516Q448 560 427 589T369
632T290 647Q242 647 203 631T140 582T116 504V492H56V504Q56 561 86 605T168 673T288 698Q351 698 401 678T480 617T509 517Q509 471 492 439T447 387T391 356V352Q448 336 487 294T526 184Q526 123 495 79T410 12T286 -12Z" />
<glyph unicode="4" glyph-name="four" horiz-adv-x="536" d="M360 0V182H26V233Q69 310 104 385T166 538T210 698H273Q260 642 242 583T202 469T159 366T118 284T87 232H360V490Q364 503 367 517T375 546T382 573T387 596H418V232H514V182H418V0H360Z" />
<glyph unicode="5" glyph-name="five" horiz-adv-x="568" d="M293 -12Q221 -12 167 15T83 92T53 213H111Q111 159 136 120T202 60T293 39Q343 39 383 58T445 119T468 224Q468 281 448 318T392 374T305 392Q269 392 236 381T176 349T132 295L79 306L107 686H493V629H159L140
377Q158 395 182 410T239 435T309 444Q370 444 419 422T499 353T529 229Q529 154 501 100T420 17T293 -12Z" />
<glyph unicode="6" glyph-name="six" horiz-adv-x="571" d="M298 -12Q239 -12 193 4T114 59T65 161T48 323Q48 427 64 499T113 614T192 678T299 698Q370 698 414 671T480 596T501 487H441Q441 542 424 577T375 630T294 647Q222 647 182 611T126 506T108 339Q129
376 160 399T229 432T304 443Q380 443 429 414T502 334T526 221Q526 152 496 99T415 17T298 -12ZM291 39Q351 39 389 64T446 130T465 222Q465 268 447 306T392 369T294 393Q236 393 197 369T138 303T118 214Q118 167 136 127T193 63T291 39Z" />
<glyph unicode="7" glyph-name="seven" horiz-adv-x="532" d="M144 0Q144 101 170 192T239 362T330 509T422 629H32V686H509V653Q469 607 427 552T347 435T277 308T228 176T210 44V0H144Z" />
<glyph unicode="8" glyph-name="eight" horiz-adv-x="572" d="M286 -12Q203 -12 151 14T74 86T50 186Q50 242 79 285T171 352Q122 377 96 419T69 511Q69 564 93 606T167 673T286 698Q358 698 405 674T478 607T503 511Q503 461 477 419T401 352Q463 329 492 286T521
186Q521 131 498 86T423 15T286 -12ZM286 39Q374 39 417 77T460 182Q460 248 417 287T286 326Q199 326 155 287T111 182Q111 116 155 78T286 39ZM286 376Q358 376 400 412T442 514Q442 578 401 612T286 647Q214 647 172 613T130 514Q130 448 172 412T286 376Z"
/>
<glyph unicode="9" glyph-name="nine" horiz-adv-x="571" d="M272 -12Q200 -12 156 15T91 90T70 199H130Q130 144 147 109T197 56T277 39Q348 39 388 75T445 181T463 347Q442 310 411 287T343 254T267 243Q192 243 143 272T69 352T45 465Q45 535 75 587T157 669T273
698Q332 698 378 682T457 627T506 525T523 363Q523 260 506 188T458 72T379 8T272 -12ZM276 293Q335 293 374 317T433 383T453 472Q453 520 434 560T377 623T280 647Q220 647 182 622T125 556T106 464Q106 418 124 380T179 317T276 293Z" />
<glyph unicode=":" glyph-name="colon" horiz-adv-x="260" d="M94 442V526H166V442H94ZM94 0V84H166V0H94Z" />
<glyph unicode=";" glyph-name="semicolon" horiz-adv-x="260" d="M82 -133V-101Q97 -96 107 -82T121 -47T126 0H94V84H166V11Q166 -46 151 -75T117 -117T82 -133ZM94 442V526H166V442H94Z" />
<glyph unicode="&lt;" glyph-name="less" horiz-adv-x="615" d="M534 6L59 214V285L534 493V431L112 250L534 68V6Z" />
<glyph unicode="=" glyph-name="equal" horiz-adv-x="615" d="M70 331V387H545V331H70ZM70 122V179H545V122H70Z" />
<glyph unicode="&gt;" glyph-name="greater" horiz-adv-x="615" d="M81 6V68L503 250L81 431V493L556 285V214L81 6Z" />
<glyph unicode="?" glyph-name="question" horiz-adv-x="547" d="M236 164V229Q236 264 248 288T281 331T323 366T365 402T398 449T411 516Q411 530 406 552T387 595T344 630T269 644Q217 644 186 627T139 583T118 533T113 494Q113 487 113 480T113 465H56Q55
468 54 476T53 498Q53 511 58 535T75 587T112 640T176 681T274 698Q330 698 366 683T424 644T455 595T469 550T473 520Q473 470 460 437T427 380T384 341T341 309T308 273T295 222V164H236ZM229 0V84H302V0H229Z" />
<glyph unicode="@" glyph-name="at" horiz-adv-x="1011" d="M478 -153Q349 -153 254 -110T108 26T57 262Q57 381 93 464T193 598T339 673T514 697Q609 697 689 676T828 609T921 493T954 320Q954 253 940 204T903 120T852 64T793 33T737 23Q699 23 678 32T648 59T638
103H632Q614 77 586 59T523 31T453 21Q422 21 394 28T345 52T312 92T299 152Q299 201 324 232T396 280T503 303T637 310V378Q637 409 625 430T584 464T502 476Q452 476 424 464T385 430T373 384V368H322Q321 373 321 377T321 389Q321 435 345 464T412 507T514 521Q569
521 608 505T669 459T691 387V113Q691 91 700 81T739 70Q779 70 817 94T880 173T905 321Q905 438 855 511T717 618T513 652Q389 652 297 609T156 480T106 261Q106 78 196 -14T478 -107Q504 -107 537 -103T603 -93T655 -77V-126Q633 -134 600 -140T535 -149T478
-153ZM460 67Q492 67 522 77T579 105T621 150T637 208V264Q541 264 479 254T387 220T356 152Q356 122 370 103T408 76T460 67Z" />
<glyph unicode="A" glyph-name="A" horiz-adv-x="658" d="M9 0L284 686H374L649 0H579L503 191H151L75 0H9ZM174 247H480L384 488Q381 496 375 512T362 548T346 590T331 631H323Q316 612 306 586T287 534T269 488L174 247Z" />
<glyph unicode="B" glyph-name="B" horiz-adv-x="691" d="M95 0V686H432Q493 686 535 667T600 610T623 522Q623 483 610 450T572 394T515 360V356Q550 348 578 329T624 275T642 186Q642 116 615 76T541 18T432 0H95ZM159 57H443Q503 57 540 86T577 190Q577 237
561 266T514 310T437 324H159V57ZM159 380H426Q464 380 493 396T540 440T558 508Q558 570 524 599T435 629H159V380Z" />
<glyph unicode="C" glyph-name="C" horiz-adv-x="735" d="M380 -12Q275 -12 203 27T94 146T57 343Q57 520 142 609T381 698Q472 698 539 670T644 586T682 443H617Q617 512 589 556T507 621T380 642Q304 642 246 613T157 519T125 349V328Q125 226 156 164T246 73T381
44Q454 44 507 65T590 129T619 242H682Q682 155 643 99T536 15T380 -12Z" />
<glyph unicode="D" glyph-name="D" horiz-adv-x="739" d="M95 0V686H335Q445 686 522 651T641 540T682 343Q682 223 641 147T523 36T335 0H95ZM159 57H331Q396 57 448 71T537 117T595 202T615 331V351Q615 430 595 483T538 568T449 615T331 629H159V57Z" />
<glyph unicode="E" glyph-name="E" horiz-adv-x="681" d="M95 0V686H617V629H159V380H573V324H159V57H623V0H95Z" />
<glyph unicode="F" glyph-name="F" horiz-adv-x="615" d="M95 0V686H575V629H159V378H540V322H159V0H95Z" />
<glyph unicode="G" glyph-name="G" horiz-adv-x="797" d="M401 -12Q229 -12 144 76T58 343Q58 459 97 538T213 657T406 698Q478 698 534 683T629 637T689 560T709 452H645Q645 506 627 542T577 600T501 632T404 642Q341 642 290 626T202 576T146 486T126 353V332Q126
228 158 165T252 73T396 44Q489 44 543 69T621 147T645 281V298H383V354H710V0H658L649 96Q625 57 585 34T497 -1T401 -12Z" />
<glyph unicode="H" glyph-name="H" horiz-adv-x="739" d="M95 0V686H159V378H580V686H644V0H580V322H159V0H95Z" />
<glyph unicode="I" glyph-name="I" horiz-adv-x="254" d="M95 0V686H159V0H95Z" />
<glyph unicode="J" glyph-name="J" horiz-adv-x="537" d="M235 -12Q172 -12 127 10T58 75T33 182V205H98V174Q98 111 134 78T235 44Q304 44 341 86T378 217V686H442V225Q442 145 418 93T347 14T235 -12Z" />
<glyph unicode="K" glyph-name="K" horiz-adv-x="633" d="M95 0V686H159V284L547 686H630L373 416L643 0H565L325 368L159 205V0H95Z" />
<glyph unicode="L" glyph-name="L" horiz-adv-x="506" d="M95 0V686H159V57H498V0H95Z" />
<glyph unicode="M" glyph-name="M" horiz-adv-x="850" d="M95 0V686H191L390 185Q396 169 402 151T414 118T423 91H428Q433 105 439 122T451 157T460 185L659 686H755V0H691V450Q691 468 691 496T692 552T693 601H686Q681 583 676 566T664 531T652 499L449 0H401L198
498Q192 513 186 529T174 564T163 601H156Q157 582 157 555T158 499T159 450V0H95Z" />
<glyph unicode="N" glyph-name="N" horiz-adv-x="739" d="M95 0V686H159L527 193Q533 186 541 174T559 148T576 123H580Q580 141 580 158T580 193V686H644V0H590L215 506Q208 515 192 537T163 577H159Q159 559 159 542T159 506V0H95Z" />
<glyph unicode="O" glyph-name="O" horiz-adv-x="793" d="M396 -12Q290 -12 214 28T98 147T57 343Q57 461 97 539T214 658T396 698Q503 698 579 658T695 540T736 343Q736 226 696 147T579 28T396 -12ZM396 44Q457 44 507 60T593 110T649 200T669 333V353Q669 431
650 486T594 575T507 626T396 642Q336 642 286 626T200 576T145 486T125 353V333Q125 255 144 200T200 111T286 60T396 44Z" />
<glyph unicode="P" glyph-name="P" horiz-adv-x="660" d="M95 0V686H430Q497 686 541 660T607 589T629 487Q629 427 603 380T533 306T434 279H159V0H95ZM159 336H426Q488 336 526 376T564 485Q564 530 549 562T504 612T426 629H159V336Z" />
<glyph unicode="Q" glyph-name="Q" horiz-adv-x="793" d="M596 -130L466 -7Q449 -9 432 -10T396 -12Q290 -12 214 28T98 147T57 343Q57 461 97 539T214 658T396 698Q503 698 579 658T695 540T736 343Q736 210 683 127T536 9L678 -130H596ZM396 44Q457 44 507 60T593
110T649 200T669 333V353Q669 431 650 486T594 575T507 626T396 642Q336 642 286 626T200 576T145 486T125 353V333Q125 255 144 200T200 111T286 60T396 44Z" />
<glyph unicode="R" glyph-name="R" horiz-adv-x="736" d="M95 0V686H455Q521 686 564 661T628 593T650 495Q650 422 616 371T528 301L674 0H603L463 290H159V0H95ZM159 346H447Q512 346 548 386T585 496Q585 538 570 567T524 613T447 629H159V346Z" />
<glyph unicode="S" glyph-name="S" horiz-adv-x="677" d="M344 -12Q289 -12 238 -3T146 30T83 91T59 189Q59 195 59 198T60 209H125Q124 204 124 197T123 184Q123 137 151 106T228 60T336 44Q352 44 378 46T435 56T491 78T534 116T551 177Q551 215 531 240T477
282T401 311T314 335T226 359T150 393T96 445T76 522Q76 559 91 592T137 648T220 685T345 698Q397 698 442 687T521 653T575 595T595 510V498H530V518Q530 556 507 583T442 626T351 642Q277 642 231 627T163 587T141 530Q141 494 161 470T215 431T291 404T379 381T466
356T542 321T596 267T617 188Q617 119 582 75T486 9T344 -12Z" />
<glyph unicode="T" glyph-name="T" horiz-adv-x="594" d="M263 0V629H14V686H579V629H327V0H263Z" />
<glyph unicode="U" glyph-name="U" horiz-adv-x="738" d="M366 -12Q281 -12 221 15T127 104T94 264V686H160V242Q160 144 214 95T366 45Q466 45 523 94T580 242V686H643V264Q643 165 610 104T515 16T366 -12Z" />
<glyph unicode="V" glyph-name="V" horiz-adv-x="627" d="M272 0L10 686H79L267 188Q275 170 283 148T298 103T312 65H319Q325 81 332 103T348 147T363 188L548 686H617L355 0H272Z" />
<glyph unicode="W" glyph-name="W" horiz-adv-x="897" d="M209 0L14 686H83L215 204Q219 191 225 169T237 121T248 77H257Q261 92 264 109T271 145T279 179T286 204L408 686H492L615 204Q619 191 624 169T636 121T646 77H655Q658 91 662 109T671 145T680 178T687
204L819 686H883L688 0H604L479 479Q475 495 470 518T460 565T451 609H444Q440 591 435 566T425 518T415 479L294 0H209Z" />
<glyph unicode="X" glyph-name="X" horiz-adv-x="675" d="M12 0L298 359L37 686H117L336 409H340L555 686H632L379 360L663 0H584L339 310H335L91 0H12Z" />
<glyph unicode="Y" glyph-name="Y" horiz-adv-x="636" d="M285 0V289L10 686H82L317 346H321L554 686H626L350 289V0H285Z" />
<glyph unicode="Z" glyph-name="Z" horiz-adv-x="637" d="M35 0V38L495 629H61V686H591V650L128 57H600V0H35Z" />
<glyph unicode="[" glyph-name="bracketleft" horiz-adv-x="258" d="M79 -161V735H250V689H136V-115H250V-161H79Z" />
<glyph unicode="\" glyph-name="backslash" horiz-adv-x="290" d="M290 -49H235L0 735H55L290 -49Z" />
<glyph unicode="]" glyph-name="bracketright" horiz-adv-x="258" d="M179 735V-161H7V-115H122V689H7V735H179Z" />
<glyph unicode="^" glyph-name="asciicircum" horiz-adv-x="615" d="M106 294L274 686H342L509 294H448L307 631L165 294H106Z" />
<glyph unicode="_" glyph-name="underscore" horiz-adv-x="465" d="M0 -118V-65H465V-118H0Z" />
<glyph unicode="`" glyph-name="grave" horiz-adv-x="167" d="M167 591H112L0 720L1 723H76L167 591Z" />
<glyph unicode="a" glyph-name="a" horiz-adv-x="534" d="M202 -12Q168 -12 138 -4T84 21T48 66T35 132Q35 187 62 221T139 273T255 299T400 306V380Q400 414 388 438T344 475T256 488Q202 488 172 474T128 437T115 387V370H59Q58 375 58 380T58 392Q58 443 84
475T158 522T268 538Q329 538 371 520T435 469T458 389V72Q458 53 464 46T484 39H529V3Q512 -4 497 -7T466 -11Q439 -11 426 1T407 33T402 79H395Q375 50 345 30T278 -1T202 -12ZM210 39Q244 39 277 50T338 81T383 130T400 194V256Q297 256 230 245T131 207T98
132Q98 99 113 78T153 48T210 39Z" />
<glyph unicode="b" glyph-name="b" horiz-adv-x="544" d="M296 -12Q242 -12 201 10T130 79H123L116 0H72V723H130V455H137Q155 486 181 504T237 530T297 538Q362 538 408 509T479 421T505 269Q505 170 480 108T409 17T296 -12ZM291 39Q335 39 369 58T423 124T443
249V277Q443 352 425 398T372 465T285 487Q259 487 232 479T182 449T145 384T130 273V254Q130 185 146 137T199 64T291 39Z" />
<glyph unicode="c" glyph-name="c" horiz-adv-x="493" d="M256 -12Q186 -12 137 18T61 109T35 263Q35 354 60 415T136 507T261 538Q316 538 354 524T415 482T448 416T459 333H401Q401 388 387 422T342 471T259 487Q213 487 176 468T118 402T96 277V249Q96 175
115 129T171 61T258 39Q312 39 343 57T388 111T402 193H459Q459 153 449 117T415 51T353 5T256 -12Z" />
<glyph unicode="d" glyph-name="d" horiz-adv-x="544" d="M248 -12Q182 -12 136 17T65 108T40 269Q40 362 65 421T136 509T247 538Q281 538 310 530T364 504T408 455H415V723H473V0H429L421 79H414Q386 32 342 10T248 -12ZM253 39Q311 39 346 64T398 137T415 254V273Q415
342 401 384T363 448T313 479T259 487Q207 487 172 466T119 398T101 277V249Q101 170 120 124T174 59T253 39Z" />
<glyph unicode="e" glyph-name="e" horiz-adv-x="536" d="M269 -12Q196 -12 145 17T67 108T40 263Q40 358 66 418T145 508T275 538Q348 538 397 509T471 426T496 296V248H101Q101 172 121 126T180 59T271 38Q314 38 344 49T394 80T424 124T436 175H492Q491 139
478 106T438 46T369 4T269 -12ZM101 297H436Q436 350 424 386T389 445T337 478T271 488Q218 488 182 468T125 405T101 297Z" />
<glyph unicode="f" glyph-name="f" horiz-adv-x="257" d="M89 0V475H10V526H89V625Q89 652 96 676T125 715T186 731Q198 731 210 730T233 728T253 723V680H199Q172 680 160 667T147 628V526H253V475H147V0H89Z" />
<glyph unicode="g" glyph-name="g" horiz-adv-x="525" d="M162 -182Q123 -182 91 -165T39 -118T20 -49Q20 -5 42 27T103 76Q76 87 63 109T49 157Q49 190 72 215T133 248Q101 271 82 303T62 375Q62 421 84 458T151 516T266 538Q300 538 328 533T380 517Q415 527
436 551T465 610H524Q522 583 510 558T475 514T419 491Q445 467 457 437T470 375Q470 329 448 292T382 233T267 211H183Q151 211 130 199T108 157Q108 131 130 118T187 104H387Q444 104 480 65T516 -33Q516 -75 496 -109T440 -162T358 -182H162ZM171 -134H356Q384
-134 406 -122T443 -88T457 -42Q457 0 433 26T375 52H171Q133 52 106 25T79 -42Q79 -84 106 -109T171 -134ZM266 260Q340 260 375 291T411 375Q411 427 376 458T266 489Q193 489 157 458T121 375Q121 342 137 316T185 275T266 260Z" />
<glyph unicode="h" glyph-name="h" horiz-adv-x="544" d="M72 0V723H130V456H137Q160 487 187 504T245 530T312 538Q362 538 399 522T457 470T478 371V0H420V368Q420 404 411 427T384 463T345 481T295 486Q254 486 216 467T154 410T130 312V0H72Z" />
<glyph unicode="i" glyph-name="i" horiz-adv-x="202" d="M72 642V723H130V642H72ZM72 0V526H130V0H72Z" />
<glyph unicode="j" glyph-name="j" horiz-adv-x="199" d="M72 642V723H130V642H72ZM37 -182Q27 -182 18 -181T-1 -178T-17 -174V-133H24Q48 -133 60 -121T72 -83V526H130V-80Q130 -107 122 -130T94 -168T37 -182Z" />
<glyph unicode="k" glyph-name="k" horiz-adv-x="489" d="M72 0V723H130V244L383 526H453L270 321L463 0H396L231 278L130 173V0H72Z" />
<glyph unicode="l" glyph-name="l" horiz-adv-x="202" d="M72 0V723H130V0H72Z" />
<glyph unicode="m" glyph-name="m" horiz-adv-x="858" d="M72 0V526H116L123 440H130Q153 478 180 499T238 529T306 538Q360 538 399 516T452 440H459Q480 477 507 498T565 529T632 538Q680 538 716 523T772 471T792 371V0H734V368Q734 405 725 428T700 463T662
481T616 486Q576 486 541 466T483 407T461 312V0H403V368Q403 405 394 428T370 463T333 481T289 486Q248 486 212 466T153 407T130 312V0H72Z" />
<glyph unicode="n" glyph-name="n" horiz-adv-x="544" d="M72 0V526H116L123 440H130Q153 478 181 499T243 529T312 538Q362 538 399 522T457 470T478 371V0H420V368Q420 404 411 427T384 463T345 481T295 486Q254 486 216 466T154 407T130 312V0H72Z" />
<glyph unicode="o" glyph-name="o" horiz-adv-x="544" d="M272 -12Q198 -12 146 17T67 108T40 263Q40 358 67 418T146 508T272 538Q347 538 398 509T477 419T505 263Q505 169 478 108T399 18T272 -12ZM272 39Q326 39 364 60T423 128T443 249V277Q443 352 423 398T365
465T272 487Q218 487 180 466T122 398T101 277V249Q101 175 121 129T180 61T272 39Z" />
<glyph unicode="p" glyph-name="p" horiz-adv-x="544" d="M72 -173V526H116L123 447H130Q159 494 201 516T296 538Q363 538 409 509T480 418T505 257Q505 165 480 106T408 17T297 -12Q267 -12 237 -4T181 22T137 71H130V-173H72ZM285 39Q337 39 372 60T425 128T443
249V277Q443 357 424 402T370 467T291 487Q235 487 199 462T147 389T130 272V253Q130 184 144 142T182 78T232 47T285 39Z" />
<glyph unicode="q" glyph-name="q" horiz-adv-x="544" d="M415 -173V71H408Q389 40 364 22T308 -4T247 -12Q183 -12 137 17T65 105T40 257Q40 356 64 418T135 509T248 538Q303 538 344 516T414 447H421L429 526H473V-173H415ZM259 39Q285 39 312 47T363 77T400
142T415 253V272Q415 341 399 389T347 462T253 487Q209 487 175 468T121 403T101 277V249Q101 175 119 129T172 61T259 39Z" />
<glyph unicode="r" glyph-name="r" horiz-adv-x="305" d="M72 0V526H117L123 436H129Q135 460 148 483T187 522T249 538Q264 538 275 536T291 532V480H262Q226 480 201 466T160 427T137 373T130 312V0H72Z" />
<glyph unicode="s" glyph-name="s" horiz-adv-x="482" d="M238 -12Q187 -12 148 -2T83 27T44 76T30 144Q30 148 30 153T31 162H89Q88 156 88 153T88 145Q88 103 107 80T162 47T243 38Q283 38 314 49T363 83T382 137Q382 177 359 197T298 229T221 252Q190 261 159
271T104 298T64 338T49 400Q49 431 62 456T99 500T159 528T241 538Q295 538 331 526T389 493T420 446T430 394Q430 391 430 387T429 377H371V392Q371 413 362 435T324 472T238 488Q205 488 181 482T141 466T117 439T108 401Q108 369 127 353T178 327T244 305Q279
294 314 283T378 256T424 214T442 146Q442 108 427 79T384 29T320 -1T238 -12Z" />
<glyph unicode="t" glyph-name="t" horiz-adv-x="282" d="M182 -11Q148 -11 129 0T101 32T93 80V475H21V526H94L105 672H151V526H256V475H151V94Q151 65 158 52T193 39H256V3Q246 -2 233 -5T207 -9T182 -11Z" />
<glyph unicode="u" glyph-name="u" horiz-adv-x="544" d="M232 -12Q157 -12 112 25T66 155V526H124V158Q124 122 133 99T160 63T199 45T249 40Q290 40 328 60T390 119T414 214V526H472V0H428L422 86H415Q392 48 364 27T302 -3T232 -12Z" />
<glyph unicode="v" glyph-name="v" horiz-adv-x="482" d="M215 0L20 526H81L186 241Q194 220 203 192T222 135T239 84H244Q252 105 261 134T282 191T300 241L404 526H463L267 0H215Z" />
<glyph unicode="w" glyph-name="w" horiz-adv-x="692" d="M178 0L18 526H78L165 234Q171 214 178 187T192 135T203 92H208Q213 112 219 138T231 190T242 234L316 526H381L455 234Q460 215 466 189T478 137T488 92H493Q499 111 506 136T520 188T533 234L620 526H675L514
0H460L384 291Q380 309 373 336T360 391T349 443H343Q339 422 333 394T321 339T309 290L234 0H178Z" />
<glyph unicode="x" glyph-name="x" horiz-adv-x="485" d="M17 0L207 268L22 526H92L240 315H245L392 526H459L276 270L468 0H399L243 222H238L83 0H17Z" />
<glyph unicode="y" glyph-name="y" horiz-adv-x="482" d="M96 -182Q82 -182 70 -181T48 -178V-133H83Q110 -133 134 -125T181 -88T223 0L20 526H81L191 239Q199 218 209 189T231 130T250 77H256Q261 94 267 115T281 158T295 201T307 238L404 526H463L281 4Q266
-40 250 -74T213 -133T164 -169T96 -182Z" />
<glyph unicode="z" glyph-name="z" horiz-adv-x="487" d="M37 0V39L353 475H62V526H433V489L116 51H454V0H37Z" />
<glyph unicode="{" glyph-name="braceleft" horiz-adv-x="316" d="M267 -159Q242 -159 217 -154T171 -135T138 -99T125 -42V189Q125 210 114 222T84 240T46 246V327Q65 327 83 333T113 351T125 384V618Q125 652 137 674T171 710T217 729T267 735V693Q252 693 234
688T201 670T186 633L175 395Q173 346 156 319T88 291V282Q123 282 141 270T166 235T175 178L186 -57Q187 -80 201 -93T233 -112T267 -117V-159Z" />
<glyph unicode="|" glyph-name="bar" horiz-adv-x="246" d="M95 -176V723H151V-176H95Z" />
<glyph unicode="}" glyph-name="braceright" horiz-adv-x="316" d="M49 735Q74 735 99 730T145 711T178 675T191 618V387Q191 367 203 354T233 336T270 330V249Q251 249 233 243T203 225T191 192V-42Q191 -76 179 -98T145 -134T99 -153T49 -159V-117Q64 -117 82
-112T115 -94T131 -57L141 181Q143 230 160 257T228 285V294Q194 294 176 306T150 341T141 398L131 633Q130 656 116 669T83 688T49 693V735Z" />
<glyph unicode="~" glyph-name="asciitilde" horiz-adv-x="615" d="M57 225V290Q68 306 88 322T138 351T202 363Q231 363 256 354T307 333T358 311T414 302Q445 302 473 314T523 343T559 375V310Q549 295 528 278T479 249T414 237Q386 237 360 246T309 267T258
289T202 298Q171 298 143 286T93 258T57 225Z" />
<glyph unicode="&#xa0;" glyph-name="uni00A0" horiz-adv-x="217" />
<glyph unicode="&#xa1;" glyph-name="exclamdown" horiz-adv-x="256" d="M92 -160L108 352H148L163 -160H92ZM92 442V526H164V442H92Z" />
<glyph unicode="&#xa2;" glyph-name="cent" horiz-adv-x="559" d="M253 -49V723H301V-49H253ZM276 67Q205 67 156 97T81 188T54 342Q54 433 80 494T156 586T280 617Q336 617 374 603T435 561T468 496T478 412H421Q421 467 407 501T362 551T278 567Q233 567 196
547T137 481T115 356V328Q115 253 135 207T191 140T277 118Q332 118 363 136T408 190T422 272H478Q478 232 468 196T435 130T372 84T276 67Z" />
<glyph unicode="&#xa3;" glyph-name="sterling" horiz-adv-x="559" d="M44 0V55H127V313H30V368H127V519Q127 578 152 617T221 677T319 698Q372 698 414 678T480 619T505 520V501H447V520Q447 566 430 594T384 635T319 648Q282 648 252 635T203 593T185 521V368H356V313H185L179
55H510V0H44Z" />
<glyph unicode="&#xa4;" glyph-name="currency" horiz-adv-x="559" d="M72 99L29 141L84 196Q57 228 45 267T32 349Q32 391 44 431T84 503L29 557L72 600L128 544Q160 570 199 583T279 597Q321 597 360 584T430 544L487 600L529 557L474 503Q502 472 514 432T527
349Q527 307 515 268T474 196L529 141L487 99L431 155Q400 128 361 115T279 101Q238 101 199 114T128 155L72 99ZM279 153Q332 153 376 179T447 251T473 349Q473 403 447 447T377 517T279 544Q227 544 183 518T111 447T84 349Q84 296 111 251T182 180T279 153Z"
/>
<glyph unicode="&#xa5;" glyph-name="yen" horiz-adv-x="553" d="M244 0V166H43V218H244V289H43V341H219Q207 360 191 384T168 420L10 686H81L217 449Q223 440 233 422T254 385T275 348H279Q289 364 299 383T320 420T337 449L472 686H543L385 421Q378 409 362
385T333 341H510V289H308V218H510V166H308V0H244Z" />
<glyph unicode="&#xa6;" glyph-name="brokenbar" horiz-adv-x="246" d="M95 355V723H151V355H95ZM95 -176V192H151V-176H95Z" />
<glyph unicode="&#xa7;" glyph-name="section" horiz-adv-x="559" d="M279 -182Q216 -182 174 -170T107 -136T71 -88T60 -35Q60 -32 60 -27T62 -18H125V-32Q125 -48 130 -65T152 -97T200 -121T282 -131Q330 -131 364 -119T417 -83T436 -24Q436 11 415 32T360 67T283
92T200 115T124 145T68 194T47 270Q47 302 59 329T93 376T145 412Q108 431 84 461T60 540Q60 576 74 604T116 654T185 686T281 698Q343 698 385 686T452 652T488 604T499 551Q499 548 499 543T497 534H434V548Q434 564 429 581T407 613T360 637T277 647Q230 647
195 635T142 599T123 540Q123 505 144 484T200 449T276 424T359 401T435 371T491 322T512 246Q512 214 500 187T466 140T414 104Q451 85 475 55T500 -24Q500 -59 486 -88T443 -138T374 -170T279 -182ZM359 128Q400 140 424 167T449 235Q449 275 426 298T366 337T285
363T199 388Q159 375 135 348T110 281Q110 242 133 218T193 179T273 153T359 128Z" />
<glyph unicode="&#xa8;" glyph-name="dieresis" horiz-adv-x="251" d="M0 645V720H71V645H0ZM180 645V720H251V645H180Z" />
<glyph unicode="&#xa9;" glyph-name="copyright" horiz-adv-x="741" d="M370 -12Q293 -12 228 14T116 88T42 201T15 343Q15 420 41 485T115 597T228 671T370 698Q447 698 512 672T624 598T698 485T725 343Q725 266 699 201T625 89T512 15T370 -12ZM366 130Q318
130 281 150T223 216T201 342Q201 421 222 467T280 533T366 554Q408 554 443 539T499 488T520 390H474Q474 438 459 464T420 501T366 512Q313 512 280 475T247 356V329Q247 274 262 240T304 189T366 173Q395 173 420 184T460 221T475 293H520Q520 234 499 198T443
146T366 130ZM370 25Q462 25 533 66T645 179T686 343Q686 435 645 506T533 619T370 661Q278 661 207 620T95 507T54 343Q54 251 94 179T207 66T370 25Z" />
<glyph unicode="&#xaa;" glyph-name="ordfeminine" horiz-adv-x="374" d="M132 330Q102 330 77 340T36 371T21 426Q21 464 39 487T89 523T164 540T258 545V593Q258 614 251 628T223 650T167 658Q134 658 115 650T89 628T81 597V586H37Q36 589 36 592T36 600Q36
651 74 674T175 698Q216 698 244 687T288 653T304 599V393Q304 380 308 376T321 371H351V341Q339 338 329 337T309 335Q278 335 269 351T259 391H255Q236 361 203 346T132 330ZM137 371Q165 371 193 384T239 420T258 474V505Q194 506 152 500T90 475T69 426Q69
407 78 395T102 377T137 371Z" />
<glyph unicode="&#xab;" glyph-name="guillemotleft" horiz-adv-x="531" d="M227 126L57 326L227 526H281L139 326L281 126H227ZM405 126L235 326L405 526H459L317 326L459 126H405Z" />
<glyph unicode="&#xac;" glyph-name="logicalnot" horiz-adv-x="615" d="M472 201V378H74V433H531V201H472Z" />
<glyph unicode="&#xad;" glyph-name="uni00AD" horiz-adv-x="333" d="M40 236V305H293V236H40Z" />
<glyph unicode="&#xae;" glyph-name="registered" horiz-adv-x="741" d="M370 -12Q293 -12 228 14T116 88T42 201T15 343Q15 420 41 485T115 597T228 671T370 698Q447 698 512 672T624 598T698 485T725 343Q725 266 699 201T625 89T512 15T370 -12ZM370 25Q462
25 533 66T645 179T686 343Q686 435 645 506T533 619T370 661Q278 661 207 620T95 507T54 343Q54 251 94 179T207 66T370 25ZM238 135V547H409Q471 547 502 516T533 425Q533 383 514 352T458 307L545 135H494L413 298H283V135H238ZM283 340H414Q446 340 465 362T484
426Q484 464 466 485T414 506H283V340Z" />
<glyph unicode="&#xaf;" glyph-name="overscore" horiz-adv-x="296" d="M0 652V700H296V652H0Z" />
<glyph unicode="&#xb0;" glyph-name="degree" horiz-adv-x="400" d="M202 454Q169 454 141 470T95 514T78 576Q78 610 95 638T140 682T202 698Q236 698 263 682T307 638T323 576Q323 542 307 515T264 471T202 454ZM202 488Q237 488 261 514T286 576Q286 611 262
637T202 663Q166 663 140 637T114 576Q114 541 140 515T202 488Z" />
<glyph unicode="&#xb1;" glyph-name="plusminus" horiz-adv-x="615" d="M279 113V340H72V397H279V624H336V397H544V340H336V113H279ZM72 0V56H544V0H72Z" />
<glyph unicode="&#xb2;" glyph-name="uni00B2" horiz-adv-x="336" d="M40 440V461Q40 491 55 513T96 554T147 589Q185 614 214 640T244 699Q244 725 225 739T172 754Q141 754 124 744T99 718T91 685V658H47Q46 662 45 670T44 685Q44 725 62 749T109 785T174 797Q208
797 235 786T277 754T293 699Q293 674 282 653T252 615T213 582T170 553Q143 535 121 519T93 485H295V440H40Z" />
<glyph unicode="&#xb3;" glyph-name="uni00B3" horiz-adv-x="336" d="M170 428Q104 428 71 456T37 535V547H82V535Q82 504 104 487T164 470Q191 470 211 477T242 498T253 535Q253 559 241 572T208 589T164 594H113V636H166Q187 636 204 642T233 662T244 697Q244
717 235 729T209 748T172 754Q150 754 132 747T103 726T92 691V678H44V692Q44 723 60 746T106 783T171 797Q206 797 233 786T277 752T293 698Q293 670 279 650T245 620V619Q271 608 286 587T302 534Q302 501 285 478T238 441T170 428Z" />
<glyph unicode="&#xb4;" glyph-name="acute" horiz-adv-x="167" d="M0 591L91 723H166L167 720L55 591H0Z" />
<glyph unicode="&#xb5;" glyph-name="uni00B5" horiz-adv-x="550" d="M72 -175V526H130V158Q130 122 139 99T166 63T205 45T254 40Q296 40 334 60T396 119T420 214V526H478V0H434L427 86H420Q398 47 370 26T310 -4T242 -12Q206 -12 176 -4T127 24Q128 11 129 -6T130
-38V-175H72Z" />
<glyph unicode="&#xb6;" glyph-name="paragraph" horiz-adv-x="543" d="M248 -172V250Q195 256 152 286T83 362T57 466Q57 536 87 585T167 660T279 686H494V635H428V-172H375V635H301V-172H248Z" />
<glyph unicode="&#xb7;" glyph-name="middot" horiz-adv-x="333" d="M129 312V401H205V312H129Z" />
<glyph unicode="&#xb8;" glyph-name="cedilla" horiz-adv-x="188" d="M83 -170Q62 -170 41 -168T0 -163V-132H101Q118 -132 127 -124T137 -102Q137 -90 129 -83T99 -76H42L61 11H103L95 -43Q121 -42 142 -47T175 -65T188 -101Q188 -121 180 -134T157 -155T124
-166T83 -170Z" />
<glyph unicode="&#xb9;" glyph-name="uni00B9" horiz-adv-x="336" d="M55 440V484H148V718H55V751Q79 752 99 756T138 769T171 793H196V484H282V440H55Z" />
<glyph unicode="&#xba;" glyph-name="ordmasculine" horiz-adv-x="369" d="M183 328Q134 328 101 348T49 409T31 513Q31 577 49 617T102 678T186 698Q235 698 269 678T321 618T339 513Q339 450 321 409T268 348T183 328ZM185 370Q235 370 262 401T290 504V522Q290
594 263 625T185 656Q134 656 107 625T80 522V504Q80 432 107 401T185 370Z" />
<glyph unicode="&#xbb;" glyph-name="guillemotright" horiz-adv-x="531" d="M304 526L474 326L304 126H250L392 326L250 526H304ZM126 526L297 326L126 126H72L214 326L72 526H126Z" />
<glyph unicode="&#xbc;" glyph-name="onequarter" horiz-adv-x="837" d="M122 -12L668 698H725L179 -12H122ZM55 340V384H148V618H55V651Q79 652 99 656T138 669T171 693H196V384H282V340H55ZM677 0V83H506V119Q538 176 562 233T600 355H652Q644 320 633 286T608
220T582 164T561 125H677V243Q680 252 682 262T687 281T692 301H723V125H772V83H723V0H677Z" />
<glyph unicode="&#xbd;" glyph-name="onehalf" horiz-adv-x="837" d="M122 -12L668 698H725L179 -12H122ZM527 0V21Q527 51 543 73T584 114T634 149Q672 174 702 200T732 259Q732 285 713 299T659 314Q628 314 611 304T586 278T579 245V218H534Q533 222 532 230T531
245Q531 285 549 309T596 345T661 357Q696 357 722 346T764 314T780 259Q780 234 769 213T740 175T701 142T657 113Q630 95 608 79T580 45H782V0H527ZM55 340V384H148V618H55V651Q79 652 99 656T138 669T171 693H196V384H282V340H55Z" />
<glyph unicode="&#xbe;" glyph-name="threequarters" horiz-adv-x="837" d="M122 -12L668 698H725L179 -12H122ZM170 328Q104 328 71 356T37 435V447H82V435Q82 404 104 387T164 370Q191 370 211 377T242 398T253 435Q253 459 241 471T208 489T164 494H113V536H166Q187
536 204 542T233 562T244 597Q244 617 235 629T209 648T172 654Q150 654 132 647T103 626T92 591V578H44V592Q44 623 60 646T106 683T171 697Q206 697 233 686T277 652T293 598Q293 570 279 550T245 520V519Q271 508 286 487T302 434Q302 401 285 378T238 341T170
328ZM677 0V83H506V119Q538 176 562 233T600 355H652Q644 320 633 286T608 220T582 164T561 125H677V243Q680 252 682 262T687 281T692 301H723V125H772V83H723V0H677Z" />
<glyph unicode="&#xbf;" glyph-name="questiondown" horiz-adv-x="547" d="M273 -173Q218 -173 182 -158T124 -119T92 -70T78 -25T75 5Q75 55 88 88T121 145T163 184T206 217T240 253T253 303V361H311V297Q311 261 299 237T266 194T224 159T182 123T150 76T137
9Q137 -5 141 -27T160 -70T203 -105T278 -119Q331 -119 362 -102T409 -58T429 -7T434 31Q434 39 434 46T434 60H492Q493 57 494 49T495 27Q495 14 490 -10T473 -62T435 -115T371 -156T273 -173ZM246 441V525H318V441H246Z" />
<glyph unicode="&#xc0;" glyph-name="Agrave" horiz-adv-x="658" d="M9 0L284 686H374L649 0H579L503 191H151L75 0H9ZM174 247H480L384 488Q381 496 375 512T362 548T346 590T331 631H323Q316 612 306 586T287 534T269 488L174 247ZM365 736H306L194 865L195
868H273L365 736Z" />
<glyph unicode="&#xc1;" glyph-name="Aacute" horiz-adv-x="658" d="M9 0L284 686H374L649 0H579L503 191H151L75 0H9ZM174 247H480L384 488Q381 496 375 512T362 548T346 590T331 631H323Q316 612 306 586T287 534T269 488L174 247ZM300 736L392 868H470L471
865L359 736H300Z" />
<glyph unicode="&#xc2;" glyph-name="Acircumflex" horiz-adv-x="658" d="M9 0L284 686H374L649 0H579L503 191H151L75 0H9ZM174 247H480L384 488Q381 496 375 512T362 548T346 590T331 631H323Q316 612 306 586T287 534T269 488L174 247ZM193 736L298 868H360L466
736H403L312 849H346L256 736H193Z" />
<glyph unicode="&#xc3;" glyph-name="Atilde" horiz-adv-x="658" d="M9 0L284 686H374L649 0H579L503 191H151L75 0H9ZM174 247H480L384 488Q381 496 375 512T362 548T346 590T331 631H323Q316 612 306 586T287 534T269 488L174 247ZM177 777Q178 800 187 819T213
848T256 859Q282 859 307 851T356 835T401 826Q418 826 425 836T434 859H480Q479 836 470 818T443 788T399 777Q375 777 350 785T302 802T256 810Q238 810 231 800T222 777H177Z" />
<glyph unicode="&#xc4;" glyph-name="Adieresis" horiz-adv-x="658" d="M9 0L284 686H374L649 0H579L503 191H151L75 0H9ZM174 247H480L384 488Q381 496 375 512T362 548T346 590T331 631H323Q316 612 306 586T287 534T269 488L174 247ZM203 790V865H274V790H203ZM383
790V865H454V790H383Z" />
<glyph unicode="&#xc5;" glyph-name="Aring" horiz-adv-x="658" d="M9 0L284 686H374L649 0H579L503 191H151L75 0H9ZM174 247H480L384 488Q381 496 375 512T362 548T346 590T331 631H323Q316 612 306 586T287 534T269 488L174 247ZM329 731Q288 731 262 756T236
818Q236 857 262 881T329 906Q370 906 396 882T422 818Q422 781 396 756T329 731ZM329 769Q352 769 365 783T379 818Q379 841 366 855T329 869Q307 869 293 855T279 818Q279 797 293 783T329 769Z" />
<glyph unicode="&#xc6;" glyph-name="AE" horiz-adv-x="1001" d="M-1 0L355 686H937V629H455L517 380H893V324H530L597 57H943V0H544L496 195H169L69 0H-1ZM199 253H481L415 526Q413 537 410 548T404 572T399 596T393 619H386Q381 608 375 597T363 573T350 549T338
526L199 253Z" />
<glyph unicode="&#xc7;" glyph-name="Ccedilla" horiz-adv-x="735" d="M380 -12Q275 -12 203 27T94 146T57 343Q57 520 142 609T381 698Q472 698 539 670T644 586T682 443H617Q617 512 589 556T507 621T380 642Q304 642 246 613T157 519T125 349V328Q125 226 156
164T246 73T381 44Q454 44 507 65T590 129T619 242H682Q682 155 643 99T536 15T380 -12ZM385 -170Q364 -170 343 -168T302 -163V-132H402Q420 -132 429 -124T438 -102Q438 -90 430 -83T401 -76H344L362 11H405L397 -43Q423 -42 443 -47T477 -65T490 -101Q490 -121
482 -134T459 -155T425 -166T385 -170Z" />
<glyph unicode="&#xc8;" glyph-name="Egrave" horiz-adv-x="681" d="M95 0V686H617V629H159V380H573V324H159V57H623V0H95ZM400 736H342L230 865L231 868H309L400 736Z" />
<glyph unicode="&#xc9;" glyph-name="Eacute" horiz-adv-x="681" d="M95 0V686H617V629H159V380H573V324H159V57H623V0H95ZM336 736L428 868H507V865L395 736H336Z" />
<glyph unicode="&#xca;" glyph-name="Ecircumflex" horiz-adv-x="681" d="M95 0V686H617V629H159V380H573V324H159V57H623V0H95ZM229 736L334 868H396L502 736H439L348 849H382L292 736H229Z" />
<glyph unicode="&#xcb;" glyph-name="Edieresis" horiz-adv-x="681" d="M95 0V686H617V629H159V380H573V324H159V57H623V0H95ZM239 790V865H310V790H239ZM419 790V865H490V790H419Z" />
<glyph unicode="&#xcc;" glyph-name="Igrave" horiz-adv-x="254" d="M95 0V686H159V0H95ZM163 736H105L-7 865L-6 868H72L163 736Z" />
<glyph unicode="&#xcd;" glyph-name="Iacute" horiz-adv-x="254" d="M95 0V686H159V0H95ZM99 736L191 868H269L270 865L158 736H99Z" />
<glyph unicode="&#xce;" glyph-name="Icircumflex" horiz-adv-x="254" d="M95 0V686H159V0H95ZM-8 736L97 868H159L265 736H202L111 849H145L55 736H-8Z" />
<glyph unicode="&#xcf;" glyph-name="Idieresis" horiz-adv-x="254" d="M95 0V686H159V0H95ZM2 790V865H73V790H2ZM182 790V865H253V790H182Z" />
<glyph unicode="&#xd0;" glyph-name="Eth" horiz-adv-x="739" d="M0 320V376H378V320H0ZM95 0V686H335Q445 686 522 651T641 540T682 343Q682 223 641 147T523 36T335 0H95ZM159 57H331Q396 57 448 71T537 117T595 202T615 331V351Q615 430 595 483T538 568T449
615T331 629H159V57Z" />
<glyph unicode="&#xd1;" glyph-name="Ntilde" horiz-adv-x="739" d="M95 0V686H159L527 193Q533 186 541 174T559 148T576 123H580Q580 141 580 158T580 193V686H644V0H590L215 506Q208 515 192 537T163 577H159Q159 559 159 542T159 506V0H95ZM221 777Q223 800
231 819T257 848T301 859Q327 859 352 851T400 835T446 826Q462 826 469 836T479 859H525Q524 836 515 818T488 788T444 777Q420 777 395 785T346 802T301 810Q283 810 276 800T266 777H221Z" />
<glyph unicode="&#xd2;" glyph-name="Ograve" horiz-adv-x="793" d="M396 -12Q290 -12 214 28T98 147T57 343Q57 461 97 539T214 658T396 698Q503 698 579 658T695 540T736 343Q736 226 696 147T579 28T396 -12ZM396 44Q457 44 507 60T593 110T649 200T669 333V353Q669
431 650 486T594 575T507 626T396 642Q336 642 286 626T200 576T145 486T125 353V333Q125 255 144 200T200 111T286 60T396 44ZM431 736H372L260 865L261 868H339L431 736Z" />
<glyph unicode="&#xd3;" glyph-name="Oacute" horiz-adv-x="793" d="M396 -12Q290 -12 214 28T98 147T57 343Q57 461 97 539T214 658T396 698Q503 698 579 658T695 540T736 343Q736 226 696 147T579 28T396 -12ZM396 44Q457 44 507 60T593 110T649 200T669 333V353Q669
431 650 486T594 575T507 626T396 642Q336 642 286 626T200 576T145 486T125 353V333Q125 255 144 200T200 111T286 60T396 44ZM367 736L458 868H536L537 865L425 736H367Z" />
<glyph unicode="&#xd4;" glyph-name="Ocircumflex" horiz-adv-x="793" d="M396 -12Q290 -12 214 28T98 147T57 343Q57 461 97 539T214 658T396 698Q503 698 579 658T695 540T736 343Q736 226 696 147T579 28T396 -12ZM396 44Q457 44 507 60T593 110T649 200T669
333V353Q669 431 650 486T594 575T507 626T396 642Q336 642 286 626T200 576T145 486T125 353V333Q125 255 144 200T200 111T286 60T396 44ZM259 736L364 868H426L532 736H469L379 849H412L322 736H259Z" />
<glyph unicode="&#xd5;" glyph-name="Otilde" horiz-adv-x="793" d="M396 -12Q290 -12 214 28T98 147T57 343Q57 461 97 539T214 658T396 698Q503 698 579 658T695 540T736 343Q736 226 696 147T579 28T396 -12ZM396 44Q457 44 507 60T593 110T649 200T669 333V353Q669
431 650 486T594 575T507 626T396 642Q336 642 286 626T200 576T145 486T125 353V333Q125 255 144 200T200 111T286 60T396 44ZM243 777Q245 800 253 819T279 848T322 859Q348 859 373 851T422 835T467 826Q484 826 491 836T500 859H547Q546 836 537 818T510 788T466
777Q441 777 416 785T368 802T323 810Q304 810 297 800T288 777H243Z" />
<glyph unicode="&#xd6;" glyph-name="Odieresis" horiz-adv-x="793" d="M396 -12Q290 -12 214 28T98 147T57 343Q57 461 97 539T214 658T396 698Q503 698 579 658T695 540T736 343Q736 226 696 147T579 28T396 -12ZM396 44Q457 44 507 60T593 110T649 200T669
333V353Q669 431 650 486T594 575T507 626T396 642Q336 642 286 626T200 576T145 486T125 353V333Q125 255 144 200T200 111T286 60T396 44ZM270 790V865H341V790H270ZM449 790V865H520V790H449Z" />
<glyph unicode="&#xd7;" glyph-name="multiply" horiz-adv-x="615" d="M147 54L107 94L268 255L107 416L147 456L308 295L469 456L509 416L348 255L508 95L468 55L308 215L147 54Z" />
<glyph unicode="&#xd8;" glyph-name="Oslash" horiz-adv-x="793" d="M396 -12Q290 -12 214 28T98 147T57 343Q57 461 97 539T214 658T396 698Q503 698 579 658T695 540T736 343Q736 226 696 147T579 28T396 -12ZM396 44Q457 44 507 60T593 110T649 200T669 333V353Q669
431 650 486T594 575T507 626T396 642Q336 642 286 626T200 576T145 486T125 353V333Q125 255 144 200T200 111T286 60T396 44ZM65 -49L664 735H724L126 -49H65Z" />
<glyph unicode="&#xd9;" glyph-name="Ugrave" horiz-adv-x="738" d="M366 -12Q281 -12 221 15T127 104T94 264V686H160V242Q160 144 214 95T366 45Q466 45 523 94T580 242V686H643V264Q643 165 610 104T515 16T366 -12ZM404 736H346L234 865L235 868H313L404 736Z" />
<glyph unicode="&#xda;" glyph-name="Uacute" horiz-adv-x="738" d="M366 -12Q281 -12 221 15T127 104T94 264V686H160V242Q160 144 214 95T366 45Q466 45 523 94T580 242V686H643V264Q643 165 610 104T515 16T366 -12ZM340 736L432 868H510L511 865L399 736H340Z" />
<glyph unicode="&#xdb;" glyph-name="Ucircumflex" horiz-adv-x="738" d="M366 -12Q281 -12 221 15T127 104T94 264V686H160V242Q160 144 214 95T366 45Q466 45 523 94T580 242V686H643V264Q643 165 610 104T515 16T366 -12ZM233 736L338 868H400L506 736H443L352
849H386L295 736H233Z" />
<glyph unicode="&#xdc;" glyph-name="Udieresis" horiz-adv-x="738" d="M366 -12Q281 -12 221 15T127 104T94 264V686H160V242Q160 144 214 95T366 45Q466 45 523 94T580 242V686H643V264Q643 165 610 104T515 16T366 -12ZM243 790V865H314V790H243ZM423 790V865H494V790H423Z"
/>
<glyph unicode="&#xdd;" glyph-name="Yacute" horiz-adv-x="636" d="M285 0V289L10 686H82L317 346H321L554 686H626L350 289V0H285ZM293 736L384 868H463L464 865L352 736H293Z" />
<glyph unicode="&#xde;" glyph-name="Thorn" horiz-adv-x="670" d="M88 0V686H152V560H426Q493 560 538 534T606 462T629 360Q629 300 603 253T533 180T433 154H152V0H88ZM152 209H426Q487 209 525 249T564 359Q564 404 549 436T503 486T426 504H152V209Z" />
<glyph unicode="&#xdf;" glyph-name="germandbls" horiz-adv-x="613" d="M83 0V520Q83 577 102 618T153 685T227 723T315 735Q371 735 412 722T480 686T522 630T536 561Q536 504 503 460T411 395V391Q481 377 522 330T564 206Q564 135 536 90T460 22T352 0H248V52H345Q391
52 426 67T482 117T502 211Q502 263 481 295T424 344T346 361H248V412H332Q371 412 402 431T454 484T474 558Q474 615 433 649T317 684Q262 684 223 666T163 611T142 518V0H83Z" />
<glyph unicode="&#xe0;" glyph-name="agrave" horiz-adv-x="534" d="M202 -12Q168 -12 138 -4T84 21T48 66T35 132Q35 187 62 221T139 273T255 299T400 306V380Q400 414 388 438T344 475T256 488Q202 488 172 474T128 437T115 387V370H59Q58 375 58 380T58 392Q58
443 84 475T158 522T268 538Q329 538 371 520T435 469T458 389V72Q458 53 464 46T484 39H529V3Q512 -4 497 -7T466 -11Q439 -11 426 1T407 33T402 79H395Q375 50 345 30T278 -1T202 -12ZM210 39Q244 39 277 50T338 81T383 130T400 194V256Q297 256 230 245T131
207T98 132Q98 99 113 78T153 48T210 39ZM303 591H248L135 720L136 723H212L303 591Z" />
<glyph unicode="&#xe1;" glyph-name="aacute" horiz-adv-x="534" d="M202 -12Q168 -12 138 -4T84 21T48 66T35 132Q35 187 62 221T139 273T255 299T400 306V380Q400 414 388 438T344 475T256 488Q202 488 172 474T128 437T115 387V370H59Q58 375 58 380T58 392Q58
443 84 475T158 522T268 538Q329 538 371 520T435 469T458 389V72Q458 53 464 46T484 39H529V3Q512 -4 497 -7T466 -11Q439 -11 426 1T407 33T402 79H395Q375 50 345 30T278 -1T202 -12ZM210 39Q244 39 277 50T338 81T383 130T400 194V256Q297 256 230 245T131
207T98 132Q98 99 113 78T153 48T210 39ZM220 591L311 723H387L388 720L275 591H220Z" />
<glyph unicode="&#xe2;" glyph-name="acircumflex" horiz-adv-x="534" d="M202 -12Q168 -12 138 -4T84 21T48 66T35 132Q35 187 62 221T139 273T255 299T400 306V380Q400 414 388 438T344 475T256 488Q202 488 172 474T128 437T115 387V370H59Q58 375 58 380T58
392Q58 443 84 475T158 522T268 538Q329 538 371 520T435 469T458 389V72Q458 53 464 46T484 39H529V3Q512 -4 497 -7T466 -11Q439 -11 426 1T407 33T402 79H395Q375 50 345 30T278 -1T202 -12ZM210 39Q244 39 277 50T338 81T383 130T400 194V256Q297 256 230 245T131
207T98 132Q98 99 113 78T153 48T210 39ZM127 591L232 723H289L395 591H335L244 704H278L187 591H127Z" />
<glyph unicode="&#xe3;" glyph-name="atilde" horiz-adv-x="534" d="M202 -12Q168 -12 138 -4T84 21T48 66T35 132Q35 187 62 221T139 273T255 299T400 306V380Q400 414 388 438T344 475T256 488Q202 488 172 474T128 437T115 387V370H59Q58 375 58 380T58 392Q58
443 84 475T158 522T268 538Q329 538 371 520T435 469T458 389V72Q458 53 464 46T484 39H529V3Q512 -4 497 -7T466 -11Q439 -11 426 1T407 33T402 79H395Q375 50 345 30T278 -1T202 -12ZM210 39Q244 39 277 50T338 81T383 130T400 194V256Q297 256 230 245T131
207T98 132Q98 99 113 78T153 48T210 39ZM109 635Q110 659 119 677T145 707T188 718Q214 718 239 710T288 694T333 685Q349 685 356 695T366 718H412Q411 695 402 676T375 646T331 635Q307 635 282 644T233 661T188 669Q170 669 163 659T153 635H109Z" />
<glyph unicode="&#xe4;" glyph-name="adieresis" horiz-adv-x="534" d="M202 -12Q168 -12 138 -4T84 21T48 66T35 132Q35 187 62 221T139 273T255 299T400 306V380Q400 414 388 438T344 475T256 488Q202 488 172 474T128 437T115 387V370H59Q58 375 58 380T58
392Q58 443 84 475T158 522T268 538Q329 538 371 520T435 469T458 389V72Q458 53 464 46T484 39H529V3Q512 -4 497 -7T466 -11Q439 -11 426 1T407 33T402 79H395Q375 50 345 30T278 -1T202 -12ZM210 39Q244 39 277 50T338 81T383 130T400 194V256Q297 256 230 245T131
207T98 132Q98 99 113 78T153 48T210 39ZM135 645V720H206V645H135ZM315 645V720H386V645H315Z" />
<glyph unicode="&#xe5;" glyph-name="aring" horiz-adv-x="534" d="M202 -12Q168 -12 138 -4T84 21T48 66T35 132Q35 187 62 221T139 273T255 299T400 306V380Q400 414 388 438T344 475T256 488Q202 488 172 474T128 437T115 387V370H59Q58 375 58 380T58 392Q58
443 84 475T158 522T268 538Q329 538 371 520T435 469T458 389V72Q458 53 464 46T484 39H529V3Q512 -4 497 -7T466 -11Q439 -11 426 1T407 33T402 79H395Q375 50 345 30T278 -1T202 -12ZM210 39Q244 39 277 50T338 81T383 130T400 194V256Q297 256 230 245T131
207T98 132Q98 99 113 78T153 48T210 39ZM261 581Q222 581 197 606T171 668Q171 707 196 731T261 756Q300 756 325 732T351 668Q351 631 326 606T261 581ZM261 616Q283 616 297 631T311 668Q311 691 297 706T261 721Q239 721 225 706T211 668Q211 646 225 631T261
616Z" />
<glyph unicode="&#xe6;" glyph-name="ae" horiz-adv-x="892" d="M206 -12Q171 -12 140 -4T86 21T49 66T35 132Q35 186 62 219T140 270T258 296T406 303V380Q406 414 393 438T348 475T257 488Q203 488 172 474T128 438T115 387V370H59Q58 375 58 380T58 392Q58
443 84 475T158 522T269 538Q339 538 385 515T450 447Q479 493 526 515T636 538Q706 538 754 511T828 430T853 300V252H467Q467 174 486 128T543 60T632 38Q673 38 703 49T752 80T781 124T792 175H848Q847 139 835 106T796 46T728 4T629 -12Q558 -12 509 17T433
107Q402 57 363 32T282 -3T206 -12ZM211 38Q246 38 280 49T342 80T388 130T406 194V252Q301 252 233 242T131 206T98 132Q98 99 113 78T154 48T211 38ZM467 301H792Q792 355 780 391T747 448T696 479T632 488Q580 488 545 469T490 409T467 301Z" />
<glyph unicode="&#xe7;" glyph-name="ccedilla" horiz-adv-x="493" d="M256 -12Q186 -12 137 18T61 109T35 263Q35 354 60 415T136 507T261 538Q316 538 354 524T415 482T448 416T459 333H401Q401 388 387 422T342 471T259 487Q213 487 176 468T118 402T96 277V249Q96
175 115 129T171 61T258 39Q312 39 343 57T388 111T402 193H459Q459 153 449 117T415 51T353 5T256 -12ZM248 -170Q227 -170 206 -168T165 -163V-132H266Q283 -132 292 -124T302 -102Q302 -90 294 -83T264 -76H207L226 11H268L260 -43Q286 -42 307 -47T340 -65T353
-101Q353 -121 345 -134T322 -155T289 -166T248 -170Z" />
<glyph unicode="&#xe8;" glyph-name="egrave" horiz-adv-x="536" d="M269 -12Q196 -12 145 17T67 108T40 263Q40 358 66 418T145 508T275 538Q348 538 397 509T471 426T496 296V248H101Q101 172 121 126T180 59T271 38Q314 38 344 49T394 80T424 124T436 175H492Q491
139 478 106T438 46T369 4T269 -12ZM101 297H436Q436 350 424 386T389 445T337 478T271 488Q218 488 182 468T125 405T101 297ZM313 591H258L146 720L147 723H222L313 591Z" />
<glyph unicode="&#xe9;" glyph-name="eacute" horiz-adv-x="536" d="M269 -12Q196 -12 145 17T67 108T40 263Q40 358 66 418T145 508T275 538Q348 538 397 509T471 426T496 296V248H101Q101 172 121 126T180 59T271 38Q314 38 344 49T394 80T424 124T436 175H492Q491
139 478 106T438 46T369 4T269 -12ZM101 297H436Q436 350 424 386T389 445T337 478T271 488Q218 488 182 468T125 405T101 297ZM230 591L322 723H397L398 720L285 591H230Z" />
<glyph unicode="&#xea;" glyph-name="ecircumflex" horiz-adv-x="536" d="M269 -12Q196 -12 145 17T67 108T40 263Q40 358 66 418T145 508T275 538Q348 538 397 509T471 426T496 296V248H101Q101 172 121 126T180 59T271 38Q314 38 344 49T394 80T424 124T436
175H492Q491 139 478 106T438 46T369 4T269 -12ZM101 297H436Q436 350 424 386T389 445T337 478T271 488Q218 488 182 468T125 405T101 297ZM137 591L243 723H299L405 591H345L254 704H288L198 591H137Z" />
<glyph unicode="&#xeb;" glyph-name="edieresis" horiz-adv-x="536" d="M269 -12Q196 -12 145 17T67 108T40 263Q40 358 66 418T145 508T275 538Q348 538 397 509T471 426T496 296V248H101Q101 172 121 126T180 59T271 38Q314 38 344 49T394 80T424 124T436 175H492Q491
139 478 106T438 46T369 4T269 -12ZM101 297H436Q436 350 424 386T389 445T337 478T271 488Q218 488 182 468T125 405T101 297ZM145 645V720H216V645H145ZM325 645V720H396V645H325Z" />
<glyph unicode="&#xec;" glyph-name="igrave" horiz-adv-x="202" d="M72 0V526H130V0H72ZM144 591H89L-24 720L-23 723H52L144 591Z" />
<glyph unicode="&#xed;" glyph-name="iacute" horiz-adv-x="202" d="M72 0V526H130V0H72ZM61 591L152 723H227L228 720L116 591H61Z" />
<glyph unicode="&#xee;" glyph-name="icircumflex" horiz-adv-x="202" d="M72 0V526H130V0H72ZM-32 591L73 723H130L236 591H176L85 704H118L28 591H-32Z" />
<glyph unicode="&#xef;" glyph-name="idieresis" horiz-adv-x="202" d="M72 0V526H130V0H72ZM-24 645V720H47V645H-24ZM155 645V720H227V645H155Z" />
<glyph unicode="&#xf0;" glyph-name="eth" horiz-adv-x="526" d="M260 -12Q188 -12 138 17T62 108T35 263Q35 357 62 417T139 507T260 537Q283 537 303 534T342 523L343 525Q323 553 301 578T253 628L119 617V664L206 670Q189 684 172 696T138 721L140 723H216Q227
716 237 708T258 692T279 676L411 686V639L325 632Q376 583 413 525T471 402T491 263Q491 166 464 105T385 16T260 -12ZM263 39Q316 39 353 60T410 127T430 249V276Q430 352 411 398T354 465T263 486Q211 486 173 465T116 398T96 277V249Q96 173 115 127T173 60T263
39Z" />
<glyph unicode="&#xf1;" glyph-name="ntilde" horiz-adv-x="544" d="M72 0V526H116L123 440H130Q153 478 181 499T243 529T312 538Q362 538 399 522T457 470T478 371V0H420V368Q420 404 411 427T384 463T345 481T295 486Q254 486 216 466T154 407T130 312V0H72ZM121
635Q123 659 131 677T157 707T200 718Q226 718 251 710T300 694T345 685Q362 685 369 695T378 718H425Q424 695 415 676T388 646T344 635Q319 635 294 644T246 661T200 669Q182 669 175 659T166 635H121Z" />
<glyph unicode="&#xf2;" glyph-name="ograve" horiz-adv-x="544" d="M272 -12Q198 -12 146 17T67 108T40 263Q40 358 67 418T146 508T272 538Q347 538 398 509T477 419T505 263Q505 169 478 108T399 18T272 -12ZM272 39Q326 39 364 60T423 128T443 249V277Q443
352 423 398T365 465T272 487Q218 487 180 466T122 398T101 277V249Q101 175 121 129T180 61T272 39ZM314 591H259L147 720L148 723H223L314 591Z" />
<glyph unicode="&#xf3;" glyph-name="oacute" horiz-adv-x="544" d="M272 -12Q198 -12 146 17T67 108T40 263Q40 358 67 418T146 508T272 538Q347 538 398 509T477 419T505 263Q505 169 478 108T399 18T272 -12ZM272 39Q326 39 364 60T423 128T443 249V277Q443
352 423 398T365 465T272 487Q218 487 180 466T122 398T101 277V249Q101 175 121 129T180 61T272 39ZM231 591L323 723H398L399 720L287 591H231Z" />
<glyph unicode="&#xf4;" glyph-name="ocircumflex" horiz-adv-x="544" d="M272 -12Q198 -12 146 17T67 108T40 263Q40 358 67 418T146 508T272 538Q347 538 398 509T477 419T505 263Q505 169 478 108T399 18T272 -12ZM272 39Q326 39 364 60T423 128T443 249V277Q443
352 423 398T365 465T272 487Q218 487 180 466T122 398T101 277V249Q101 175 121 129T180 61T272 39ZM139 591L244 723H301L407 591H346L255 704H289L199 591H139Z" />
<glyph unicode="&#xf5;" glyph-name="otilde" horiz-adv-x="544" d="M272 -12Q198 -12 146 17T67 108T40 263Q40 358 67 418T146 508T272 538Q347 538 398 509T477 419T505 263Q505 169 478 108T399 18T272 -12ZM272 39Q326 39 364 60T423 128T443 249V277Q443
352 423 398T365 465T272 487Q218 487 180 466T122 398T101 277V249Q101 175 121 129T180 61T272 39ZM120 635Q122 659 130 677T156 707T199 718Q225 718 250 710T299 694T344 685Q361 685 368 695T377 718H423Q423 695 414 676T387 646T342 635Q318 635 293 644T245
661T199 669Q181 669 174 659T165 635H120Z" />
<glyph unicode="&#xf6;" glyph-name="odieresis" horiz-adv-x="544" d="M272 -12Q198 -12 146 17T67 108T40 263Q40 358 67 418T146 508T272 538Q347 538 398 509T477 419T505 263Q505 169 478 108T399 18T272 -12ZM272 39Q326 39 364 60T423 128T443 249V277Q443
352 423 398T365 465T272 487Q218 487 180 466T122 398T101 277V249Q101 175 121 129T180 61T272 39ZM146 645V720H217V645H146ZM326 645V720H397V645H326Z" />
<glyph unicode="&#xf7;" glyph-name="divide" horiz-adv-x="615" d="M72 227V283H544V227H72ZM271 44V118H343V44H271ZM271 392V466H343V392H271Z" />
<glyph unicode="&#xf8;" glyph-name="oslash" horiz-adv-x="544" d="M272 -12Q198 -12 146 17T67 108T40 263Q40 358 67 418T146 508T272 538Q347 538 398 509T477 419T505 263Q505 169 478 108T399 18T272 -12ZM272 39Q326 39 364 60T423 128T443 249V277Q443
352 423 398T365 465T272 487Q218 487 180 466T122 398T101 277V249Q101 175 121 129T180 61T272 39ZM18 -49L473 575H526L74 -49H18Z" />
<glyph unicode="&#xf9;" glyph-name="ugrave" horiz-adv-x="544" d="M232 -12Q157 -12 112 25T66 155V526H124V158Q124 122 133 99T160 63T199 45T249 40Q290 40 328 60T390 119T414 214V526H472V0H428L422 86H415Q392 48 364 27T302 -3T232 -12ZM314 591H259L147
720L148 723H223L314 591Z" />
<glyph unicode="&#xfa;" glyph-name="uacute" horiz-adv-x="544" d="M232 -12Q157 -12 112 25T66 155V526H124V158Q124 122 133 99T160 63T199 45T249 40Q290 40 328 60T390 119T414 214V526H472V0H428L422 86H415Q392 48 364 27T302 -3T232 -12ZM231 591L323
723H398L399 720L286 591H231Z" />
<glyph unicode="&#xfb;" glyph-name="ucircumflex" horiz-adv-x="544" d="M232 -12Q157 -12 112 25T66 155V526H124V158Q124 122 133 99T160 63T199 45T249 40Q290 40 328 60T390 119T414 214V526H472V0H428L422 86H415Q392 48 364 27T302 -3T232 -12ZM139 591L244
723H301L406 591H346L255 704H289L199 591H139Z" />
<glyph unicode="&#xfc;" glyph-name="udieresis" horiz-adv-x="544" d="M232 -12Q157 -12 112 25T66 155V526H124V158Q124 122 133 99T160 63T199 45T249 40Q290 40 328 60T390 119T414 214V526H472V0H428L422 86H415Q392 48 364 27T302 -3T232 -12ZM146 645V720H217V645H146ZM326
645V720H397V645H326Z" />
<glyph unicode="&#xfd;" glyph-name="yacute" horiz-adv-x="482" d="M96 -182Q82 -182 70 -181T48 -178V-133H83Q110 -133 134 -125T181 -88T223 0L20 526H81L191 239Q199 218 209 189T231 130T250 77H256Q261 94 267 115T281 158T295 201T307 238L404 526H463L281
4Q266 -40 250 -74T213 -133T164 -169T96 -182ZM209 591L301 723H376L377 720L264 591H209Z" />
<glyph unicode="&#xfe;" glyph-name="thorn" horiz-adv-x="536" d="M72 -173V724H130V455H137Q156 486 182 504T238 530T300 538Q361 538 404 509T472 421T496 269Q496 170 472 108T403 17T293 -12Q261 -12 233 -3T180 24T136 71H130V-173H72ZM287 39Q330 39 363
58T415 124T435 249V277Q435 352 418 398T369 465T288 487Q262 487 235 479T183 449T145 386T130 277V254Q130 185 146 137T197 64T287 39Z" />
<glyph unicode="&#xff;" glyph-name="ydieresis" horiz-adv-x="482" d="M96 -182Q82 -182 70 -181T48 -178V-133H83Q110 -133 134 -125T181 -88T223 0L20 526H81L191 239Q199 218 209 189T231 130T250 77H256Q261 94 267 115T281 158T295 201T307 238L404 526H463L281
4Q266 -40 250 -74T213 -133T164 -169T96 -182ZM124 645V720H195V645H124ZM304 645V720H375V645H304Z" />
<glyph unicode="&#x2013;" glyph-name="endash" horiz-adv-x="500" d="M0 244V298H500V244H0Z" />
<glyph unicode="&#x2014;" glyph-name="emdash" horiz-adv-x="1000" d="M0 244V297H1000V244H0Z" />
<glyph unicode="&#x2018;" glyph-name="quoteleft" horiz-adv-x="202" d="M149 686V654Q134 649 124 635T110 601T105 553H137V469H64V542Q64 600 79 629T114 671T149 686Z" />
<glyph unicode="&#x2019;" glyph-name="quoteright" horiz-adv-x="202" d="M53 469V501Q68 506 78 520T92 555T97 602H65V686H138V613Q138 557 123 527T88 485T53 469Z" />
<glyph unicode="&#x201a;" glyph-name="quotesinglbase" horiz-adv-x="202" d="M53 -133V-101Q68 -96 78 -82T92 -47T97 0H65V84H138V11Q138 -46 123 -75T88 -117T53 -133Z" />
<glyph unicode="&#x201c;" glyph-name="quotedblleft" horiz-adv-x="316" d="M263 686V654Q247 649 238 635T224 601T219 553H251V469H178V542Q178 600 192 629T227 671T263 686ZM149 686V654Q134 649 124 635T110 601T105 553H137V469H64V542Q64 600 79 629T114
671T149 686Z" />
<glyph unicode="&#x201d;" glyph-name="quotedblright" horiz-adv-x="316" d="M53 469V501Q68 506 78 520T92 555T97 602H65V686H138V613Q138 557 123 527T88 485T53 469ZM167 469V501Q182 506 192 520T206 555T211 602H179V686H252V613Q252 557 237 527T202 485T167
469Z" />
<glyph unicode="&#x201e;" glyph-name="quotedblbase" horiz-adv-x="316" d="M53 -133V-101Q68 -96 78 -82T92 -47T97 0H65V84H138V11Q138 -46 123 -75T88 -117T53 -133ZM167 -133V-101Q182 -96 192 -82T206 -47T211 0H179V84H252V11Q252 -46 237 -75T202 -117T167 -133Z" />
<glyph unicode="&#x2022;" glyph-name="bullet" horiz-adv-x="360" d="M180 228Q146 228 120 242T80 283T65 343Q65 377 79 403T120 444T180 459Q214 459 240 445T281 404T296 343Q296 309 282 283T241 243T180 228Z" />
<glyph unicode="&#x2039;" glyph-name="guilsinglleft" horiz-adv-x="353" d="M227 126L57 326L227 526H281L139 326L281 126H227Z" />
<glyph unicode="&#x203a;" glyph-name="guilsinglright" horiz-adv-x="353" d="M126 526L297 326L126 126H72L214 326L72 526H126Z" />
</font>
</defs>
</svg>
