<?xml version="1.0" standalone="no"?>
<!DOCTYPE svg PUBLIC "-//W3C//DTD SVG 1.1//EN" "http://www.w3.org/Graphics/SVG/1.1/DTD/svg11.dtd">
<svg xmlns="http://www.w3.org/2000/svg">
<defs >
<font id="Archivo" horiz-adv-x="575" ><font-face
    font-family="Archivo Thin"
    units-per-em="1000"
    panose-1="0 0 0 0 0 0 0 0 0 0"
    ascent="878"
    descent="-210"
    alphabetic="0" />
<glyph unicode=" " glyph-name="space" horiz-adv-x="220" />
<glyph unicode="!" glyph-name="exclam" horiz-adv-x="250" d="M108 171L95 686H155L142 171H108ZM93 0V77H157V0H93Z" />
<glyph unicode="&quot;" glyph-name="quotedbl" horiz-adv-x="291" d="M60 414L49 539V686H101V539L90 414H60ZM185 414L174 539V686H226V539L215 414H185Z" />
<glyph unicode="#" glyph-name="numbersign" horiz-adv-x="580" d="M73 -12L120 193H25V241H131L173 424H69V472H184L237 698H291L238 472H417L470 698H524L471 472H555V424H460L418 241H511V193H407L360 -12H306L353 193H174L127 -12H73ZM185 241H364L406 424H227L185
241Z" />
<glyph unicode="$" glyph-name="dollar" horiz-adv-x="473" d="M216 -49V723H264V-49H216ZM233 67Q183 67 145 76T81 105T42 154T29 222Q29 226 29 231T30 240H78Q77 234 77 230T77 222Q77 178 96 154T152 120T238 110Q280 110 312 122T363 158T382 216Q382 258
358 279T297 312T219 336Q188 345 158 355T103 381T64 421T49 482Q49 512 61 537T96 580T155 607T236 617Q291 617 327 605T383 571T412 524T421 473Q421 470 421 466T420 457H372V473Q372 494 363 517T324 557T233 574Q199 574 174 568T132 551T107 522T98 482Q98
448 118 431T170 403T238 381Q272 370 306 359T369 332T415 291T432 224Q432 187 417 158T376 109T313 78T233 67Z" />
<glyph unicode="%" glyph-name="percent" horiz-adv-x="932" d="M192 0L679 686H739L253 0H192ZM234 337Q191 337 160 353T112 409T95 517Q95 587 111 626T159 681T234 698Q278 698 308 682T355 626T372 517Q372 448 356 409T309 353T234 337ZM234 378Q285 378
302 412T319 514V520Q319 565 312 595T287 641T234 657Q185 657 167 623T149 520V514Q149 447 167 413T234 378ZM699 -12Q656 -12 625 4T577 60T560 168Q560 238 576 277T624 332T699 349Q743 349 773 333T820 277T837 168Q837 99 821 60T774 4T699 -12ZM699 29Q750
29 767 63T784 165V171Q784 216 777 246T752 292T699 308Q650 308 632 274T614 171V165Q614 98 632 64T699 29Z" />
<glyph unicode="&amp;" glyph-name="ampersand" horiz-adv-x="649" d="M286 -12Q215 -12 161 11T76 79T45 184Q45 250 76 293T152 352V356Q114 378 87 415T60 510Q60 571 89 613T171 676T295 698Q366 698 420 675T506 610T538 510V502H490V507Q488 559 461 591T390
638T294 653Q263 653 231 647T171 625T127 582T110 515Q110 465 134 433T197 385T281 370H337V329H283Q236 329 193 317T123 273T96 185Q96 130 122 97T194 48T298 33Q363 33 405 49T469 98T490 183V370H615V326H538V186Q538 118 510 74T425 9T286 -12Z" />
<glyph unicode="&apos;" glyph-name="quotesingle" horiz-adv-x="166" d="M60 414L49 539V686H101V539L90 414H60Z" />
<glyph unicode="(" glyph-name="parenleft" horiz-adv-x="353" d="M265 -157Q177 -65 129 51T81 289Q81 411 129 527T265 735H296Q253 675 217 603T159 452T137 289Q137 206 158 127T216 -24T296 -157H265Z" />
<glyph unicode=")" glyph-name="parenright" horiz-adv-x="353" d="M88 735Q177 643 224 527T272 289Q272 167 225 51T88 -157H57Q101 -96 137 -25T194 126T216 289Q216 372 195 451T137 603T57 735H88Z" />
<glyph unicode="*" glyph-name="asterisk" horiz-adv-x="407" d="M175 337L186 480L78 399L49 450L168 511L49 573L78 624L186 542L175 686H233L222 542L330 624L359 573L239 511L359 450L330 399L222 480L233 337H175Z" />
<glyph unicode="+" glyph-name="plus" horiz-adv-x="612" d="M281 0V230H70V280H281V511H331V280H542V230H331V0H281Z" />
<glyph unicode="," glyph-name="comma" horiz-adv-x="250" d="M78 -128V-99Q92 -94 101 -81T114 -47T118 0H91V77H155V11Q155 -46 141 -74T109 -114T78 -128Z" />
<glyph unicode="-" glyph-name="hyphen" horiz-adv-x="333" d="M40 240V302H293V240H40Z" />
<glyph unicode="." glyph-name="period" horiz-adv-x="250" d="M93 0V77H157V0H93Z" />
<glyph unicode="/" glyph-name="slash" horiz-adv-x="289" d="M0 -49L239 735H289L50 -49H0Z" />
<glyph unicode="0" glyph-name="zero" horiz-adv-x="570" d="M285 -12Q230 -12 186 5T111 62T64 171T47 343Q47 446 63 514T110 623T185 681T285 698Q341 698 385 681T459 624T506 515T523 343Q523 240 507 172T460 63T385 5T285 -12ZM285 31Q355 31 395 64T453
162T471 324V362Q471 459 454 524T396 622T285 655Q215 655 175 622T117 524T99 362V324Q99 228 116 163T174 64T285 31Z" />
<glyph unicode="1" glyph-name="one" horiz-adv-x="457" d="M30 0V45H214V572H30V605Q75 607 113 611T185 633T246 690H262V45H437V0H30Z" />
<glyph unicode="2" glyph-name="two" horiz-adv-x="557" d="M48 0V24Q48 63 65 96T111 158T176 213T250 266Q308 305 354 342T429 421T457 517Q457 561 437 592T380 639T290 655Q219 655 179 630T123 567T106 491V450H59Q58 455 57 466T56 490Q56 564 89 609T176
676T294 698Q337 698 375 688T444 656T491 600T508 517Q508 470 492 432T445 362T375 299T288 237Q246 209 205 177T134 111T102 48H512V0H48Z" />
<glyph unicode="3" glyph-name="three" horiz-adv-x="570" d="M285 -12Q204 -12 150 11T68 78T40 184V194H87V186Q87 111 136 71T273 31Q364 31 419 68T474 187Q474 242 445 272T370 315T274 327H185V370H277Q324 370 365 384T431 430T457 518Q457 564 434 594T373
639T290 655Q240 655 198 638T131 587T106 504V493H56V503Q56 560 86 604T168 673T288 698Q351 698 401 678T479 617T508 518Q508 471 490 439T445 386T389 356V352Q447 336 486 294T525 184Q525 123 494 79T409 12T285 -12Z" />
<glyph unicode="4" glyph-name="four" horiz-adv-x="530" d="M364 0V186H25V230Q69 309 104 385T166 538T209 698H262Q249 641 231 582T192 467T149 363T110 281T79 229H364V500Q367 512 370 525T376 552T381 576T385 596H412V229H510V186H412V0H364Z" />
<glyph unicode="5" glyph-name="five" horiz-adv-x="567" d="M294 -12Q222 -12 168 15T84 92T54 213H101Q101 156 128 115T199 53T294 31Q347 31 389 51T455 114T479 224Q479 283 458 322T399 380T307 399Q270 399 235 388T170 354T124 296L80 306L109 686H493V638H152L132
372Q151 392 176 408T235 434T307 444Q369 444 419 422T499 353T529 230Q529 155 501 101T421 17T294 -12Z" />
<glyph unicode="6" glyph-name="six" horiz-adv-x="570" d="M297 -12Q238 -12 192 4T113 59T64 161T47 323Q47 427 64 498T113 614T192 678T299 698Q370 698 414 671T478 597T499 488H449Q449 546 431 583T379 637T294 655Q219 655 177 617T116 507T97 333Q121
374 154 398T225 433T300 444Q377 444 426 415T500 335T525 222Q525 153 495 100T414 18T297 -12ZM290 31Q353 31 394 57T454 127T474 223Q474 270 455 310T397 376T294 401Q232 401 191 375T128 307T107 214Q107 165 127 123T187 56T290 31Z" />
<glyph unicode="7" glyph-name="seven" horiz-adv-x="525" d="M143 0Q143 104 170 196T241 369T334 517T427 638H30V686H505V660Q464 614 421 558T339 439T268 309T218 175T199 43V0H143Z" />
<glyph unicode="8" glyph-name="eight" horiz-adv-x="571" d="M286 -12Q203 -12 151 14T75 86T51 186Q51 242 80 285T173 352Q124 377 97 419T70 512Q70 565 94 607T167 673T286 698Q357 698 404 674T476 607T501 512Q501 461 475 419T398 352Q461 329 490 286T520
186Q520 131 497 86T422 15T286 -12ZM286 31Q378 31 423 71T469 180Q469 248 424 289T286 330Q194 330 148 289T102 180Q102 112 148 72T286 31ZM286 372Q362 372 406 410T450 516Q450 583 407 619T286 655Q210 655 166 619T121 516Q121 448 165 410T286 372Z"
/>
<glyph unicode="9" glyph-name="nine" horiz-adv-x="570" d="M271 -12Q200 -12 156 15T92 89T71 198H121Q121 140 139 103T192 49T276 31Q351 31 393 69T454 179T473 353Q450 312 417 288T346 253T270 242Q194 242 144 271T70 351T45 464Q45 534 75 586T157 668T273
698Q332 698 378 682T457 627T506 525T523 363Q523 260 506 188T457 72T378 8T271 -12ZM276 285Q338 285 379 311T442 380T463 472Q463 522 443 563T383 630T280 655Q217 655 177 629T116 559T96 463Q96 416 115 376T173 310T276 285Z" />
<glyph unicode=":" glyph-name="colon" horiz-adv-x="248" d="M92 449V526H156V449H92ZM92 0V77H156V0H92Z" />
<glyph unicode=";" glyph-name="semicolon" horiz-adv-x="248" d="M79 -128V-99Q93 -94 102 -81T115 -47T119 0H92V77H156V11Q156 -46 142 -74T109 -114T79 -128ZM92 449V526H156V449H92Z" />
<glyph unicode="&lt;" glyph-name="less" horiz-adv-x="612" d="M532 7L57 216V280L532 489V435L104 248L532 61V7Z" />
<glyph unicode="=" glyph-name="equal" horiz-adv-x="612" d="M68 334V384H544V334H68ZM68 126V176H544V126H68Z" />
<glyph unicode="&gt;" glyph-name="greater" horiz-adv-x="612" d="M80 7V61L508 248L80 435V489L555 280V216L80 7Z" />
<glyph unicode="?" glyph-name="question" horiz-adv-x="537" d="M235 160V227Q235 262 247 285T280 327T323 362T365 399T398 447T411 518Q411 533 406 556T386 601T342 638T264 653Q209 653 177 634T128 588T106 535T101 495Q101 488 101 481T101 466H54Q53
469 52 477T51 499Q51 508 55 531T70 582T106 637T169 680T268 698Q326 698 362 682T419 640T449 590T460 545T462 520Q462 469 449 436T416 379T374 340T331 308T298 272T285 222V160H235ZM228 0V77H292V0H228Z" />
<glyph unicode="@" glyph-name="at" horiz-adv-x="1013" d="M479 -153Q350 -153 256 -110T110 26T59 262Q59 381 95 464T195 598T340 673T514 697Q609 697 689 676T828 609T921 493T954 320Q954 253 941 204T904 120T853 64T796 33T740 23Q703 23 683 31T654 58T644
106H638Q619 79 590 60T525 31T454 21Q421 21 393 29T344 53T312 93T300 151Q300 201 326 232T399 279T508 302T644 308V380Q644 413 631 435T587 470T500 482Q448 482 419 469T377 434T364 384V368H322Q321 373 321 377T321 389Q321 436 345 465T412 507T514 521Q568
521 607 506T667 461T689 389V108Q689 86 698 75T738 64Q780 64 819 89T884 170T910 321Q910 439 860 513T720 621T513 656Q388 656 296 613T153 482T103 261Q103 76 194 -17T479 -111Q504 -111 537 -107T603 -97T654 -81V-126Q632 -134 600 -140T535 -149T479
-153ZM457 60Q489 60 521 70T582 100T627 145T644 205V267Q541 267 476 257T379 221T348 150Q348 118 363 98T403 69T457 60Z" />
<glyph unicode="A" glyph-name="A" horiz-adv-x="650" d="M10 0L286 686H364L640 0H582L502 198H144L65 0H10ZM164 246H482L382 495Q379 503 373 519T359 556T343 599T327 640H319Q312 621 302 595T282 543T264 495L164 246Z" />
<glyph unicode="B" glyph-name="B" horiz-adv-x="689" d="M98 0V686H429Q491 686 533 667T598 611T620 523Q620 484 607 451T570 394T513 360V356Q547 348 575 329T621 276T639 185Q639 115 612 75T538 17T429 0H98ZM152 48H445Q508 48 546 79T585 188Q585 238
568 269T519 314T439 328H152V48ZM152 376H428Q467 376 498 392T547 439T566 511Q566 576 531 607T437 638H152V376Z" />
<glyph unicode="C" glyph-name="C" horiz-adv-x="737" d="M380 -12Q275 -12 204 28T96 147T59 343Q59 519 144 608T382 698Q473 698 540 670T645 586T682 445H628Q628 517 599 562T514 628T380 650Q303 650 243 620T150 524T116 348V327Q116 222 149 158T243 65T381
36Q458 36 513 57T599 124T629 241H682Q682 154 643 98T536 15T380 -12Z" />
<glyph unicode="D" glyph-name="D" horiz-adv-x="741" d="M98 0V686H332Q444 686 522 651T641 541T682 343Q682 223 641 147T522 36T332 0H98ZM152 48H328Q395 48 449 62T543 110T604 197T625 331V351Q625 433 604 488T544 576T451 623T328 638H152V48Z" />
<glyph unicode="E" glyph-name="E" horiz-adv-x="682" d="M98 0V686H618V638H152V376H574V328H152V48H624V0H98Z" />
<glyph unicode="F" glyph-name="F" horiz-adv-x="616" d="M98 0V686H576V638H152V376H541V329H152V0H98Z" />
<glyph unicode="G" glyph-name="G" horiz-adv-x="798" d="M403 -12Q229 -12 144 76T59 343Q59 458 97 537T213 657T406 698Q479 698 535 683T629 637T687 560T707 452H654Q654 509 636 547T584 608T504 640T404 650Q339 650 286 634T195 583T137 491T116 353V332Q116
224 150 159T248 65T396 36Q494 36 550 62T629 143T653 285V304H384V352H708V0H662L653 99Q630 59 589 35T500 -1T403 -12Z" />
<glyph unicode="H" glyph-name="H" horiz-adv-x="740" d="M98 0V686H152V374H588V686H642V0H588V326H152V0H98Z" />
<glyph unicode="I" glyph-name="I" horiz-adv-x="250" d="M98 0V686H152V0H98Z" />
<glyph unicode="J" glyph-name="J" horiz-adv-x="529" d="M229 -12Q168 -12 124 10T57 74T33 181V201H88V171Q88 106 125 71T229 36Q300 36 338 79T377 214V686H431V224Q431 144 407 92T338 14T229 -12Z" />
<glyph unicode="K" glyph-name="K" horiz-adv-x="623" d="M98 0V686H152V271L553 686H624L368 417L638 0H572L327 376L152 202V0H98Z" />
<glyph unicode="L" glyph-name="L" horiz-adv-x="496" d="M98 0V686H152V48H490V0H98Z" />
<glyph unicode="M" glyph-name="M" horiz-adv-x="851" d="M98 0V686H177L390 166Q396 151 402 134T414 103T423 78H428Q433 92 439 109T452 141T461 166L674 686H753V0H699V466Q699 480 699 505T700 558T701 608H694Q689 589 684 573T673 543T661 515L444 0H407L190
515Q184 529 179 543T168 573T157 608H150Q151 590 151 564T151 512T152 466V0H98Z" />
<glyph unicode="N" glyph-name="N" horiz-adv-x="740" d="M98 0V686H153L532 179Q538 172 547 159T566 132T584 107H588Q588 125 588 143T588 179V686H642V0H599L211 521Q204 530 187 553T156 595H152Q152 576 152 558T152 521V0H98Z" />
<glyph unicode="O" glyph-name="O" horiz-adv-x="795" d="M397 -12Q291 -12 216 28T100 147T59 343Q59 461 99 539T215 658T397 698Q504 698 579 658T695 540T736 343Q736 226 696 147T580 28T397 -12ZM397 36Q459 36 511 52T600 103T658 195T679 333V353Q679
434 659 490T601 582T511 634T397 650Q335 650 284 634T195 583T137 491T116 353V333Q116 252 136 196T194 104T283 52T397 36Z" />
<glyph unicode="P" glyph-name="P" horiz-adv-x="659" d="M98 0V686H431Q497 686 540 660T605 590T627 490Q627 431 601 385T532 312T437 285H152V0H98ZM152 333H429Q492 333 532 374T572 488Q572 535 557 568T509 620T429 638H152V333Z" />
<glyph unicode="Q" glyph-name="Q" horiz-adv-x="795" d="M605 -130L472 -6Q454 -9 436 -10T397 -12Q291 -12 216 28T100 147T59 343Q59 461 99 539T215 658T397 698Q504 698 579 658T695 540T736 343Q736 209 682 125T532 8L673 -130H605ZM397 36Q459 36 511
52T600 103T658 195T679 333V353Q679 434 659 490T601 582T511 634T397 650Q335 650 284 634T195 583T137 491T116 353V333Q116 252 136 196T194 104T283 52T397 36Z" />
<glyph unicode="R" glyph-name="R" horiz-adv-x="739" d="M98 0V686H458Q522 686 564 661T627 594T648 499Q648 424 613 374T525 305L672 0H612L470 295H152V0H98ZM152 343H450Q517 343 555 385T594 500Q594 543 578 573T530 621T450 638H152V343Z" />
<glyph unicode="S" glyph-name="S" horiz-adv-x="679" d="M346 -12Q291 -12 240 -3T148 28T85 89T61 188Q61 193 61 196T62 207H117Q116 202 116 195T115 181Q115 132 145 100T225 52T336 36Q349 36 376 38T434 47T494 70T541 110T560 176Q560 216 540 242T485
286T408 315T319 339T230 363T153 397T99 448T78 524Q78 560 92 592T137 647T219 684T346 698Q398 698 442 687T521 654T574 596T593 512V500H539V521Q539 561 514 589T447 634T353 650Q275 650 227 634T156 592T133 533Q133 495 153 470T208 429T286 401T374 378T463
353T540 318T595 265T616 186Q616 118 582 74T487 9T346 -12Z" />
<glyph unicode="T" glyph-name="T" horiz-adv-x="590" d="M266 0V638H12V686H577V638H320V0H266Z" />
<glyph unicode="U" glyph-name="U" horiz-adv-x="740" d="M367 -12Q283 -12 223 15T131 103T98 266V686H153V240Q153 138 209 88T367 37Q471 37 530 87T589 240V686H642V266Q642 165 609 104T515 15T367 -12Z" />
<glyph unicode="V" glyph-name="V" horiz-adv-x="620" d="M274 0L10 686H68L260 184Q268 165 276 141T293 94T308 52H315Q322 70 330 93T347 141T363 184L552 686H610L346 0H274Z" />
<glyph unicode="W" glyph-name="W" horiz-adv-x="888" d="M211 0L15 686H73L208 198Q212 184 218 161T232 112T244 66H253Q257 81 261 99T269 136T277 171T284 198L409 686H481L607 198Q611 184 617 161T629 112T640 66H649Q653 81 657 99T667 136T676 171T683
198L819 686H873L677 0H603L476 484Q472 500 467 523T457 572T447 618H439Q435 599 430 574T418 524T408 484L285 0H211Z" />
<glyph unicode="X" glyph-name="X" horiz-adv-x="673" d="M12 0L304 359L38 686H105L335 401H339L563 686H629L371 360L661 0H594L339 317H335L80 0H12Z" />
<glyph unicode="Y" glyph-name="Y" horiz-adv-x="630" d="M287 0V291L10 686H70L313 338H317L559 686H620L342 291V0H287Z" />
<glyph unicode="Z" glyph-name="Z" horiz-adv-x="637" d="M36 0V34L511 638H62V686H591V654L113 48H600V0H36Z" />
<glyph unicode="[" glyph-name="bracketleft" horiz-adv-x="245" d="M74 -161V735H240V695H124V-121H240V-161H74Z" />
<glyph unicode="\" glyph-name="backslash" horiz-adv-x="289" d="M289 -49H239L0 735H50L289 -49Z" />
<glyph unicode="]" glyph-name="bracketright" horiz-adv-x="245" d="M171 735V-161H5V-121H121V695H5V735H171Z" />
<glyph unicode="^" glyph-name="asciicircum" horiz-adv-x="612" d="M106 294L275 686H337L506 294H452L305 639L158 294H106Z" />
<glyph unicode="_" glyph-name="underscore" horiz-adv-x="459" d="M0 -113V-65H459V-113H0Z" />
<glyph unicode="`" glyph-name="grave" horiz-adv-x="161" d="M161 591H113L0 720L1 723H68L161 591Z" />
<glyph unicode="a" glyph-name="a" horiz-adv-x="531" d="M202 -12Q166 -12 136 -4T83 22T48 67T35 131Q35 186 63 220T141 272T259 297T406 304V383Q406 419 393 444T346 482T253 495Q197 495 165 481T119 442T105 387V370H59Q58 375 58 380T58 392Q58 444 84
476T157 523T267 538Q326 538 367 521T431 471T454 392V64Q454 45 460 38T479 31H526V3Q508 -5 493 -8T465 -11Q438 -11 426 1T410 35T406 82H399Q379 52 347 31T278 -1T202 -12ZM206 31Q240 31 275 42T339 75T387 125T406 191V259Q295 259 225 248T122 208T88
130Q88 94 104 72T147 41T206 31Z" />
<glyph unicode="b" glyph-name="b" horiz-adv-x="537" d="M289 -12Q234 -12 193 10T122 80H115L108 0H73V723H121V454H128Q147 486 173 504T229 530T289 538Q354 538 400 509T472 421T497 270Q497 170 473 108T402 17T289 -12ZM289 31Q333 31 368 50T425 117T446
248V278Q446 356 427 403T372 473T282 495Q257 495 229 488T177 458T137 391T121 274V254Q121 182 138 133T192 57T289 31Z" />
<glyph unicode="c" glyph-name="c" horiz-adv-x="485" d="M252 -12Q183 -12 135 18T60 109T34 263Q34 353 59 414T135 507T257 538Q313 538 350 523T410 481T441 416T451 334H404Q404 391 390 426T343 478T255 495Q209 495 170 475T108 408T85 278V248Q85 171
106 123T165 53T253 31Q311 31 343 50T390 106T404 192H451Q451 154 442 118T410 52T349 6T252 -12Z" />
<glyph unicode="d" glyph-name="d" horiz-adv-x="537" d="M248 -12Q182 -12 136 17T65 108T40 270Q40 362 65 421T136 509T248 538Q282 538 311 530T365 504T409 454H416V723H464V0H429L422 80H415Q386 33 342 11T248 -12ZM248 31Q308 31 345 57T399 132T416 254V274Q416
347 401 391T361 457T308 487T255 495Q202 495 166 473T110 404T91 278V248Q91 165 112 118T168 51T248 31Z" />
<glyph unicode="e" glyph-name="e" horiz-adv-x="532" d="M265 -12Q194 -12 144 17T67 108T40 263Q40 358 66 418T145 508T273 538Q345 538 393 509T467 427T492 300V250H91Q91 170 112 122T173 52T268 31Q314 31 346 43T398 75T429 121T441 174H487Q486 140 474
107T435 47T367 4T265 -12ZM91 293H442Q442 350 429 388T393 450T338 484T268 495Q213 495 175 474T115 408T91 293Z" />
<glyph unicode="f" glyph-name="f" horiz-adv-x="249" d="M89 0V483H9V526H89V630Q89 655 96 678T123 716T180 731Q192 731 203 731T225 729T245 724V688H190Q162 688 150 675T137 635V526H245V483H137V0H89Z" />
<glyph unicode="g" glyph-name="g" horiz-adv-x="515" d="M164 -182Q124 -182 91 -165T39 -116T20 -47Q20 -3 42 30T104 80Q76 91 63 114T49 161Q49 194 72 219T132 253Q101 275 82 307T62 377Q62 422 83 458T148 516T262 538Q297 538 326 533T378 516Q413 525
435 548T466 609H516Q514 584 502 559T467 515T412 493Q438 468 450 439T462 377Q462 333 441 297T376 238T262 216H178Q144 216 121 204T98 159Q98 131 122 117T183 102H378Q435 102 470 63T506 -35Q506 -76 487 -109T433 -162T353 -182H164ZM167 -140H351Q380
-140 404 -127T442 -91T457 -42Q457 2 432 30T371 58H167Q127 58 98 29T69 -42Q69 -87 98 -113T167 -140ZM262 259Q339 259 376 291T413 377Q413 431 376 463T262 495Q186 495 149 463T111 377Q111 344 127 317T178 275T262 259Z" />
<glyph unicode="h" glyph-name="h" horiz-adv-x="538" d="M73 0V723H121V454H128Q152 487 179 505T238 530T306 538Q356 538 393 523T450 471T471 373V0H423V373Q423 411 413 435T386 472T345 490T294 495Q251 495 211 476T146 416T121 313V0H73Z" />
<glyph unicode="i" glyph-name="i" horiz-adv-x="194" d="M73 647V723H121V647H73ZM73 0V526H121V0H73Z" />
<glyph unicode="j" glyph-name="j" horiz-adv-x="191" d="M73 647V723H121V647H73ZM34 -182Q25 -182 16 -181T-1 -179T-15 -175V-141H24Q49 -141 61 -128T73 -90V526H121V-85Q121 -111 114 -133T87 -169T34 -182Z" />
<glyph unicode="k" glyph-name="k" horiz-adv-x="480" d="M73 0V723H121V235L384 526H443L259 321L453 0H397L226 285L121 175V0H73Z" />
<glyph unicode="l" glyph-name="l" horiz-adv-x="194" d="M73 0V723H121V0H73Z" />
<glyph unicode="m" glyph-name="m" horiz-adv-x="858" d="M73 0V526H108L114 437H121Q145 478 173 500T233 530T301 538Q357 538 396 516T449 437H455Q477 477 504 498T564 529T631 538Q679 538 715 523T771 471T791 373V0H743V373Q743 411 734 435T707 472T667
490T619 495Q577 495 540 474T480 413T456 313V0H408V373Q408 411 399 435T373 472T335 490T289 495Q246 495 208 474T145 413T121 313V0H73Z" />
<glyph unicode="n" glyph-name="n" horiz-adv-x="538" d="M73 0V526H108L114 437H121Q145 478 174 500T237 530T306 538Q356 538 393 523T450 471T471 373V0H423V373Q423 411 413 435T386 472T345 490T294 495Q251 495 211 474T146 413T121 313V0H73Z" />
<glyph unicode="o" glyph-name="o" horiz-adv-x="536" d="M268 -12Q196 -12 145 17T67 108T40 263Q40 358 67 418T145 508T268 538Q341 538 391 509T469 419T496 263Q496 169 469 108T392 18T268 -12ZM268 31Q323 31 362 53T423 123T445 248V278Q445 356 424 403T363
473T268 495Q213 495 174 473T113 404T91 278V248Q91 171 112 123T173 53T268 31Z" />
<glyph unicode="p" glyph-name="p" horiz-adv-x="537" d="M73 -173V526H108L115 446H122Q151 493 193 515T289 538Q356 538 402 509T472 418T497 256Q497 165 472 106T401 17T289 -12Q259 -12 229 -4T173 22T128 72H121V-173H73ZM282 31Q335 31 371 53T427 123T446
248V278Q446 362 425 409T369 475T289 495Q230 495 193 470T138 394T121 272V252Q121 179 136 135T176 69T229 39T282 31Z" />
<glyph unicode="q" glyph-name="q" horiz-adv-x="537" d="M416 -173V72H409Q390 41 364 23T308 -4T248 -12Q183 -12 137 17T65 105T40 256Q40 356 64 418T135 509T248 538Q304 538 345 516T415 446H422L429 526H464V-173H416ZM255 31Q280 31 308 38T360 68T400
135T416 252V272Q416 344 399 394T345 469T248 495Q204 495 169 476T112 409T91 278V248Q91 171 110 123T165 53T255 31Z" />
<glyph unicode="r" glyph-name="r" horiz-adv-x="296" d="M73 0V526H109L114 435H120Q126 459 139 482T178 522T241 538Q255 538 266 536T282 532V490H254Q217 490 192 475T151 435T128 380T121 318V0H73Z" />
<glyph unicode="s" glyph-name="s" horiz-adv-x="473" d="M233 -12Q183 -12 145 -3T81 26T42 75T29 143Q29 147 29 152T30 161H78Q77 155 77 151T77 143Q77 99 96 75T152 41T238 31Q280 31 312 43T363 79T382 137Q382 179 358 200T297 233T219 257Q188 266 158
276T103 302T64 342T49 403Q49 433 61 458T96 501T155 528T236 538Q291 538 327 526T383 492T412 445T421 394Q421 391 421 387T420 378H372V394Q372 415 363 438T324 478T233 495Q199 495 174 489T132 472T107 443T98 403Q98 369 118 352T170 324T238 302Q272
291 306 280T369 253T415 212T432 145Q432 108 417 79T376 30T313 -1T233 -12Z" />
<glyph unicode="t" glyph-name="t" horiz-adv-x="277" d="M178 -11Q147 -11 129 -1T104 28T96 74V483H22V526H96L106 672H144V526H251V483H144V88Q144 58 150 45T185 31H251V3Q241 -2 228 -5T202 -9T178 -11Z" />
<glyph unicode="u" glyph-name="u" horiz-adv-x="538" d="M232 -12Q157 -12 112 24T67 153V526H115V153Q115 115 125 91T152 54T193 36T244 31Q287 31 326 52T391 114T417 213V526H465V0H430L424 89H417Q393 48 364 26T302 -4T232 -12Z" />
<glyph unicode="v" glyph-name="v" horiz-adv-x="475" d="M217 0L22 526H73L181 233Q189 212 198 184T218 127T235 77H240Q248 98 258 126T279 183T297 233L405 526H453L258 0H217Z" />
<glyph unicode="w" glyph-name="w" horiz-adv-x="682" d="M181 0L20 526H70L159 233Q165 213 172 186T187 131T200 84H205Q210 104 216 131T229 186T241 233L316 526H370L445 233Q450 213 456 186T469 132T480 84H485Q491 104 498 131T514 185T528 233L617 526H662L501
0H458L380 297Q376 315 369 342T356 399T344 452H338Q333 429 327 400T314 343T302 296L225 0H181Z" />
<glyph unicode="x" glyph-name="x" horiz-adv-x="475" d="M18 0L208 267L22 526H80L235 308H239L393 526H448L264 269L457 0H400L238 228H234L73 0H18Z" />
<glyph unicode="y" glyph-name="y" horiz-adv-x="475" d="M90 -182Q80 -182 70 -181T48 -179V-141H79Q107 -141 132 -133T181 -95T225 0L22 526H73L185 233Q193 212 204 183T226 123T246 69H252Q257 86 264 107T278 152T293 195T305 232L405 526H453L271 0Q256
-44 240 -78T203 -135T156 -170T90 -182Z" />
<glyph unicode="z" glyph-name="z" horiz-adv-x="484" d="M39 0V36L363 483H65V526H428V492L103 43H450V0H39Z" />
<glyph unicode="{" glyph-name="braceleft" horiz-adv-x="304" d="M256 -159Q234 -159 211 -154T168 -135T136 -101T124 -47V190Q124 211 113 223T83 241T47 247V326Q65 326 83 332T112 350T124 383V623Q124 655 136 676T168 711T211 729T256 735V697Q242 697
224 692T192 674T177 638L166 394Q164 345 149 318T83 291V282Q117 282 134 270T158 235T166 179L177 -62Q178 -85 192 -98T224 -116T256 -121V-159Z" />
<glyph unicode="|" glyph-name="bar" horiz-adv-x="246" d="M98 -173V723H148V-173H98Z" />
<glyph unicode="}" glyph-name="braceright" horiz-adv-x="304" d="M48 735Q70 735 93 730T136 711T168 677T180 623V386Q180 366 192 353T221 335T257 329V250Q239 250 222 244T192 226T180 193V-47Q180 -79 168 -100T136 -135T93 -153T48 -159V-121Q62 -121
80 -116T112 -98T127 -62L138 182Q140 231 155 258T221 285V294Q188 294 171 306T147 341T138 397L127 638Q126 661 112 674T80 692T48 697V735Z" />
<glyph unicode="~" glyph-name="asciitilde" horiz-adv-x="612" d="M55 229V286Q66 302 86 318T136 347T200 359Q229 359 254 350T305 329T356 307T412 298Q443 298 471 310T521 339T557 371V314Q547 299 526 282T477 253T412 241Q384 241 358 250T307 271T256
293T200 302Q169 302 141 290T91 262T55 229Z" />
<glyph unicode="&#xa0;" glyph-name="uni00A0" horiz-adv-x="220" />
<glyph unicode="&#xa1;" glyph-name="exclamdown" horiz-adv-x="250" d="M95 -160L108 355H142L155 -160H95ZM93 449V526H157V449H93Z" />
<glyph unicode="&#xa2;" glyph-name="cent" horiz-adv-x="556" d="M250 -49V723H298V-49H250ZM273 67Q204 67 156 97T81 188T55 342Q55 432 80 493T156 586T278 617Q334 617 371 602T431 560T462 495T472 413H425Q425 470 411 505T364 557T276 574Q230 574 191
554T129 487T106 357V327Q106 249 127 202T186 132T274 110Q332 110 364 129T411 185T425 271H472Q472 233 463 197T431 131T370 85T273 67Z" />
<glyph unicode="&#xa3;" glyph-name="sterling" horiz-adv-x="556" d="M45 0V48H131V317H31V365H131V522Q131 580 156 619T224 678T319 698Q371 698 412 678T477 619T501 522V503H453V522Q453 570 435 599T387 642T319 656Q281 656 249 642T198 599T179 522V365H351V317H179L174
48H508V0H45Z" />
<glyph unicode="&#xa4;" glyph-name="currency" horiz-adv-x="556" d="M70 99L28 141L83 195Q55 227 43 267T30 349Q30 391 42 431T83 503L28 557L70 599L126 543Q158 570 197 583T278 597Q320 597 359 584T430 543L486 599L528 557L473 503Q501 472 513 432T526
349Q526 307 514 267T473 195L528 141L486 99L430 155Q399 128 360 115T278 101Q236 101 197 114T126 155L70 99ZM278 149Q332 149 377 176T450 248T477 349Q477 404 450 449T378 521T278 548Q224 548 179 521T106 449T78 349Q78 294 105 249T178 176T278 149Z"
/>
<glyph unicode="&#xa5;" glyph-name="yen" horiz-adv-x="550" d="M247 0V169H44V217H247V288H44V336H224Q211 357 194 382T171 417L10 686H70L212 442Q217 434 227 416T250 377T273 338H277Q287 355 298 375T320 413T337 442L479 686H540L378 417Q372 407 356
382T325 336H506V288H302V217H506V169H302V0H247Z" />
<glyph unicode="&#xa6;" glyph-name="brokenbar" horiz-adv-x="246" d="M98 357V723H148V357H98ZM98 -173V193H148V-173H98Z" />
<glyph unicode="&#xa7;" glyph-name="section" horiz-adv-x="556" d="M278 -182Q213 -182 171 -169T104 -135T69 -87T59 -34Q59 -32 59 -28T61 -18H114V-34Q114 -50 119 -68T142 -102T192 -128T281 -138Q331 -138 367 -126T424 -88T444 -24Q444 12 423 34T366
69T288 93T203 115T125 145T68 193T46 269Q46 302 58 329T92 377T146 412Q108 431 83 461T58 540Q58 575 72 603T113 653T182 686T278 698Q343 698 385 685T452 651T487 603T497 550Q497 548 497 544T495 534H442V550Q442 566 437 584T414 618T364 644T275 654Q226
654 189 642T132 604T112 540Q112 504 133 482T190 447T268 423T353 401T431 371T488 324T510 247Q510 214 498 187T464 139T410 104Q448 85 473 56T498 -24Q498 -58 484 -87T443 -137T374 -170T278 -182ZM359 124Q403 137 429 166T456 238Q456 279 432 303T369
341T285 367T196 392Q153 379 127 350T100 278Q100 238 124 214T186 175T270 149T359 124Z" />
<glyph unicode="&#xa8;" glyph-name="dieresis" horiz-adv-x="241" d="M0 650V719H65V650H0ZM176 650V719H241V650H176Z" />
<glyph unicode="&#xa9;" glyph-name="copyright" horiz-adv-x="737" d="M368 -12Q291 -12 226 14T114 88T40 201T13 343Q13 420 39 485T113 597T226 671T368 698Q445 698 510 672T622 598T696 485T723 343Q723 266 697 201T623 89T510 15T368 -12ZM363 130Q318
130 281 149T223 215T201 342Q201 422 222 468T280 534T363 554Q403 554 438 540T495 490T517 390H475Q475 440 459 467T418 505T363 516Q311 516 277 478T242 357V328Q242 273 257 238T300 186T363 169Q392 169 418 180T460 218T476 293H517Q517 231 495 196T438
145T363 130ZM369 22Q461 22 533 63T646 177T687 343Q687 436 646 508T533 622T368 664Q276 664 204 623T90 509T49 343Q49 250 90 178T203 64T369 22Z" />
<glyph unicode="&#xaa;" glyph-name="ordfeminine" horiz-adv-x="370" d="M130 330Q98 330 73 340T33 372T18 426Q18 464 36 487T88 522T165 539T261 544V594Q261 616 253 630T223 653T164 661Q129 661 109 653T81 630T73 597V586H34Q33 589 33 592T33 600Q33
652 72 675T173 698Q213 698 241 687T285 653T301 600V389Q301 376 305 372T318 367H349V341Q336 338 327 337T308 335Q276 335 269 352T261 393H256Q237 362 203 346T130 330ZM132 367Q161 367 191 380T241 418T261 474V507Q192 508 148 501T82 476T61 425Q61
404 71 392T97 373T132 367Z" />
<glyph unicode="&#xab;" glyph-name="guillemotleft" horiz-adv-x="525" d="M230 126L55 326L230 526H278L132 326L278 126H230ZM402 126L227 326L402 526H450L304 326L450 126H402Z" />
<glyph unicode="&#xac;" glyph-name="logicalnot" horiz-adv-x="612" d="M473 202V381H75V430H527V202H473Z" />
<glyph unicode="&#xad;" glyph-name="uni00AD" horiz-adv-x="333" d="M40 240V302H293V240H40Z" />
<glyph unicode="&#xae;" glyph-name="registered" horiz-adv-x="737" d="M368 -12Q291 -12 226 14T114 88T40 201T13 343Q13 420 39 485T113 597T226 671T368 698Q445 698 510 672T622 598T696 485T723 343Q723 266 697 201T623 89T510 15T368 -12ZM369 22Q461
22 533 63T646 177T687 343Q687 436 646 508T533 622T368 664Q276 664 204 623T90 509T49 343Q49 250 90 178T203 64T369 22ZM238 135V547H406Q468 547 498 516T529 426Q529 383 510 352T454 307L541 135H495L413 299H279V135H238ZM279 337H413Q446 337 465 360T485
426Q485 465 467 487T413 509H279V337Z" />
<glyph unicode="&#xaf;" glyph-name="overscore" horiz-adv-x="295" d="M0 657V700H295V657H0Z" />
<glyph unicode="&#xb0;" glyph-name="degree" horiz-adv-x="400" d="M202 463Q170 463 143 478T99 521T82 580Q82 613 98 640T142 682T202 698Q235 698 261 683T303 640T319 580Q319 548 304 521T262 479T202 463ZM202 491Q238 491 263 518T288 580Q288 616 263
642T202 669Q165 669 139 643T112 580Q112 545 138 518T202 491Z" />
<glyph unicode="&#xb1;" glyph-name="plusminus" horiz-adv-x="612" d="M281 109V339H70V389H281V620H331V389H542V339H331V109H281ZM70 0V50H542V0H70Z" />
<glyph unicode="&#xb2;" glyph-name="uni00B2" horiz-adv-x="333" d="M38 440V460Q38 490 54 512T95 553T147 588Q186 614 216 640T247 700Q247 727 227 742T170 757Q137 757 119 746T93 718T85 684V656H45Q44 661 43 669T42 684Q42 724 60 748T107 784T172 796Q204
796 231 787T274 756T291 700Q291 675 280 654T250 616T209 583T165 554Q136 535 113 518T84 481H293V440H38Z" />
<glyph unicode="&#xb3;" glyph-name="uni00B3" horiz-adv-x="333" d="M169 428Q102 428 69 455T35 534V547H76V535Q76 502 99 485T162 467Q191 467 212 474T245 495T257 535Q257 559 244 572T209 591T163 596H109V634H165Q187 634 205 640T236 660T248 698Q248
718 238 731T210 750T171 757Q148 757 129 750T98 728T86 691V677H42V691Q42 722 59 745T105 782T170 796Q205 796 232 785T276 752T292 698Q292 670 278 650T245 620V619Q270 608 285 587T301 534Q301 501 284 478T237 441T169 428Z" />
<glyph unicode="&#xb4;" glyph-name="acute" horiz-adv-x="161" d="M0 591L93 723H160L161 720L48 591H0Z" />
<glyph unicode="&#xb5;" glyph-name="uni00B5" horiz-adv-x="544" d="M73 -173V526H121V153Q121 115 131 91T158 54T199 36T250 31Q293 31 332 52T397 114T423 213V526H471V0H436L430 89H423Q399 48 370 26T308 -4T238 -12Q200 -12 169 -3T118 25Q119 13 120 -4T121
-33V-173H73Z" />
<glyph unicode="&#xb6;" glyph-name="paragraph" horiz-adv-x="536" d="M246 -173V249Q193 257 151 287T84 364T59 466Q59 534 88 583T168 659T278 686H484V637H418V-173H370V637H294V-173H246Z" />
<glyph unicode="&#xb7;" glyph-name="middot" horiz-adv-x="333" d="M133 315V398H201V315H133Z" />
<glyph unicode="&#xb8;" glyph-name="cedilla" horiz-adv-x="181" d="M80 -168Q60 -168 40 -166T0 -161V-133H102Q119 -133 128 -125T137 -102Q137 -90 129 -83T100 -76H41L60 11H97L89 -44Q115 -43 135 -48T168 -65T181 -101Q181 -120 174 -133T153 -153T121
-164T80 -168Z" />
<glyph unicode="&#xb9;" glyph-name="uni00B9" horiz-adv-x="333" d="M54 440V480H148V720H54V751Q79 752 99 755T136 768T169 793H191V480H279V440H54Z" />
<glyph unicode="&#xba;" glyph-name="ordmasculine" horiz-adv-x="365" d="M181 328Q133 328 100 348T48 409T30 513Q30 577 48 617T102 678T185 698Q233 698 267 678T318 618T336 513Q336 450 318 409T265 348T181 328ZM183 366Q234 366 263 397T292 503V523Q292
598 263 629T183 660Q132 660 103 629T74 523V503Q74 428 103 397T183 366Z" />
<glyph unicode="&#xbb;" glyph-name="guillemotright" horiz-adv-x="525" d="M295 526L470 326L295 126H247L393 326L247 526H295ZM123 526L298 326L123 126H75L221 326L75 526H123Z" />
<glyph unicode="&#xbc;" glyph-name="onequarter" horiz-adv-x="834" d="M124 -12L670 698H722L176 -12H124ZM54 340V380H148V620H54V651Q79 652 99 655T136 668T169 693H191V380H279V340H54ZM680 0V84H506V117Q539 175 563 232T601 354H648Q640 319 629 284T604
218T579 162T558 123H680V250Q683 259 685 268T689 285T692 303H721V123H772V84H721V0H680Z" />
<glyph unicode="&#xbd;" glyph-name="onehalf" horiz-adv-x="834" d="M124 -12L670 698H722L176 -12H124ZM526 0V20Q526 50 542 72T583 113T635 148Q674 174 704 200T735 260Q735 287 715 302T658 317Q625 317 607 306T581 278T573 244V216H533Q532 221 531 229T530
244Q530 284 548 308T595 344T660 356Q692 356 719 347T762 316T779 260Q779 235 768 214T738 176T697 143T653 114Q624 95 601 78T572 41H781V0H526ZM54 340V380H148V620H54V651Q79 652 99 655T136 668T169 693H191V380H279V340H54Z" />
<glyph unicode="&#xbe;" glyph-name="threequarters" horiz-adv-x="834" d="M124 -12L670 698H722L176 -12H124ZM169 328Q102 328 69 355T35 434V447H76V435Q76 402 99 385T162 367Q191 367 212 374T245 396T257 435Q257 459 244 472T209 490T163 496H109V534H165Q187
534 205 540T236 560T248 598Q248 618 238 631T210 650T171 657Q148 657 129 650T98 628T86 591V577H42V591Q42 622 59 645T105 682T170 696Q205 696 232 685T276 652T292 598Q292 570 278 550T245 520V519Q270 508 285 487T301 434Q301 401 284 378T237 341T169
328ZM680 0V84H506V117Q539 175 563 232T601 354H648Q640 319 629 284T604 218T579 162T558 123H680V250Q683 259 685 268T689 285T692 303H721V123H772V84H721V0H680Z" />
<glyph unicode="&#xbf;" glyph-name="questiondown" horiz-adv-x="537" d="M269 -173Q211 -173 175 -157T118 -115T88 -65T77 -20T75 5Q75 56 88 89T121 146T163 185T206 217T239 253T252 303V365H302V298Q302 263 290 240T257 198T214 163T172 126T139 78T126
7Q126 -8 131 -31T151 -76T195 -113T273 -128Q328 -128 360 -109T409 -63T431 -9T436 30Q436 38 436 45T436 59H483Q484 56 485 48T486 26Q486 17 482 -6T467 -57T431 -112T368 -155T269 -173ZM245 448V525H309V448H245Z" />
<glyph unicode="&#xc0;" glyph-name="Agrave" horiz-adv-x="650" d="M10 0L286 686H364L640 0H582L502 198H144L65 0H10ZM164 246H482L382 495Q379 503 373 519T359 556T343 599T327 640H319Q312 621 302 595T282 543T264 495L164 246ZM356 736H305L192 865L193
868H263L356 736Z" />
<glyph unicode="&#xc1;" glyph-name="Aacute" horiz-adv-x="650" d="M10 0L286 686H364L640 0H582L502 198H144L65 0H10ZM164 246H482L382 495Q379 503 373 519T359 556T343 599T327 640H319Q312 621 302 595T282 543T264 495L164 246ZM301 736L394 868H464L465
865L352 736H301Z" />
<glyph unicode="&#xc2;" glyph-name="Acircumflex" horiz-adv-x="650" d="M10 0L286 686H364L640 0H582L502 198H144L65 0H10ZM164 246H482L382 495Q379 503 373 519T359 556T343 599T327 640H319Q312 621 302 595T282 543T264 495L164 246ZM194 736L299 868H351L457
736H402L310 850H340L249 736H194Z" />
<glyph unicode="&#xc3;" glyph-name="Atilde" horiz-adv-x="650" d="M10 0L286 686H364L640 0H582L502 198H144L65 0H10ZM164 246H482L382 495Q379 503 373 519T359 556T343 599T327 640H319Q312 621 302 595T282 543T264 495L164 246ZM175 780Q177 802 185 819T210
847T252 857Q278 857 303 849T353 833T398 824Q415 824 422 835T431 857H474Q473 835 464 818T437 790T395 780Q371 780 346 788T296 805T251 813Q232 813 225 803T216 780H175Z" />
<glyph unicode="&#xc4;" glyph-name="Adieresis" horiz-adv-x="650" d="M10 0L286 686H364L640 0H582L502 198H144L65 0H10ZM164 246H482L382 495Q379 503 373 519T359 556T343 599T327 640H319Q312 621 302 595T282 543T264 495L164 246ZM204 795V864H269V795H204ZM380
795V864H445V795H380Z" />
<glyph unicode="&#xc5;" glyph-name="Aring" horiz-adv-x="650" d="M10 0L286 686H364L640 0H582L502 198H144L65 0H10ZM164 246H482L382 495Q379 503 373 519T359 556T343 599T327 640H319Q312 621 302 595T282 543T264 495L164 246ZM325 731Q285 731 260 755T234
817Q234 855 259 879T325 903Q365 903 390 879T416 817Q416 780 391 756T325 731ZM325 766Q348 766 362 780T376 817Q376 840 362 854T325 868Q303 868 289 854T274 817Q274 795 288 781T325 766Z" />
<glyph unicode="&#xc6;" glyph-name="AE" horiz-adv-x="1001" d="M0 0L359 686H937V638H443L507 376H893V328H518L587 48H943V0H542L492 203H165L60 0H0ZM191 252H480L415 526Q412 538 409 550T403 576T397 601T391 626H384Q378 614 372 602T358 576T345 551T332
526L191 252Z" />
<glyph unicode="&#xc7;" glyph-name="Ccedilla" horiz-adv-x="737" d="M380 -12Q275 -12 204 28T96 147T59 343Q59 519 144 608T382 698Q473 698 540 670T645 586T682 445H628Q628 517 599 562T514 628T380 650Q303 650 243 620T150 524T116 348V327Q116 222 149
158T243 65T381 36Q458 36 513 57T599 124T629 241H682Q682 154 643 98T536 15T380 -12ZM386 -168Q366 -168 346 -166T306 -161V-133H408Q425 -133 434 -125T443 -102Q443 -90 435 -83T406 -76H347L366 11H403L395 -44Q421 -43 441 -48T474 -65T487 -101Q487 -120
480 -133T459 -153T427 -164T386 -168Z" />
<glyph unicode="&#xc8;" glyph-name="Egrave" horiz-adv-x="682" d="M98 0V686H618V638H152V376H574V328H152V48H624V0H98ZM399 736H348L235 865L236 868H306L399 736Z" />
<glyph unicode="&#xc9;" glyph-name="Eacute" horiz-adv-x="682" d="M98 0V686H618V638H152V376H574V328H152V48H624V0H98ZM344 736L437 868H507L508 865L395 736H344Z" />
<glyph unicode="&#xca;" glyph-name="Ecircumflex" horiz-adv-x="682" d="M98 0V686H618V638H152V376H574V328H152V48H624V0H98ZM237 736L342 868H394L500 736H445L353 850H383L292 736H237Z" />
<glyph unicode="&#xcb;" glyph-name="Edieresis" horiz-adv-x="682" d="M98 0V686H618V638H152V376H574V328H152V48H624V0H98ZM247 795V864H312V795H247ZM423 795V864H488V795H423Z" />
<glyph unicode="&#xcc;" glyph-name="Igrave" horiz-adv-x="250" d="M98 0V686H152V0H98ZM157 736H106L-7 865L-6 868H64L157 736Z" />
<glyph unicode="&#xcd;" glyph-name="Iacute" horiz-adv-x="250" d="M98 0V686H152V0H98ZM102 736L195 868H265L266 865L153 736H102Z" />
<glyph unicode="&#xce;" glyph-name="Icircumflex" horiz-adv-x="250" d="M98 0V686H152V0H98ZM-5 736L100 868H152L258 736H203L111 850H141L50 736H-5Z" />
<glyph unicode="&#xcf;" glyph-name="Idieresis" horiz-adv-x="250" d="M98 0V686H152V0H98ZM5 795V864H70V795H5ZM181 795V864H246V795H181Z" />
<glyph unicode="&#xd0;" glyph-name="Eth" horiz-adv-x="741" d="M0 324V372H379V324H0ZM98 0V686H332Q444 686 522 651T641 541T682 343Q682 223 641 147T522 36T332 0H98ZM152 48H328Q395 48 449 62T543 110T604 197T625 331V351Q625 433 604 488T544 576T451
623T328 638H152V48Z" />
<glyph unicode="&#xd1;" glyph-name="Ntilde" horiz-adv-x="740" d="M98 0V686H153L532 179Q538 172 547 159T566 132T584 107H588Q588 125 588 143T588 179V686H642V0H599L211 521Q204 530 187 553T156 595H152Q152 576 152 558T152 521V0H98ZM225 780Q227 802
235 819T260 847T302 857Q328 857 353 849T403 833T448 824Q465 824 472 835T481 857H524Q523 835 514 818T487 790T445 780Q421 780 396 788T346 805T301 813Q282 813 275 803T266 780H225Z" />
<glyph unicode="&#xd2;" glyph-name="Ograve" horiz-adv-x="795" d="M397 -12Q291 -12 216 28T100 147T59 343Q59 461 99 539T215 658T397 698Q504 698 579 658T695 540T736 343Q736 226 696 147T580 28T397 -12ZM397 36Q459 36 511 52T600 103T658 195T679 333V353Q679
434 659 490T601 582T511 634T397 650Q335 650 284 634T195 583T137 491T116 353V333Q116 252 136 196T194 104T283 52T397 36ZM427 736H376L263 865L264 868H334L427 736Z" />
<glyph unicode="&#xd3;" glyph-name="Oacute" horiz-adv-x="795" d="M397 -12Q291 -12 216 28T100 147T59 343Q59 461 99 539T215 658T397 698Q504 698 579 658T695 540T736 343Q736 226 696 147T580 28T397 -12ZM397 36Q459 36 511 52T600 103T658 195T679 333V353Q679
434 659 490T601 582T511 634T397 650Q335 650 284 634T195 583T137 491T116 353V333Q116 252 136 196T194 104T283 52T397 36ZM372 736L465 868H535L536 865L423 736H372Z" />
<glyph unicode="&#xd4;" glyph-name="Ocircumflex" horiz-adv-x="795" d="M397 -12Q291 -12 216 28T100 147T59 343Q59 461 99 539T215 658T397 698Q504 698 579 658T695 540T736 343Q736 226 696 147T580 28T397 -12ZM397 36Q459 36 511 52T600 103T658 195T679
333V353Q679 434 659 490T601 582T511 634T397 650Q335 650 284 634T195 583T137 491T116 353V333Q116 252 136 196T194 104T283 52T397 36ZM265 736L370 868H422L528 736H473L381 850H411L320 736H265Z" />
<glyph unicode="&#xd5;" glyph-name="Otilde" horiz-adv-x="795" d="M397 -12Q291 -12 216 28T100 147T59 343Q59 461 99 539T215 658T397 698Q504 698 579 658T695 540T736 343Q736 226 696 147T580 28T397 -12ZM397 36Q459 36 511 52T600 103T658 195T679 333V353Q679
434 659 490T601 582T511 634T397 650Q335 650 284 634T195 583T137 491T116 353V333Q116 252 136 196T194 104T283 52T397 36ZM246 780Q248 802 256 819T281 847T323 857Q349 857 374 849T424 833T469 824Q486 824 493 835T502 857H545Q544 835 535 818T508 790T466
780Q442 780 417 788T367 805T322 813Q303 813 296 803T287 780H246Z" />
<glyph unicode="&#xd6;" glyph-name="Odieresis" horiz-adv-x="795" d="M397 -12Q291 -12 216 28T100 147T59 343Q59 461 99 539T215 658T397 698Q504 698 579 658T695 540T736 343Q736 226 696 147T580 28T397 -12ZM397 36Q459 36 511 52T600 103T658 195T679
333V353Q679 434 659 490T601 582T511 634T397 650Q335 650 284 634T195 583T137 491T116 353V333Q116 252 136 196T194 104T283 52T397 36ZM275 795V864H340V795H275ZM451 795V864H516V795H451Z" />
<glyph unicode="&#xd7;" glyph-name="multiply" horiz-adv-x="612" d="M143 56L108 92L271 255L108 418L143 454L306 291L470 454L505 418L342 255L504 93L469 57L306 220L143 56Z" />
<glyph unicode="&#xd8;" glyph-name="Oslash" horiz-adv-x="795" d="M397 -12Q291 -12 216 28T100 147T59 343Q59 461 99 539T215 658T397 698Q504 698 579 658T695 540T736 343Q736 226 696 147T580 28T397 -12ZM397 36Q459 36 511 52T600 103T658 195T679 333V353Q679
434 659 490T601 582T511 634T397 650Q335 650 284 634T195 583T137 491T116 353V333Q116 252 136 196T194 104T283 52T397 36ZM68 -49L669 735H723L122 -49H68Z" />
<glyph unicode="&#xd9;" glyph-name="Ugrave" horiz-adv-x="740" d="M367 -12Q283 -12 223 15T131 103T98 266V686H153V240Q153 138 209 88T367 37Q471 37 530 87T589 240V686H642V266Q642 165 609 104T515 15T367 -12ZM401 736H350L237 865L238 868H308L401 736Z" />
<glyph unicode="&#xda;" glyph-name="Uacute" horiz-adv-x="740" d="M367 -12Q283 -12 223 15T131 103T98 266V686H153V240Q153 138 209 88T367 37Q471 37 530 87T589 240V686H642V266Q642 165 609 104T515 15T367 -12ZM346 736L439 868H509L510 865L397 736H346Z" />
<glyph unicode="&#xdb;" glyph-name="Ucircumflex" horiz-adv-x="740" d="M367 -12Q283 -12 223 15T131 103T98 266V686H153V240Q153 138 209 88T367 37Q471 37 530 87T589 240V686H642V266Q642 165 609 104T515 15T367 -12ZM239 736L344 868H396L502 736H447L355
850H385L294 736H239Z" />
<glyph unicode="&#xdc;" glyph-name="Udieresis" horiz-adv-x="740" d="M367 -12Q283 -12 223 15T131 103T98 266V686H153V240Q153 138 209 88T367 37Q471 37 530 87T589 240V686H642V266Q642 165 609 104T515 15T367 -12ZM249 795V864H314V795H249ZM425 795V864H490V795H425Z"
/>
<glyph unicode="&#xdd;" glyph-name="Yacute" horiz-adv-x="630" d="M287 0V291L10 686H70L313 338H317L559 686H620L342 291V0H287ZM295 736L388 868H458L459 865L346 736H295Z" />
<glyph unicode="&#xde;" glyph-name="Thorn" horiz-adv-x="667" d="M89 0V686H143V558H428Q494 558 538 532T605 461T628 361Q628 302 602 256T533 183T438 157H143V0H89ZM143 204H430Q493 204 533 245T573 360Q573 406 558 439T510 491T430 510H143V204Z" />
<glyph unicode="&#xdf;" glyph-name="germandbls" horiz-adv-x="611" d="M84 0V521Q84 578 103 619T154 685T227 723T314 735Q369 735 410 722T478 686T518 631T532 562Q532 505 499 460T406 395V391Q476 378 518 331T561 206Q561 133 533 88T457 21T351 0H245V44H344Q392
44 429 59T488 110T509 210Q509 265 486 299T426 349T346 366H245V408H331Q371 408 404 428T459 483T480 561Q480 620 437 656T316 692Q259 692 218 673T155 616T133 518V0H84Z" />
<glyph unicode="&#xe0;" glyph-name="agrave" horiz-adv-x="531" d="M202 -12Q166 -12 136 -4T83 22T48 67T35 131Q35 186 63 220T141 272T259 297T406 304V383Q406 419 393 444T346 482T253 495Q197 495 165 481T119 442T105 387V370H59Q58 375 58 380T58 392Q58
444 84 476T157 523T267 538Q326 538 367 521T431 471T454 392V64Q454 45 460 38T479 31H526V3Q508 -5 493 -8T465 -11Q438 -11 426 1T410 35T406 82H399Q379 52 347 31T278 -1T202 -12ZM206 31Q240 31 275 42T339 75T387 125T406 191V259Q295 259 225 248T122
208T88 130Q88 94 104 72T147 41T206 31ZM297 591H249L136 720L137 723H204L297 591Z" />
<glyph unicode="&#xe1;" glyph-name="aacute" horiz-adv-x="531" d="M202 -12Q166 -12 136 -4T83 22T48 67T35 131Q35 186 63 220T141 272T259 297T406 304V383Q406 419 393 444T346 482T253 495Q197 495 165 481T119 442T105 387V370H59Q58 375 58 380T58 392Q58
444 84 476T157 523T267 538Q326 538 367 521T431 471T454 392V64Q454 45 460 38T479 31H526V3Q508 -5 493 -8T465 -11Q438 -11 426 1T410 35T406 82H399Q379 52 347 31T278 -1T202 -12ZM206 31Q240 31 275 42T339 75T387 125T406 191V259Q295 259 225 248T122
208T88 130Q88 94 104 72T147 41T206 31ZM222 591L315 723H382L383 720L270 591H222Z" />
<glyph unicode="&#xe2;" glyph-name="acircumflex" horiz-adv-x="531" d="M202 -12Q166 -12 136 -4T83 22T48 67T35 131Q35 186 63 220T141 272T259 297T406 304V383Q406 419 393 444T346 482T253 495Q197 495 165 481T119 442T105 387V370H59Q58 375 58 380T58
392Q58 444 84 476T157 523T267 538Q326 538 367 521T431 471T454 392V64Q454 45 460 38T479 31H526V3Q508 -5 493 -8T465 -11Q438 -11 426 1T410 35T406 82H399Q379 52 347 31T278 -1T202 -12ZM206 31Q240 31 275 42T339 75T387 125T406 191V259Q295 259 225 248T122
208T88 130Q88 94 104 72T147 41T206 31ZM130 591L235 723H283L389 591H336L244 705H274L183 591H130Z" />
<glyph unicode="&#xe3;" glyph-name="atilde" horiz-adv-x="531" d="M202 -12Q166 -12 136 -4T83 22T48 67T35 131Q35 186 63 220T141 272T259 297T406 304V383Q406 419 393 444T346 482T253 495Q197 495 165 481T119 442T105 387V370H59Q58 375 58 380T58 392Q58
444 84 476T157 523T267 538Q326 538 367 521T431 471T454 392V64Q454 45 460 38T479 31H526V3Q508 -5 493 -8T465 -11Q438 -11 426 1T410 35T406 82H399Q379 52 347 31T278 -1T202 -12ZM206 31Q240 31 275 42T339 75T387 125T406 191V259Q295 259 225 248T122
208T88 130Q88 94 104 72T147 41T206 31ZM109 640Q111 662 119 679T144 707T186 717Q212 717 237 709T287 693T332 684Q349 684 356 695T365 717H408Q407 695 398 678T371 650T329 640Q305 640 280 648T230 665T185 673Q166 673 159 663T150 640H109Z" />
<glyph unicode="&#xe4;" glyph-name="adieresis" horiz-adv-x="531" d="M202 -12Q166 -12 136 -4T83 22T48 67T35 131Q35 186 63 220T141 272T259 297T406 304V383Q406 419 393 444T346 482T253 495Q197 495 165 481T119 442T105 387V370H59Q58 375 58 380T58
392Q58 444 84 476T157 523T267 538Q326 538 367 521T431 471T454 392V64Q454 45 460 38T479 31H526V3Q508 -5 493 -8T465 -11Q438 -11 426 1T410 35T406 82H399Q379 52 347 31T278 -1T202 -12ZM206 31Q240 31 275 42T339 75T387 125T406 191V259Q295 259 225 248T122
208T88 130Q88 94 104 72T147 41T206 31ZM138 650V719H203V650H138ZM314 650V719H379V650H314Z" />
<glyph unicode="&#xe5;" glyph-name="aring" horiz-adv-x="531" d="M202 -12Q166 -12 136 -4T83 22T48 67T35 131Q35 186 63 220T141 272T259 297T406 304V383Q406 419 393 444T346 482T253 495Q197 495 165 481T119 442T105 387V370H59Q58 375 58 380T58 392Q58
444 84 476T157 523T267 538Q326 538 367 521T431 471T454 392V64Q454 45 460 38T479 31H526V3Q508 -5 493 -8T465 -11Q438 -11 426 1T410 35T406 82H399Q379 52 347 31T278 -1T202 -12ZM206 31Q240 31 275 42T339 75T387 125T406 191V259Q295 259 225 248T122
208T88 130Q88 94 104 72T147 41T206 31ZM259 581Q221 581 196 605T171 667Q171 705 196 729T259 753Q297 753 322 729T347 667Q347 630 322 606T259 581ZM259 614Q282 614 296 629T310 667Q310 690 296 705T259 720Q237 720 223 705T208 667Q208 644 222 629T259
614Z" />
<glyph unicode="&#xe6;" glyph-name="ae" horiz-adv-x="892" d="M202 -12Q166 -12 136 -4T83 22T48 67T35 131Q35 185 63 218T142 269T261 293T410 300V383Q410 419 396 444T348 482T253 495Q197 495 165 481T119 442T105 387V370H59Q58 375 58 380T58 392Q58
444 84 476T157 523T267 538Q338 538 385 513T449 442Q478 491 526 514T638 538Q707 538 755 511T827 431T852 305V255H461Q461 173 481 124T541 53T633 31Q677 31 708 43T760 75T790 121T801 174H847Q846 140 834 107T797 47T730 4T630 -12Q558 -12 509 19T433
114Q401 60 360 33T277 -3T202 -12ZM206 31Q241 31 276 42T342 75T391 125T410 191V255Q298 255 227 244T122 206T88 130Q88 94 104 72T147 41T206 31ZM461 298H802Q802 355 789 393T754 453T700 485T633 495Q579 495 542 475T485 412T461 298Z" />
<glyph unicode="&#xe7;" glyph-name="ccedilla" horiz-adv-x="485" d="M252 -12Q183 -12 135 18T60 109T34 263Q34 353 59 414T135 507T257 538Q313 538 350 523T410 481T441 416T451 334H404Q404 391 390 426T343 478T255 495Q209 495 170 475T108 408T85 278V248Q85
171 106 123T165 53T253 31Q311 31 343 50T390 106T404 192H451Q451 154 442 118T410 52T349 6T252 -12ZM244 -168Q224 -168 204 -166T164 -161V-133H266Q283 -133 292 -125T301 -102Q301 -90 293 -83T264 -76H205L224 11H261L253 -44Q279 -43 299 -48T332 -65T345
-101Q345 -120 338 -133T317 -153T285 -164T244 -168Z" />
<glyph unicode="&#xe8;" glyph-name="egrave" horiz-adv-x="532" d="M265 -12Q194 -12 144 17T67 108T40 263Q40 358 66 418T145 508T273 538Q345 538 393 509T467 427T492 300V250H91Q91 170 112 122T173 52T268 31Q314 31 346 43T398 75T429 121T441 174H487Q486
140 474 107T435 47T367 4T265 -12ZM91 293H442Q442 350 429 388T393 450T338 484T268 495Q213 495 175 474T115 408T91 293ZM306 591H258L145 720L146 723H213L306 591Z" />
<glyph unicode="&#xe9;" glyph-name="eacute" horiz-adv-x="532" d="M265 -12Q194 -12 144 17T67 108T40 263Q40 358 66 418T145 508T273 538Q345 538 393 509T467 427T492 300V250H91Q91 170 112 122T173 52T268 31Q314 31 346 43T398 75T429 121T441 174H487Q486
140 474 107T435 47T367 4T265 -12ZM91 293H442Q442 350 429 388T393 450T338 484T268 495Q213 495 175 474T115 408T91 293ZM231 591L324 723H391L392 720L279 591H231Z" />
<glyph unicode="&#xea;" glyph-name="ecircumflex" horiz-adv-x="532" d="M265 -12Q194 -12 144 17T67 108T40 263Q40 358 66 418T145 508T273 538Q345 538 393 509T467 427T492 300V250H91Q91 170 112 122T173 52T268 31Q314 31 346 43T398 75T429 121T441 174H487Q486
140 474 107T435 47T367 4T265 -12ZM91 293H442Q442 350 429 388T393 450T338 484T268 495Q213 495 175 474T115 408T91 293ZM139 591L244 723H292L398 591H345L253 705H283L192 591H139Z" />
<glyph unicode="&#xeb;" glyph-name="edieresis" horiz-adv-x="532" d="M265 -12Q194 -12 144 17T67 108T40 263Q40 358 66 418T145 508T273 538Q345 538 393 509T467 427T492 300V250H91Q91 170 112 122T173 52T268 31Q314 31 346 43T398 75T429 121T441 174H487Q486
140 474 107T435 47T367 4T265 -12ZM91 293H442Q442 350 429 388T393 450T338 484T268 495Q213 495 175 474T115 408T91 293ZM147 650V719H212V650H147ZM323 650V719H388V650H323Z" />
<glyph unicode="&#xec;" glyph-name="igrave" horiz-adv-x="194" d="M73 0V526H121V0H73ZM136 591H88L-25 720L-24 723H43L136 591Z" />
<glyph unicode="&#xed;" glyph-name="iacute" horiz-adv-x="194" d="M73 0V526H121V0H73ZM61 591L154 723H221L222 720L109 591H61Z" />
<glyph unicode="&#xee;" glyph-name="icircumflex" horiz-adv-x="194" d="M73 0V526H121V0H73ZM-31 591L74 723H122L228 591H175L83 705H113L22 591H-31Z" />
<glyph unicode="&#xef;" glyph-name="idieresis" horiz-adv-x="194" d="M73 0V526H121V0H73ZM-23 650V719H42V650H-23ZM153 650V719H218V650H153Z" />
<glyph unicode="&#xf0;" glyph-name="eth" horiz-adv-x="512" d="M253 -12Q183 -12 134 17T59 108T33 263Q33 358 60 418T137 508T259 538Q282 538 302 535T340 524L341 526Q320 555 297 581T247 632L117 622V665L202 671Q185 685 168 697T133 721L135 723H201Q212
716 222 708T243 692T264 676L392 686V643L308 636Q360 586 398 528T458 404T479 263Q479 166 452 105T375 16T253 -12ZM256 31Q310 31 348 52T407 121T428 248V278Q428 357 408 404T349 473T256 495Q203 495 164 474T105 405T84 278V248Q84 169 104 122T164 53T256
31Z" />
<glyph unicode="&#xf1;" glyph-name="ntilde" horiz-adv-x="538" d="M73 0V526H108L114 437H121Q145 478 174 500T237 530T306 538Q356 538 393 523T450 471T471 373V0H423V373Q423 411 413 435T386 472T345 490T294 495Q251 495 211 474T146 413T121 313V0H73ZM120
640Q122 662 130 679T155 707T197 717Q223 717 248 709T298 693T343 684Q360 684 367 695T376 717H419Q418 695 409 678T382 650T340 640Q316 640 291 648T241 665T196 673Q177 673 170 663T161 640H120Z" />
<glyph unicode="&#xf2;" glyph-name="ograve" horiz-adv-x="536" d="M268 -12Q196 -12 145 17T67 108T40 263Q40 358 67 418T145 508T268 538Q341 538 391 509T469 419T496 263Q496 169 469 108T392 18T268 -12ZM268 31Q323 31 362 53T423 123T445 248V278Q445
356 424 403T363 473T268 495Q213 495 174 473T113 404T91 278V248Q91 171 112 123T173 53T268 31ZM306 591H258L145 720L146 723H213L306 591Z" />
<glyph unicode="&#xf3;" glyph-name="oacute" horiz-adv-x="536" d="M268 -12Q196 -12 145 17T67 108T40 263Q40 358 67 418T145 508T268 538Q341 538 391 509T469 419T496 263Q496 169 469 108T392 18T268 -12ZM268 31Q323 31 362 53T423 123T445 248V278Q445
356 424 403T363 473T268 495Q213 495 174 473T113 404T91 278V248Q91 171 112 123T173 53T268 31ZM231 591L324 723H391L392 720L279 591H231Z" />
<glyph unicode="&#xf4;" glyph-name="ocircumflex" horiz-adv-x="536" d="M268 -12Q196 -12 145 17T67 108T40 263Q40 358 67 418T145 508T268 538Q341 538 391 509T469 419T496 263Q496 169 469 108T392 18T268 -12ZM268 31Q323 31 362 53T423 123T445 248V278Q445
356 424 403T363 473T268 495Q213 495 174 473T113 404T91 278V248Q91 171 112 123T173 53T268 31ZM139 591L244 723H292L398 591H345L253 705H283L192 591H139Z" />
<glyph unicode="&#xf5;" glyph-name="otilde" horiz-adv-x="536" d="M268 -12Q196 -12 145 17T67 108T40 263Q40 358 67 418T145 508T268 538Q341 538 391 509T469 419T496 263Q496 169 469 108T392 18T268 -12ZM268 31Q323 31 362 53T423 123T445 248V278Q445
356 424 403T363 473T268 495Q213 495 174 473T113 404T91 278V248Q91 171 112 123T173 53T268 31ZM118 640Q120 662 128 679T153 707T195 717Q221 717 246 709T296 693T341 684Q358 684 365 695T374 717H417Q416 695 407 678T380 650T338 640Q314 640 289 648T239
665T194 673Q175 673 168 663T159 640H118Z" />
<glyph unicode="&#xf6;" glyph-name="odieresis" horiz-adv-x="536" d="M268 -12Q196 -12 145 17T67 108T40 263Q40 358 67 418T145 508T268 538Q341 538 391 509T469 419T496 263Q496 169 469 108T392 18T268 -12ZM268 31Q323 31 362 53T423 123T445 248V278Q445
356 424 403T363 473T268 495Q213 495 174 473T113 404T91 278V248Q91 171 112 123T173 53T268 31ZM147 650V719H212V650H147ZM323 650V719H388V650H323Z" />
<glyph unicode="&#xf7;" glyph-name="divide" horiz-adv-x="612" d="M70 230V280H542V230H70ZM273 51V120H338V51H273ZM273 390V459H338V390H273Z" />
<glyph unicode="&#xf8;" glyph-name="oslash" horiz-adv-x="536" d="M268 -12Q196 -12 145 17T67 108T40 263Q40 358 67 418T145 508T268 538Q341 538 391 509T469 419T496 263Q496 169 469 108T392 18T268 -12ZM268 31Q323 31 362 53T423 123T445 248V278Q445
356 424 403T363 473T268 495Q213 495 174 473T113 404T91 278V248Q91 171 112 123T173 53T268 31ZM15 -49L472 575H521L67 -49H15Z" />
<glyph unicode="&#xf9;" glyph-name="ugrave" horiz-adv-x="538" d="M232 -12Q157 -12 112 24T67 153V526H115V153Q115 115 125 91T152 54T193 36T244 31Q287 31 326 52T391 114T417 213V526H465V0H430L424 89H417Q393 48 364 26T302 -4T232 -12ZM307 591H259L146
720L147 723H214L307 591Z" />
<glyph unicode="&#xfa;" glyph-name="uacute" horiz-adv-x="538" d="M232 -12Q157 -12 112 24T67 153V526H115V153Q115 115 125 91T152 54T193 36T244 31Q287 31 326 52T391 114T417 213V526H465V0H430L424 89H417Q393 48 364 26T302 -4T232 -12ZM232 591L325
723H392L393 720L280 591H232Z" />
<glyph unicode="&#xfb;" glyph-name="ucircumflex" horiz-adv-x="538" d="M232 -12Q157 -12 112 24T67 153V526H115V153Q115 115 125 91T152 54T193 36T244 31Q287 31 326 52T391 114T417 213V526H465V0H430L424 89H417Q393 48 364 26T302 -4T232 -12ZM140 591L245
723H293L399 591H346L254 705H284L193 591H140Z" />
<glyph unicode="&#xfc;" glyph-name="udieresis" horiz-adv-x="538" d="M232 -12Q157 -12 112 24T67 153V526H115V153Q115 115 125 91T152 54T193 36T244 31Q287 31 326 52T391 114T417 213V526H465V0H430L424 89H417Q393 48 364 26T302 -4T232 -12ZM148 650V719H213V650H148ZM324
650V719H389V650H324Z" />
<glyph unicode="&#xfd;" glyph-name="yacute" horiz-adv-x="475" d="M90 -182Q80 -182 70 -181T48 -179V-141H79Q107 -141 132 -133T181 -95T225 0L22 526H73L185 233Q193 212 204 183T226 123T246 69H252Q257 86 264 107T278 152T293 195T305 232L405 526H453L271
0Q256 -44 240 -78T203 -135T156 -170T90 -182ZM209 591L302 723H369L370 720L257 591H209Z" />
<glyph unicode="&#xfe;" glyph-name="thorn" horiz-adv-x="527" d="M73 -173V723H121V454H128Q148 486 174 504T231 530T292 538Q353 538 396 509T463 421T487 270Q487 170 464 108T395 17T284 -12Q253 -12 225 -3T171 24T127 72H121V-173H73ZM284 31Q327 31 361
50T415 117T436 248V278Q436 356 419 403T368 473T285 495Q260 495 232 488T178 458T137 393T121 278V254Q121 182 138 133T191 57T284 31Z" />
<glyph unicode="&#xff;" glyph-name="ydieresis" horiz-adv-x="475" d="M90 -182Q80 -182 70 -181T48 -179V-141H79Q107 -141 132 -133T181 -95T225 0L22 526H73L185 233Q193 212 204 183T226 123T246 69H252Q257 86 264 107T278 152T293 195T305 232L405 526H453L271
0Q256 -44 240 -78T203 -135T156 -170T90 -182ZM125 650V719H190V650H125ZM301 650V719H366V650H301Z" />
<glyph unicode="&#x2013;" glyph-name="endash" horiz-adv-x="500" d="M0 247V295H500V247H0Z" />
<glyph unicode="&#x2014;" glyph-name="emdash" horiz-adv-x="1000" d="M0 247V294H1000V247H0Z" />
<glyph unicode="&#x2018;" glyph-name="quoteleft" horiz-adv-x="190" d="M140 686V657Q126 652 117 639T104 605T100 558H127V481H63V547Q63 604 77 633T110 673T140 686Z" />
<glyph unicode="&#x2019;" glyph-name="quoteright" horiz-adv-x="190" d="M50 481V510Q64 515 73 528T86 562T90 609H63V686H127V620Q127 564 113 535T80 495T50 481Z" />
<glyph unicode="&#x201a;" glyph-name="quotesinglbase" horiz-adv-x="190" d="M50 -128V-99Q64 -94 73 -81T86 -47T90 0H63V77H127V11Q127 -46 113 -74T80 -114T50 -128Z" />
<glyph unicode="&#x201c;" glyph-name="quotedblleft" horiz-adv-x="290" d="M240 686V657Q226 652 217 639T204 605T200 558H227V481H163V547Q163 604 177 633T209 673T240 686ZM140 686V657Q126 652 117 639T104 605T100 558H127V481H63V547Q63 604 77 633T110
673T140 686Z" />
<glyph unicode="&#x201d;" glyph-name="quotedblright" horiz-adv-x="290" d="M50 481V510Q64 515 73 528T86 562T90 609H63V686H127V620Q127 564 113 535T80 495T50 481ZM150 481V510Q164 515 173 528T186 562T190 609H163V686H227V620Q227 564 213 535T181 495T150
481Z" />
<glyph unicode="&#x201e;" glyph-name="quotedblbase" horiz-adv-x="290" d="M50 -128V-99Q64 -94 73 -81T86 -47T90 0H63V77H127V11Q127 -46 113 -74T80 -114T50 -128ZM150 -128V-99Q164 -94 173 -81T186 -47T190 0H163V77H227V11Q227 -46 213 -74T181 -114T150 -128Z" />
<glyph unicode="&#x2022;" glyph-name="bullet" horiz-adv-x="350" d="M175 230Q142 230 117 244T77 284T62 343Q62 376 76 402T116 442T175 457Q208 457 234 443T274 402T289 343Q289 310 275 285T234 245T175 230Z" />
<glyph unicode="&#x2039;" glyph-name="guilsinglleft" horiz-adv-x="353" d="M230 126L55 326L230 526H278L132 326L278 126H230Z" />
<glyph unicode="&#x203a;" glyph-name="guilsinglright" horiz-adv-x="353" d="M123 526L298 326L123 126H75L221 326L75 526H123Z" />
</font>
</defs>
</svg>
