<?xml version="1.0" standalone="no"?>
<!DOCTYPE svg PUBLIC "-//W3C//DTD SVG 1.1//EN" "http://www.w3.org/Graphics/SVG/1.1/DTD/svg11.dtd">
<svg xmlns="http://www.w3.org/2000/svg">
<defs >
<font id="ArchivoNarrow" horiz-adv-x="470" ><font-face
    font-family="Archivo Narrow"
    units-per-em="1000"
    panose-1="0 0 0 0 0 0 0 0 0 0"
    ascent="1035"
    descent="-312"
    alphabetic="0" />
<glyph unicode=" " glyph-name="space" horiz-adv-x="228" />
<glyph unicode="!" glyph-name="exclam" horiz-adv-x="273" d="M95 197L60 686H213L177 197H95ZM68 0V137H206V0H68Z" />
<glyph unicode="&quot;" glyph-name="quotedbl" horiz-adv-x="389" d="M248 407L226 539V686H348V539L327 407H248ZM67 407L45 539V686H167V539L146 407H67Z" />
<glyph unicode="#" glyph-name="numbersign" horiz-adv-x="456" d="M24 0L68 195H5V279H87L118 420H44V504H137L181 698H269L225 504H300L344 698H432L388 504H450V420H369L338 279H411V195H319L275 0H187L231 195H156L112 0H24ZM175 279H250L281 420H206L175 279Z" />
<glyph unicode="$" glyph-name="dollar" horiz-adv-x="456" d="M198 -49V69Q146 74 109 95T53 153T33 235Q33 239 33 243T34 247H144V240Q144 206 160 187T198 161V304Q161 315 125 330T65 374T41 458Q41 530 86 569T198 616V723H253V617Q319 611 363 574T407
475Q407 467 407 460T406 452H296V462Q296 489 284 504T253 526V397Q282 390 311 380T365 353T405 309T420 238Q420 180 399 144T340 91T253 69V-49H198ZM253 159Q275 164 292 179T310 223Q310 248 294 262T253 286V159ZM198 414V526Q177 519 164 504T151 468Q151
447 164 435T198 414Z" />
<glyph unicode="%" glyph-name="percent" horiz-adv-x="729" d="M114 0L532 686H618L199 0H114ZM173 337Q130 337 99 353T52 409T35 517Q35 587 51 626T99 681T173 698Q216 698 247 682T294 626T311 517Q311 448 295 409T247 353T173 337ZM173 410Q203 410 212
438T222 510V525Q222 569 213 597T173 625Q143 625 134 597T124 525V510Q124 466 133 438T173 410ZM557 -12Q514 -12 483 4T436 60T419 168Q419 238 435 277T483 332T557 349Q600 349 631 333T678 277T695 168Q695 99 679 60T631 4T557 -12ZM557 61Q587 61 596
89T606 161V176Q606 220 597 248T557 276Q527 276 518 248T508 176V161Q508 117 517 89T557 61Z" />
<glyph unicode="&amp;" glyph-name="ampersand" horiz-adv-x="592" d="M440 0L167 374Q140 409 126 449T112 527Q112 574 132 612T192 674T289 698Q341 698 375 679T425 627T442 555Q442 513 423 469T366 389T273 333L237 426Q264 431 285 450T317 496T329 547Q329
568 318 582T283 597Q255 597 242 578T228 530Q228 500 241 465T279 409L573 0H440ZM246 -13Q177 -13 131 14T63 86T40 181Q40 227 58 272T113 356T204 416L244 322Q204 311 182 273T160 193Q160 153 182 121T253 89Q300 89 339 117T403 204T428 358H538Q538 263
513 193T445 78T351 10T246 -13Z" />
<glyph unicode="&apos;" glyph-name="quotesingle" horiz-adv-x="195" d="M59 407L37 539V686H159V539L138 407H59Z" />
<glyph unicode="(" glyph-name="parenleft" horiz-adv-x="273" d="M179 -157Q107 -65 69 50T30 288Q30 411 68 527T179 735H258Q225 674 199 601T156 448T140 290Q140 212 156 132T198 -22T258 -157H179Z" />
<glyph unicode=")" glyph-name="parenright" horiz-adv-x="273" d="M15 -157Q48 -96 75 -22T117 132T133 290Q133 368 118 447T75 600T15 735H94Q166 643 204 527T243 288Q243 165 205 50T94 -157H15Z" />
<glyph unicode="*" glyph-name="asterisk" horiz-adv-x="319" d="M121 381L131 483L47 423L8 491L101 533L8 577L47 643L131 584L121 686H199L189 585L273 643L312 577L219 533L312 491L273 423L189 483L199 381H121Z" />
<glyph unicode="+" glyph-name="plus" horiz-adv-x="479" d="M187 0V203H33V307H187V511H290V307H445V203H290V0H187Z" />
<glyph unicode="," glyph-name="comma" horiz-adv-x="228" d="M45 -156L100 0H45V137H183V12L117 -156H45Z" />
<glyph unicode="-" glyph-name="hyphen" horiz-adv-x="273" d="M16 211V329H257V211H16Z" />
<glyph unicode="." glyph-name="period" horiz-adv-x="228" d="M45 0V137H183V0H45Z" />
<glyph unicode="/" glyph-name="slash" horiz-adv-x="228" d="M1 -49L143 735H228L87 -49H1Z" />
<glyph unicode="0" glyph-name="zero" horiz-adv-x="456" d="M228 -12Q182 -12 145 4T83 61T44 169T30 343Q30 448 43 516T82 625T145 681T228 698Q274 698 310 682T373 625T412 517T426 343Q426 238 413 170T373 61T311 5T228 -12ZM228 89Q259 89 274 112T295
184T301 308V378Q301 453 296 501T275 573T228 597Q198 597 182 574T161 502T155 378V308Q155 233 160 185T182 113T228 89Z" />
<glyph unicode="1" glyph-name="one" horiz-adv-x="456" d="M40 0V101H194V529H39V609Q67 612 105 622T183 649T255 686H314V101H455V0H40Z" />
<glyph unicode="2" glyph-name="two" horiz-adv-x="456" d="M33 0V24Q33 80 54 127T107 215Q137 253 170 288T232 360T279 435T297 521Q297 537 292 554T273 583T234 595Q197 595 181 564T165 491V450H42Q42 450 41 461T39 490Q39 564 66 609T140 676T239 698Q290
698 331 680T398 623T423 520Q423 472 407 428T365 343T309 267T252 201T204 144Q197 135 192 128T183 112H426V0H33Z" />
<glyph unicode="3" glyph-name="three" horiz-adv-x="456" d="M228 -12Q130 -12 78 44T25 194V212H150V191Q150 142 169 116T226 89Q260 89 280 113T301 190Q301 233 290 256T260 289T219 298H186V399H221Q250 399 269 425T289 505Q289 553 272 575T226 597Q195
597 179 573T162 501V482H37V510Q37 567 61 609T127 675T225 698Q310 698 362 650T414 510Q414 449 389 414T325 356V352Q369 336 397 294T426 184Q426 123 401 79T331 12T228 -12Z" />
<glyph unicode="4" glyph-name="four" horiz-adv-x="456" d="M255 0V155H8V251Q44 315 76 389T134 543T181 698H301Q287 631 262 562T207 431T152 322T112 256H255V410Q268 436 281 469T305 536T322 596H375V256H445V155H375V0H255Z" />
<glyph unicode="5" glyph-name="five" horiz-adv-x="456" d="M232 -12Q141 -12 86 48T30 213H155Q155 156 175 122T232 88Q267 88 288 122T309 224Q309 284 289 316T239 348Q211 348 194 332T165 290L49 306L72 686H404V574H178L168 412Q183 424 206 435T266 446Q313
446 350 422T410 349T433 224Q433 111 379 50T232 -12Z" />
<glyph unicode="6" glyph-name="six" horiz-adv-x="456" d="M237 -12Q173 -12 127 19T55 123T30 323Q30 466 53 548T121 664T228 698Q292 698 331 669T389 589T408 475H285Q285 533 272 565T224 597Q193 597 179 570T160 494T154 377Q171 403 199 417T260 431Q316
431 352 402T407 324T426 210Q426 142 402 92T335 15T237 -12ZM232 89Q268 89 285 123T302 210Q302 265 285 299T232 333Q196 333 179 299T161 210Q161 158 178 124T232 89Z" />
<glyph unicode="7" glyph-name="seven" horiz-adv-x="456" d="M99 0Q99 83 116 163T162 317T227 457T303 574H23V686H433V605Q399 554 364 491T298 356T250 207T231 51Q231 37 231 28T232 0H99Z" />
<glyph unicode="8" glyph-name="eight" horiz-adv-x="456" d="M228 -12Q158 -12 115 15T51 87T30 188Q30 244 51 286T118 352Q81 377 63 417T44 507Q44 560 64 603T126 672T228 698Q289 698 330 672T391 603T412 507Q412 458 394 418T337 352Q384 329 405 287T426
188Q426 133 406 88T342 15T228 -12ZM228 88Q264 88 283 115T302 194Q302 246 283 273T228 301Q192 301 173 274T154 194Q154 142 173 115T228 88ZM228 400Q258 400 274 425T291 499Q291 548 275 573T228 598Q198 598 182 573T166 499Q166 450 182 425T228 400Z"
/>
<glyph unicode="9" glyph-name="nine" horiz-adv-x="456" d="M228 -12Q165 -12 125 17T67 97T48 211H171Q171 153 184 121T232 89Q263 89 277 116T296 192T302 309Q285 284 257 270T196 255Q141 255 104 284T49 363T30 476Q30 545 54 594T122 671T219 698Q284
698 330 667T401 563T426 363Q426 220 403 138T335 22T228 -12ZM224 353Q260 353 277 387T295 476Q295 528 278 562T224 597Q188 597 171 563T154 476Q154 421 171 387T224 353Z" />
<glyph unicode=":" glyph-name="colon" horiz-adv-x="273" d="M55 389V526H193V389H55ZM55 0V137H193V0H55Z" />
<glyph unicode=";" glyph-name="semicolon" horiz-adv-x="273" d="M54 -156L109 0H54V137H192V12L126 -156H54ZM55 389V526H193V389H55Z" />
<glyph unicode="&lt;" glyph-name="less" horiz-adv-x="479" d="M446 -9L34 197V324L446 531V413L135 261L446 109V-9Z" />
<glyph unicode="=" glyph-name="equal" horiz-adv-x="479" d="M33 308V412H445V308H33ZM33 96V199H445V96H33Z" />
<glyph unicode="&gt;" glyph-name="greater" horiz-adv-x="479" d="M34 -9V109L345 261L34 413V531L446 324V197L34 -9Z" />
<glyph unicode="?" glyph-name="question" horiz-adv-x="501" d="M202 197V240Q202 276 214 302T244 349T280 393T310 442T322 509Q322 517 320 530T310 557T289 581T252 591Q227 591 212 580T188 553T178 518T175 486Q175 474 175 467T176 459H50Q50 459 49 472T47
494Q47 550 70 596T141 670T260 698Q320 698 363 676T429 613T453 520Q453 467 441 432T410 373T372 329T341 284T328 225V197H202ZM197 0V137H335V0H197Z" />
<glyph unicode="@" glyph-name="at" horiz-adv-x="800" d="M380 -153Q271 -153 191 -110T68 26T25 262Q25 382 55 465T140 599T264 674T412 698Q517 698 599 660T728 538T776 321Q776 236 757 179T708 87T643 37T577 22Q528 22 506 39T473 85H468Q448 56 422 39T348
22Q331 22 311 27T271 47T240 88T228 156Q228 221 258 257T342 308T465 323V373Q465 398 456 415T415 432Q381 432 370 416T358 382V369H252Q251 373 251 377T251 389Q251 448 295 484T412 521Q495 521 535 484T575 380V152Q575 114 605 114Q628 114 650 133T688
198T703 322Q703 431 666 498T563 597T411 629Q266 629 182 538T98 261Q98 89 166 3T380 -84Q403 -84 433 -80T493 -68T540 -52V-126Q520 -134 490 -140T431 -149T380 -153ZM393 113Q419 113 435 127T458 165T465 217V244Q433 244 405 238T358 214T340 166Q340
142 352 128T393 113Z" />
<glyph unicode="A" glyph-name="A" horiz-adv-x="592" d="M0 0L221 686H370L591 0H460L418 135H165L124 0H0ZM200 249H383L314 478Q309 496 304 518T297 555T294 571H290Q290 571 287 555T280 516T270 478L200 249Z" />
<glyph unicode="B" glyph-name="B" horiz-adv-x="592" d="M60 0V686H355Q409 686 451 665T518 605T542 516Q542 457 512 417T437 360V356Q488 340 523 295T558 184Q558 126 530 85T456 22T355 0H60ZM188 114H334Q374 114 400 136T427 200Q427 240 403 267T328
295H188V114ZM188 408H320Q366 408 388 433T411 493Q411 532 388 552T326 572H188V408Z" />
<glyph unicode="C" glyph-name="C" horiz-adv-x="592" d="M307 -12Q178 -12 106 75T34 343Q34 525 106 611T307 698Q379 698 436 670T526 583T559 431H428Q428 511 395 549T307 588Q236 588 201 530T166 368V318Q166 215 202 157T311 98Q367 98 400 136T434 254H559Q559
164 526 105T437 17T307 -12Z" />
<glyph unicode="D" glyph-name="D" horiz-adv-x="592" d="M60 0V686H283Q411 686 484 603T558 353Q558 177 485 89T283 0H60ZM188 114H271Q342 114 384 167T426 328V378Q426 475 384 523T271 572H188V114Z" />
<glyph unicode="E" glyph-name="E" horiz-adv-x="547" d="M60 0V686H497V572H188V408H453V294H188V114H503V0H60Z" />
<glyph unicode="F" glyph-name="F" horiz-adv-x="501" d="M60 0V686H463V572H188V399H423V285H188V0H60Z" />
<glyph unicode="G" glyph-name="G" horiz-adv-x="638" d="M299 -12Q173 -12 104 74T34 343Q34 525 110 611T325 698Q394 698 454 669T550 584T587 446H456Q456 516 417 552T321 588Q241 588 204 530T166 368V318Q166 213 204 156T322 98Q381 98 418 143T456 263V311L510
263H302V373H587V0H504L482 76Q449 33 401 11T299 -12Z" />
<glyph unicode="H" glyph-name="H" horiz-adv-x="592" d="M60 0V686H188V408H404V686H532V0H404V294H188V0H60Z" />
<glyph unicode="I" glyph-name="I" horiz-adv-x="228" d="M50 0V686H178V0H50Z" />
<glyph unicode="J" glyph-name="J" horiz-adv-x="456" d="M203 -12Q110 -12 60 33T9 163V216H136V173Q136 98 203 98Q268 98 268 173V686H396V163Q396 78 346 33T203 -12Z" />
<glyph unicode="K" glyph-name="K" horiz-adv-x="592" d="M60 0V686H189V335L440 686H583L380 407L589 0H445L296 306L189 175V0H60Z" />
<glyph unicode="L" glyph-name="L" horiz-adv-x="501" d="M60 0V686H188V120H478V0H60Z" />
<glyph unicode="M" glyph-name="M" horiz-adv-x="683" d="M53 0V686H233L318 308Q322 291 326 265T335 214T342 171T345 153H349Q349 153 351 171T357 215T365 267T372 308L456 686H630V0H512V437Q512 449 513 467T514 503T516 534T517 547H513Q510 534 507 521T501
494T495 467T489 439L393 0H282L185 441Q182 454 179 467T173 494T167 520T161 547H157Q157 547 158 534T159 502T161 465T162 437V0H53Z" />
<glyph unicode="N" glyph-name="N" horiz-adv-x="592" d="M60 0V686H173L385 308Q391 300 398 285T410 257T416 244L419 247Q419 247 419 259T419 285T418 304V686H532V0H418L206 378Q202 385 195 400T181 429T175 442L171 439Q171 439 171 429T172 405T173 382V0H60Z" />
<glyph unicode="O" glyph-name="O" horiz-adv-x="638" d="M319 -12Q186 -12 110 75T34 343Q34 525 110 611T319 698Q452 698 528 612T604 343Q604 162 528 75T319 -12ZM319 98Q396 98 434 156T472 318V368Q472 471 434 529T319 588Q243 588 205 530T166 368V318Q166
215 204 157T319 98Z" />
<glyph unicode="P" glyph-name="P" horiz-adv-x="547" d="M60 0V686H305Q376 686 424 660T496 587T520 480Q520 416 493 368T418 293T305 266H188V0H60ZM188 379H292Q339 379 363 406T388 480Q388 522 363 547T292 572H188V379Z" />
<glyph unicode="Q" glyph-name="Q" horiz-adv-x="638" d="M430 -124L331 -12H319Q186 -12 110 75T34 343Q34 525 110 611T319 698Q452 698 528 612T604 343Q604 214 565 134T455 17L587 -124H430ZM319 98Q396 98 434 156T472 318V368Q472 471 434 529T319 588Q243
588 205 530T166 368V318Q166 215 204 157T319 98Z" />
<glyph unicode="R" glyph-name="R" horiz-adv-x="592" d="M60 0V686H347Q451 686 504 631T557 490Q557 428 526 382T442 314L574 0H435L321 286H188V0H60ZM188 399H329Q376 399 397 423T419 490Q419 528 399 550T334 572H188V399Z" />
<glyph unicode="S" glyph-name="S" horiz-adv-x="547" d="M267 -12Q204 -12 150 12T63 83T30 201Q30 207 30 213T31 223H164Q164 222 164 217T163 207Q163 158 192 128T273 98Q331 98 354 123T377 179Q377 214 359 235T312 269T247 294T175 319T110 355T62 414T44
506Q44 571 76 613T160 677T274 698Q334 698 384 677T465 612T496 496V484H365V493Q365 537 341 562T272 588Q226 588 201 568T176 515Q176 485 194 467T241 437T307 415T378 390T443 354T491 296T509 206Q509 127 478 80T393 10T267 -12Z" />
<glyph unicode="T" glyph-name="T" horiz-adv-x="501" d="M187 0V572H17V686H485V572H315V0H187Z" />
<glyph unicode="U" glyph-name="U" horiz-adv-x="592" d="M296 -12Q186 -12 124 45T61 215V686H189V219Q189 160 217 129T296 98Q347 98 375 129T404 219V686H532V215Q532 103 469 46T296 -12Z" />
<glyph unicode="V" glyph-name="V" horiz-adv-x="547" d="M209 0L0 686H132L276 195H280L422 686H547L338 0H209Z" />
<glyph unicode="W" glyph-name="W" horiz-adv-x="774" d="M149 0L0 686H127L209 264Q212 249 215 227T220 186T222 168H226Q226 168 228 186T233 227T239 264L322 686H467L549 264Q552 251 555 228T560 187T562 168H566Q566 168 568 185T573 224T579 264L663 686H773L624
0H495L402 437Q399 450 397 466T392 498T389 524T388 534H384Q384 534 383 523T379 496T375 464T370 437L278 0H149Z" />
<glyph unicode="X" glyph-name="X" horiz-adv-x="547" d="M0 0L194 360L18 686H161L276 462H280L395 686H528L351 362L546 0H404L270 259H266L133 0H0Z" />
<glyph unicode="Y" glyph-name="Y" horiz-adv-x="547" d="M210 0V259L0 686H135L275 385H279L418 686H547L338 259V0H210Z" />
<glyph unicode="Z" glyph-name="Z" horiz-adv-x="501" d="M16 0V49L298 572H37V686H473V636L191 114H480V0H16Z" />
<glyph unicode="[" glyph-name="bracketleft" horiz-adv-x="273" d="M49 -161V735H248V640H165V-66H248V-161H49Z" />
<glyph unicode="\" glyph-name="backslash" horiz-adv-x="228" d="M142 -49L1 735H86L228 -49H142Z" />
<glyph unicode="]" glyph-name="bracketright" horiz-adv-x="273" d="M25 -161V-66H108V640H25V735H224V-161H25Z" />
<glyph unicode="^" glyph-name="asciicircum" horiz-adv-x="479" d="M32 294L188 686H295L452 294H342L241 564L142 294H32Z" />
<glyph unicode="_" glyph-name="underscore" horiz-adv-x="456" d="M0 -132V-63H455V-132H0Z" />
<glyph unicode="`" glyph-name="grave" horiz-adv-x="0" d="M129 591L21 720L22 723H142L228 591H129Z" />
<glyph unicode="a" glyph-name="a" horiz-adv-x="456" d="M146 -12Q128 -12 105 -6T62 16T28 61T14 136Q14 207 47 247T140 303T275 320V375Q275 402 265 421T220 440Q183 440 170 422T157 385V370H40Q39 375 39 380T39 392Q39 458 87 498T217 538Q309 538 352
498T396 383V124Q396 105 405 97T424 89H448V4Q438 -1 421 -6T377 -12Q341 -12 317 7T284 57H279Q257 26 228 7T146 -12ZM196 88Q225 88 242 104T267 146T275 203V233Q240 233 209 226T157 200T137 147Q137 120 151 104T196 88Z" />
<glyph unicode="b" glyph-name="b" horiz-adv-x="501" d="M291 -12Q254 -12 223 7T172 65H167L155 0H55V723H175V472H180Q194 504 225 521T297 538Q344 538 380 510T438 421T460 264Q460 121 415 55T291 -12ZM255 97Q299 97 317 135T335 244V282Q335 353 317 391T255
429Q212 429 194 390T175 280V244Q175 173 193 135T255 97Z" />
<glyph unicode="c" glyph-name="c" horiz-adv-x="456" d="M240 -12Q137 -12 89 54T41 263Q41 405 90 471T236 538Q320 538 370 488T420 328H297Q297 384 282 410T236 437Q198 437 182 398T166 282V244Q166 168 183 129T240 89Q272 89 286 116T301 198H420Q420
125 398 79T336 10T240 -12Z" />
<glyph unicode="d" glyph-name="d" horiz-adv-x="501" d="M210 -12Q132 -12 87 54T41 264Q41 360 62 420T121 509T204 538Q244 538 275 521T321 472H326V723H446V0H346L334 65H329Q310 27 279 8T210 -12ZM246 97Q290 97 308 135T326 244V280Q326 351 308 390T246
429Q203 429 185 391T166 282V244Q166 173 184 135T246 97Z" />
<glyph unicode="e" glyph-name="e" horiz-adv-x="456" d="M237 -12Q136 -12 84 54T31 263Q31 405 83 471T233 538Q328 538 375 472T423 263V233H156Q157 163 175 125T237 86Q268 86 286 112T304 186H423Q423 85 370 37T237 -12ZM157 320H297Q297 377 282 408T233
440Q195 440 178 409T157 320Z" />
<glyph unicode="f" glyph-name="f" horiz-adv-x="273" d="M62 0V425H9V526H62V590Q62 625 73 657T111 710T186 731Q207 731 232 728T273 719V630H224Q182 630 182 587V526H273V425H182V0H62Z" />
<glyph unicode="g" glyph-name="g" horiz-adv-x="501" d="M132 -182Q84 -182 50 -149T16 -61Q16 -22 35 4T83 46Q64 58 53 78T41 125Q41 160 64 183T118 217Q87 240 71 276T54 359Q54 440 104 489T248 538Q299 538 336 523Q366 545 376 572T387 614H486Q486 558
464 525T401 480Q421 458 432 427T443 359Q443 278 393 229T248 180H198Q182 180 172 171T162 148Q162 135 171 126T193 117H375Q425 117 460 80T495 -20Q495 -69 472 -105T411 -162T325 -182H132ZM185 -91H320Q343 -91 358 -78T374 -42Q374 -19 360 -7T325 6H185Q165
6 151 -8T137 -42Q137 -64 151 -77T185 -91ZM248 269Q286 269 304 293T323 359Q323 401 305 425T248 449Q211 449 193 425T174 359Q174 317 192 293T248 269Z" />
<glyph unicode="h" glyph-name="h" horiz-adv-x="501" d="M55 0V723H175V470H179Q196 495 228 516T306 538Q367 538 406 500T446 369V0H326V336Q326 387 308 408T257 429Q222 429 199 399T175 324V0H55Z" />
<glyph unicode="i" glyph-name="i" horiz-adv-x="228" d="M54 0V526H174V0H54ZM53 608V723H174V608H53Z" />
<glyph unicode="j" glyph-name="j" horiz-adv-x="228" d="M52 -182Q30 -182 5 -178T-37 -170V-81H7Q54 -81 54 -33V526H174V-41Q174 -76 164 -108T127 -161T52 -182ZM53 608V723H174V608H53Z" />
<glyph unicode="k" glyph-name="k" horiz-adv-x="456" d="M54 0V723H174V317L321 526H449L293 312L457 0H324L218 218L174 164V0H54Z" />
<glyph unicode="l" glyph-name="l" horiz-adv-x="228" d="M54 0V723H174V0H54Z" />
<glyph unicode="m" glyph-name="m" horiz-adv-x="729" d="M55 0V526H155L167 461H173Q192 492 223 515T298 538Q337 538 366 520T411 461Q431 492 465 515T547 538Q585 538 614 522T660 470T677 369V0H557V336Q557 387 543 408T498 429Q469 429 447 403T425 332V0H307V336Q307
387 292 408T247 429Q216 429 196 400T175 324V0H55Z" />
<glyph unicode="n" glyph-name="n" horiz-adv-x="501" d="M55 0V526H155L167 461H173Q193 492 226 515T306 538Q367 538 406 500T446 369V0H326V336Q326 387 308 408T257 429Q222 429 199 399T175 324V0H55Z" />
<glyph unicode="o" glyph-name="o" horiz-adv-x="501" d="M251 -12Q146 -12 94 54T41 263Q41 405 93 471T251 538Q356 538 408 472T461 263Q461 121 409 55T251 -12ZM251 89Q298 89 317 128T336 244V282Q336 358 317 397T251 437Q205 437 186 398T166 282V244Q166
168 185 129T251 89Z" />
<glyph unicode="p" glyph-name="p" horiz-adv-x="501" d="M55 -173V526H155L167 461H172Q192 499 223 518T291 538Q369 538 414 472T460 262Q460 167 439 106T381 17T297 -12Q257 -12 226 5T180 54H175V-173H55ZM255 97Q299 97 317 135T335 244V282Q335 353 317
391T255 429Q212 429 194 391T175 282V246Q175 175 193 136T255 97Z" />
<glyph unicode="q" glyph-name="q" horiz-adv-x="501" d="M326 -173V54H321Q307 23 276 6T204 -12Q158 -12 121 16T63 106T41 262Q41 405 86 471T210 538Q248 538 279 519T329 461H334L346 526H446V-173H326ZM246 97Q290 97 308 136T326 246V282Q326 353 308 391T246
429Q203 429 185 391T166 282V244Q166 173 184 135T246 97Z" />
<glyph unicode="r" glyph-name="r" horiz-adv-x="319" d="M55 0V526H155L169 449H175Q186 482 206 510T266 538Q289 538 302 534T316 530V414H273Q247 414 225 403T189 366T175 293V0H55Z" />
<glyph unicode="s" glyph-name="s" horiz-adv-x="456" d="M224 -12Q164 -12 121 9T56 67T33 155Q33 159 33 163T34 167H156V160Q157 118 180 102T228 86Q252 86 275 98T298 143Q298 171 280 185T232 208T170 226T108 251T60 297T41 378Q41 432 66 467T134 520T229
538Q279 538 319 521T383 472T407 395Q407 387 407 380T406 372H284V374Q283 409 268 424T225 440Q207 440 193 434T171 416T163 388Q163 363 181 350T229 329T291 313T353 288T401 241T420 158Q420 94 395 57T325 4T224 -12Z" />
<glyph unicode="t" glyph-name="t" horiz-adv-x="273" d="M186 -12Q138 -12 111 8T73 61T62 129V425H9V526H62L80 674H182V526H258V425H182V132Q182 89 224 89H258V0Q245 -4 224 -8T186 -12Z" />
<glyph unicode="u" glyph-name="u" horiz-adv-x="501" d="M195 -12Q134 -12 95 26T55 157V526H175V190Q175 139 192 118T244 97Q279 97 302 126T326 200V526H446V0H346L334 65H328Q308 34 275 11T195 -12Z" />
<glyph unicode="v" glyph-name="v" horiz-adv-x="456" d="M167 0L4 526H130L198 300Q203 285 208 259T219 206T227 161T231 142H235Q235 142 237 160T244 204T254 256T265 300L332 526H452L289 0H167Z" />
<glyph unicode="w" glyph-name="w" horiz-adv-x="638" d="M129 0L1 526H121L171 310Q179 275 183 237T190 172T192 145H196Q196 145 198 170T206 234T218 309L263 526H383L428 308Q432 289 436 262T443 208T448 163T450 145H454Q454 145 456 162T462 204T471 258T480
308L526 526H637L510 0H389L337 251Q332 278 329 308T324 359T322 381H316Q316 381 315 360T310 309T301 252L250 0H129Z" />
<glyph unicode="x" glyph-name="x" horiz-adv-x="456" d="M5 0L157 272L17 526H153L231 373H236L314 526H443L301 275L451 0H316L227 174H222L133 0H5Z" />
<glyph unicode="y" glyph-name="y" horiz-adv-x="456" d="M122 -182Q86 -182 65 -178T44 -173V-81H98Q124 -81 146 -62T179 0L4 526H131L210 279Q215 264 220 241T229 196T235 158T238 142H242Q242 142 244 156T250 193T258 238T267 278L332 526H452L308 27Q292
-30 268 -77T208 -153T122 -182Z" />
<glyph unicode="z" glyph-name="z" horiz-adv-x="410" d="M18 0V51L222 425H30V526H385V476L180 101H392V0H18Z" />
<glyph unicode="{" glyph-name="braceleft" horiz-adv-x="319" d="M298 -159Q247 -159 202 -148T129 -106T101 -11V182Q101 216 76 229T24 242V334Q51 334 76 347T101 394V587Q101 650 129 682T202 724T298 735V658Q281 658 263 654T232 636T219 597Q219 548 217
500T212 401Q211 350 187 322T104 293V283Q163 283 186 255T212 175Q214 125 216 77T219 -21Q219 -46 231 -59T261 -77T298 -82V-159Z" />
<glyph unicode="|" glyph-name="bar" horiz-adv-x="230" d="M70 -173V723H160V-173H70Z" />
<glyph unicode="}" glyph-name="braceright" horiz-adv-x="319" d="M21 -159V-82Q39 -82 57 -78T88 -60T100 -21Q100 29 103 77T107 175Q110 226 133 254T215 283V293Q157 293 134 321T107 401Q106 451 103 499T100 597Q100 623 88 636T57 653T21 658V735Q73 735
117 725T190 682T218 587V394Q218 360 243 347T295 334V242Q268 242 243 229T218 182V-11Q218 -74 190 -105T118 -148T21 -159Z" />
<glyph unicode="~" glyph-name="asciitilde" horiz-adv-x="479" d="M27 197V317Q27 317 34 328T57 353T96 379T150 390Q182 390 210 375T267 345T329 329Q356 329 378 340T417 365T443 391T452 402V282Q452 282 445 271T422 246T383 220T329 209Q297 209 269 224T212
255T150 270Q123 270 101 259T62 234T36 208T27 197Z" />
<glyph unicode="&#xa0;" glyph-name="uni00A0" horiz-adv-x="228" />
<glyph unicode="&#xa1;" glyph-name="exclamdown" horiz-adv-x="273" d="M60 -160L95 329H177L213 -160H60ZM68 389V526H206V389H68Z" />
<glyph unicode="&#xa2;" glyph-name="cent" horiz-adv-x="456" d="M207 -49V70Q122 80 82 146T41 343Q41 474 82 540T207 616V723H262V617Q335 610 377 560T420 408H309Q309 454 297 481T262 516V168Q288 176 300 203T313 278H420Q420 210 401 165T346 97T262
69V-49H207ZM207 172V515Q179 503 167 464T154 362V324Q154 262 166 224T207 172Z" />
<glyph unicode="&#xa3;" glyph-name="sterling" horiz-adv-x="456" d="M20 0V108H71V288H9V389H71V499Q71 599 119 648T252 698Q335 698 384 650T433 504V491H314V517Q314 557 298 577T253 597Q224 597 208 579T192 525V389H312V288H191L180 108H426V0H20Z" />
<glyph unicode="&#xa4;" glyph-name="currency" horiz-adv-x="456" d="M228 108Q193 108 161 120T103 155L61 113L0 174L50 224Q37 250 30 280T22 342Q22 374 29 403T49 458L0 508L60 570L102 528Q128 551 160 564T228 577Q263 577 295 564T353 528L395 570L455
508L406 459Q420 433 427 404T434 342Q434 309 427 279T405 223L455 174L394 113L352 155Q326 133 295 121T228 108ZM228 198Q261 198 288 217T332 269T349 342Q349 383 333 415T289 467T228 487Q195 487 167 468T123 416T106 342Q106 302 122 270T167 218T228
198Z" />
<glyph unicode="&#xa5;" glyph-name="yen" horiz-adv-x="456" d="M168 0V153H28V234H167V304H28V385H133L4 686H135L229 423H233L326 686H451L323 385H428V303H288V234H428V153H288V0H168Z" />
<glyph unicode="&#xa6;" glyph-name="brokenbar" horiz-adv-x="230" d="M70 351V723H160V351H70ZM70 -173V199H160V-173H70Z" />
<glyph unicode="&#xa7;" glyph-name="section" horiz-adv-x="456" d="M229 -182Q179 -182 139 -165T75 -116T51 -39Q51 -31 51 -24T52 -16H174Q174 -51 190 -67T233 -84Q252 -84 265 -78T287 -60T295 -32Q295 2 277 23T229 61T166 93T104 130T56 185T37 268Q37
308 54 345T102 411Q80 433 66 463T51 538Q51 592 75 627T143 680T239 698Q289 698 329 681T393 632T417 555Q417 547 417 540T416 532H294Q294 567 278 583T235 600Q217 600 203 594T181 576T173 548Q173 515 191 493T239 455T302 423T364 386T412 331T431 248Q431
208 415 170T366 105Q389 83 403 53T417 -22Q417 -75 393 -111T326 -164T229 -182ZM291 156Q301 168 307 182T313 213Q313 253 293 278T241 321T176 359Q167 347 161 333T155 303Q155 263 175 238T226 194T291 156Z" />
<glyph unicode="&#xa8;" glyph-name="dieresis" horiz-adv-x="0" d="M175 614V723H275V614H175ZM0 614V723H100V614H0Z" />
<glyph unicode="&#xa9;" glyph-name="copyright" horiz-adv-x="604" d="M302 -12Q213 -12 149 32T51 155T16 343Q16 451 50 531T149 654T302 698Q391 698 455 655T553 531T588 343Q588 235 554 156T455 32T302 -12ZM304 134Q228 134 186 185T143 343Q143 450 185
501T304 553Q368 553 410 516T453 395H366Q366 437 349 457T304 478Q267 478 249 446T231 358V329Q231 273 250 241T307 209Q335 209 352 229T369 291H453Q453 212 411 173T304 134ZM303 43Q374 43 425 80T504 184T532 343Q532 435 505 502T426 606T302 643Q231
643 179 606T100 502T72 343Q72 252 99 185T179 80T303 43Z" />
<glyph unicode="&#xaa;" glyph-name="ordfeminine" horiz-adv-x="303" d="M103 363Q87 363 66 370T30 400T14 463Q14 511 36 538T97 576T186 587V624Q186 641 180 652T153 664Q131 664 123 653T115 631V621H32Q31 624 31 627T31 635Q31 680 63 707T151 734Q213
734 242 707T272 629V459Q272 446 278 441T291 435H307V373Q300 370 289 367T259 363Q235 363 219 376T197 409H193Q178 388 158 376T103 363ZM137 434Q163 434 174 456T186 508V528Q154 528 128 517T101 470Q101 454 109 444T137 434Z" />
<glyph unicode="&#xab;" glyph-name="guillemotleft" horiz-adv-x="456" d="M338 126L202 326L338 526H429L321 326L429 126H338ZM155 126L19 326L155 526H246L138 326L246 126H155Z" />
<glyph unicode="&#xac;" glyph-name="logicalnot" horiz-adv-x="479" d="M341 187V350H29V463H445V187H341Z" />
<glyph unicode="&#xad;" glyph-name="uni00AD" horiz-adv-x="273" d="M16 211V329H257V211H16Z" />
<glyph unicode="&#xae;" glyph-name="registered" horiz-adv-x="604" d="M302 -12Q213 -12 149 32T51 155T16 343Q16 451 50 531T149 654T302 698Q391 698 455 655T553 531T588 343Q588 235 554 156T455 32T302 -12ZM302 43Q374 43 425 80T504 184T532 343Q532
435 505 502T426 606T302 643Q231 643 179 606T100 502T72 343Q72 252 99 185T179 80T302 43ZM173 140V546H331Q380 546 412 512T444 421Q444 384 431 358T396 318L470 140H384L323 292H259V140H173ZM259 362H303Q330 362 343 376T356 418Q356 444 343 456T303
468H259V362Z" />
<glyph unicode="&#xaf;" glyph-name="overscore" horiz-adv-x="456" d="M104 600V687H359V600H104Z" />
<glyph unicode="&#xb0;" glyph-name="degree" horiz-adv-x="400" d="M198 414Q159 414 127 433T75 484T56 556Q56 596 75 628T126 679T198 698Q238 698 270 679T321 628T340 556Q340 517 321 485T270 433T198 414ZM198 482Q229 482 250 503T271 556Q271 587 250
608T198 629Q167 629 146 608T124 556Q124 525 145 504T198 482Z" />
<glyph unicode="&#xb1;" glyph-name="plusminus" horiz-adv-x="549" d="M222 144V317H68V421H222V595H325V421H480V317H325V144H222ZM68 0V103H480V0H68Z" />
<glyph unicode="&#xb2;" glyph-name="uni00B2" horiz-adv-x="273" d="M24 434V449Q24 492 50 527T106 594Q131 620 149 644T168 692Q168 712 162 723T136 734Q118 734 110 721T101 688V663H28Q28 663 27 670T25 687Q25 737 55 767T135 798Q185 798 214 771T243
699Q243 653 218 619T166 557Q151 541 140 527T123 499H248V434H24Z" />
<glyph unicode="&#xb3;" glyph-name="uni00B3" horiz-adv-x="273" d="M141 428Q83 428 53 456T22 536V547H97V534Q97 515 108 503T137 491Q157 491 169 504T182 538Q182 559 170 572T136 585H106V650H137Q154 650 165 663T176 699Q176 720 165 728T140 736Q124
736 114 725T103 697V677H29V702Q29 745 59 771T139 798Q189 798 219 775T250 703Q250 675 237 655T201 621Q227 609 241 587T256 533Q256 486 225 457T141 428Z" />
<glyph unicode="&#xb4;" glyph-name="acute" horiz-adv-x="0" d="M0 591L86 723H206L207 720L99 591H0Z" />
<glyph unicode="&#xb5;" glyph-name="uni00B5" horiz-adv-x="501" d="M55 -173V526H175V190Q175 139 192 118T244 97Q279 97 302 126T326 200V526H446V0H346L334 65H328Q311 34 283 11T215 -12Q194 -12 175 -4V-173H55Z" />
<glyph unicode="&#xb6;" glyph-name="paragraph" horiz-adv-x="456" d="M187 -173V250Q139 257 101 287T41 364T18 467Q18 528 43 577T113 656T210 686H449V610H401V-173H320V610H267V-173H187Z" />
<glyph unicode="&#xb7;" glyph-name="middot" horiz-adv-x="228" d="M53 278V409H174V278H53Z" />
<glyph unicode="&#xb8;" glyph-name="cedilla" horiz-adv-x="0" d="M84 -182Q38 -182 0 -174V-125H71Q88 -125 97 -120T107 -101Q107 -89 100 -83T73 -77H40L51 11H119L114 -33Q146 -35 169 -50T193 -101Q193 -134 175 -151T131 -175T84 -182Z" />
<glyph unicode="&#xb9;" glyph-name="uni00B9" horiz-adv-x="273" d="M20 433V502H94V697H20V746Q42 749 73 760T126 786H170V502H235V433H20Z" />
<glyph unicode="&#xba;" glyph-name="ordmasculine" horiz-adv-x="299" d="M152 362Q81 362 46 407T10 548Q10 644 45 689T152 734Q223 734 258 689T294 548Q294 452 259 407T152 362ZM152 435Q181 435 193 460T205 535V561Q205 610 193 635T152 661Q123 661 111
636T99 561V535Q99 486 111 461T152 435Z" />
<glyph unicode="&#xbb;" glyph-name="guillemotright" horiz-adv-x="456" d="M210 126L318 326L210 526H301L437 326L301 126H210ZM27 126L135 326L27 526H118L254 326L118 126H27Z" />
<glyph unicode="&#xbc;" glyph-name="onequarter" horiz-adv-x="683" d="M20 589V658H94V853H20V902Q42 905 73 916T126 942H170V658H235V589H20ZM120 -12L516 698H582L187 -12H120ZM562 0V80H420V129Q450 176 472 235T507 365H585Q576 324 561 282T529 204T493
140H562V211Q572 229 582 255T599 307H638V140H665V80H638V0H562Z" />
<glyph unicode="&#xbd;" glyph-name="onehalf" horiz-adv-x="683" d="M20 589V658H94V853H20V902Q42 905 73 916T126 942H170V658H235V589H20ZM120 -12L516 698H582L187 -12H120ZM434 0V15Q434 58 460 93T516 160Q541 186 559 210T578 258Q578 278 572 289T546
300Q528 300 520 287T511 254V229H438Q438 229 437 236T435 253Q435 303 465 333T545 364Q595 364 624 337T653 265Q653 219 628 185T576 123Q561 107 550 93T533 65H658V0H434Z" />
<glyph unicode="&#xbe;" glyph-name="threequarters" horiz-adv-x="683" d="M141 584Q83 584 53 612T22 692V703H97V690Q97 671 108 659T137 647Q157 647 169 660T182 694Q182 715 170 728T136 741H106V806H137Q154 806 165 819T176 855Q176 876 165 884T140 892Q124
892 114 881T103 853V833H29V858Q29 901 59 927T139 954Q189 954 219 931T250 859Q250 831 237 811T201 777Q227 765 241 743T256 689Q256 642 225 613T141 584ZM120 -12L516 698H582L187 -12H120ZM562 0V80H420V129Q450 176 472 235T507 365H585Q576 324 561 282T529
204T493 140H562V211Q572 229 582 255T599 307H638V140H665V80H638V0H562Z" />
<glyph unicode="&#xbf;" glyph-name="questiondown" horiz-adv-x="501" d="M241 -172Q182 -172 139 -150T72 -87T48 6Q48 59 60 94T92 153T129 197T160 242T173 301V329H299V286Q299 250 287 224T257 177T221 133T191 84T179 17Q179 10 181 -3T191 -31T212 -55T249
-65Q274 -65 289 -54T313 -27T323 8T326 40Q326 52 326 59T325 67H451Q451 67 452 54T454 32Q454 -24 431 -70T360 -144T241 -172ZM166 389V526H304V389H166Z" />
<glyph unicode="&#xc0;" glyph-name="Agrave" horiz-adv-x="592" d="M0 0L221 686H370L591 0H460L418 135H165L124 0H0ZM200 249H383L314 478Q309 496 304 518T297 555T294 571H290Q290 571 287 555T280 516T270 478L200 249ZM266 751L158 850L159 853H279L365 751H266Z" />
<glyph unicode="&#xc1;" glyph-name="Aacute" horiz-adv-x="592" d="M0 0L221 686H370L591 0H460L418 135H165L124 0H0ZM200 249H383L314 478Q309 496 304 518T297 555T294 571H290Q290 571 287 555T280 516T270 478L200 249ZM222 751L288 853H418L419 850L331 751H222Z" />
<glyph unicode="&#xc2;" glyph-name="Acircumflex" horiz-adv-x="592" d="M0 0L221 686H370L591 0H460L418 135H165L124 0H0ZM200 249H383L314 478Q309 496 304 518T297 555T294 571H290Q290 571 287 555T280 516T270 478L200 249ZM161 748L247 853H345L430 748H340L296
787L251 748H161Z" />
<glyph unicode="&#xc3;" glyph-name="Atilde" horiz-adv-x="592" d="M0 0L221 686H370L591 0H460L418 135H165L124 0H0ZM200 249H383L314 478Q309 496 304 518T297 555T294 571H290Q290 571 287 555T280 516T270 478L200 249ZM144 747Q144 772 153 797T181 840T233
857Q255 857 274 849T313 833T353 824Q367 824 376 831T389 857H448Q448 832 439 807T411 764T359 747Q337 747 318 755T279 772T239 780Q225 780 216 773T203 747H144Z" />
<glyph unicode="&#xc4;" glyph-name="Adieresis" horiz-adv-x="592" d="M0 0L221 686H370L591 0H460L418 135H165L124 0H0ZM200 249H383L314 478Q309 496 304 518T297 555T294 571H290Q290 571 287 555T280 516T270 478L200 249ZM333 774V883H433V774H333ZM158
774V883H258V774H158Z" />
<glyph unicode="&#xc5;" glyph-name="Aring" horiz-adv-x="592" d="M0 0L221 686H370L591 0H460L418 135H165L124 0H0ZM200 249H383L314 478Q309 496 304 518T297 555T294 571H290Q290 571 287 555T280 516T270 478L200 249ZM296 721Q257 721 229 749T200 817Q200
857 228 885T296 913Q337 913 364 885T392 817Q392 777 364 749T296 721ZM296 775Q313 775 325 787T338 817Q338 835 326 847T296 859Q278 859 266 847T254 817Q254 799 266 787T296 775Z" />
<glyph unicode="&#xc6;" glyph-name="AE" horiz-adv-x="820" d="M-8 0L255 686H771V572H438L478 408H727V294H506L550 114H777V0H447L414 135H161L111 0H-8ZM203 249H387L328 500Q326 508 325 515T321 531T317 546H313Q310 538 307 530T301 514T295 498L203 249Z" />
<glyph unicode="&#xc7;" glyph-name="Ccedilla" horiz-adv-x="592" d="M307 -12Q178 -12 106 75T34 343Q34 525 106 611T307 698Q379 698 436 670T526 583T559 431H428Q428 511 395 549T307 588Q236 588 201 530T166 368V318Q166 215 202 157T311 98Q367 98 400
136T434 254H559Q559 164 526 105T437 17T307 -12ZM306 -182Q260 -182 222 -174V-125H293Q310 -125 319 -120T329 -101Q329 -89 322 -83T295 -77H262L273 11H341L336 -33Q368 -35 391 -50T415 -101Q415 -134 397 -151T353 -175T306 -182Z" />
<glyph unicode="&#xc8;" glyph-name="Egrave" horiz-adv-x="547" d="M60 0V686H497V572H188V408H453V294H188V114H503V0H60ZM249 751L141 850L142 853H262L348 751H249Z" />
<glyph unicode="&#xc9;" glyph-name="Eacute" horiz-adv-x="547" d="M60 0V686H497V572H188V408H453V294H188V114H503V0H60ZM205 751L271 853H401L402 850L314 751H205Z" />
<glyph unicode="&#xca;" glyph-name="Ecircumflex" horiz-adv-x="547" d="M60 0V686H497V572H188V408H453V294H188V114H503V0H60ZM144 748L230 853H328L413 748H323L279 787L234 748H144Z" />
<glyph unicode="&#xcb;" glyph-name="Edieresis" horiz-adv-x="547" d="M60 0V686H497V572H188V408H453V294H188V114H503V0H60ZM316 774V883H416V774H316ZM141 774V883H241V774H141Z" />
<glyph unicode="&#xcc;" glyph-name="Igrave" horiz-adv-x="228" d="M50 0V686H178V0H50ZM84 751L-24 850L-23 853H97L183 751H84Z" />
<glyph unicode="&#xcd;" glyph-name="Iacute" horiz-adv-x="228" d="M50 0V686H178V0H50ZM40 751L106 853H236L237 850L149 751H40Z" />
<glyph unicode="&#xce;" glyph-name="Icircumflex" horiz-adv-x="228" d="M50 0V686H178V0H50ZM-21 748L65 853H163L248 748H158L114 787L69 748H-21Z" />
<glyph unicode="&#xcf;" glyph-name="Idieresis" horiz-adv-x="228" d="M50 0V686H178V0H50ZM151 774V883H251V774H151ZM-24 774V883H76V774H-24Z" />
<glyph unicode="&#xd0;" glyph-name="Eth" horiz-adv-x="592" d="M60 0V312H10V397H60V686H283Q411 686 484 603T558 353Q558 177 485 89T283 0H60ZM188 114H271Q342 114 384 167T426 328V378Q426 475 384 523T271 572H188V397H313V312H188V114Z" />
<glyph unicode="&#xd1;" glyph-name="Ntilde" horiz-adv-x="592" d="M60 0V686H173L385 308Q391 300 398 285T410 257T416 244L419 247Q419 247 419 259T419 285T418 304V686H532V0H418L206 378Q202 385 195 400T181 429T175 442L171 439Q171 439 171 429T172
405T173 382V0H60ZM144 747Q144 772 153 797T181 840T233 857Q255 857 274 849T313 833T353 824Q367 824 376 831T389 857H448Q448 832 439 807T411 764T359 747Q337 747 318 755T279 772T239 780Q225 780 216 773T203 747H144Z" />
<glyph unicode="&#xd2;" glyph-name="Ograve" horiz-adv-x="638" d="M319 -12Q186 -12 110 75T34 343Q34 525 110 611T319 698Q452 698 528 612T604 343Q604 162 528 75T319 -12ZM319 98Q396 98 434 156T472 318V368Q472 471 434 529T319 588Q243 588 205 530T166
368V318Q166 215 204 157T319 98ZM289 751L181 850L182 853H302L388 751H289Z" />
<glyph unicode="&#xd3;" glyph-name="Oacute" horiz-adv-x="638" d="M319 -12Q186 -12 110 75T34 343Q34 525 110 611T319 698Q452 698 528 612T604 343Q604 162 528 75T319 -12ZM319 98Q396 98 434 156T472 318V368Q472 471 434 529T319 588Q243 588 205 530T166
368V318Q166 215 204 157T319 98ZM245 751L311 853H441L442 850L354 751H245Z" />
<glyph unicode="&#xd4;" glyph-name="Ocircumflex" horiz-adv-x="638" d="M319 -12Q186 -12 110 75T34 343Q34 525 110 611T319 698Q452 698 528 612T604 343Q604 162 528 75T319 -12ZM319 98Q396 98 434 156T472 318V368Q472 471 434 529T319 588Q243 588 205
530T166 368V318Q166 215 204 157T319 98ZM184 748L270 853H368L453 748H363L319 787L274 748H184Z" />
<glyph unicode="&#xd5;" glyph-name="Otilde" horiz-adv-x="638" d="M319 -12Q186 -12 110 75T34 343Q34 525 110 611T319 698Q452 698 528 612T604 343Q604 162 528 75T319 -12ZM319 98Q396 98 434 156T472 318V368Q472 471 434 529T319 588Q243 588 205 530T166
368V318Q166 215 204 157T319 98ZM167 747Q167 772 176 797T204 840T256 857Q278 857 297 849T336 833T376 824Q390 824 399 831T412 857H471Q471 832 462 807T434 764T382 747Q360 747 341 755T302 772T262 780Q248 780 239 773T226 747H167Z" />
<glyph unicode="&#xd6;" glyph-name="Odieresis" horiz-adv-x="638" d="M319 -12Q186 -12 110 75T34 343Q34 525 110 611T319 698Q452 698 528 612T604 343Q604 162 528 75T319 -12ZM319 98Q396 98 434 156T472 318V368Q472 471 434 529T319 588Q243 588 205 530T166
368V318Q166 215 204 157T319 98ZM356 774V883H456V774H356ZM181 774V883H281V774H181Z" />
<glyph unicode="&#xd7;" glyph-name="multiply" horiz-adv-x="479" d="M101 39L29 111L175 256L29 402L101 474L246 328L392 474L464 402L318 256L464 111L392 39L246 185L101 39Z" />
<glyph unicode="&#xd8;" glyph-name="Oslash" horiz-adv-x="638" d="M40 -37L515 723H599L124 -37H40ZM319 -12Q186 -12 110 75T34 343Q34 525 110 611T319 698Q452 698 528 612T604 343Q604 162 528 75T319 -12ZM319 98Q396 98 434 156T472 318V368Q472 471 434
529T319 588Q243 588 205 530T166 368V318Q166 215 204 157T319 98Z" />
<glyph unicode="&#xd9;" glyph-name="Ugrave" horiz-adv-x="592" d="M296 -12Q186 -12 124 45T61 215V686H189V219Q189 160 217 129T296 98Q347 98 375 129T404 219V686H532V215Q532 103 469 46T296 -12ZM266 751L158 850L159 853H279L365 751H266Z" />
<glyph unicode="&#xda;" glyph-name="Uacute" horiz-adv-x="592" d="M296 -12Q186 -12 124 45T61 215V686H189V219Q189 160 217 129T296 98Q347 98 375 129T404 219V686H532V215Q532 103 469 46T296 -12ZM222 751L288 853H418L419 850L331 751H222Z" />
<glyph unicode="&#xdb;" glyph-name="Ucircumflex" horiz-adv-x="592" d="M296 -12Q186 -12 124 45T61 215V686H189V219Q189 160 217 129T296 98Q347 98 375 129T404 219V686H532V215Q532 103 469 46T296 -12ZM161 748L247 853H345L430 748H340L296 787L251 748H161Z" />
<glyph unicode="&#xdc;" glyph-name="Udieresis" horiz-adv-x="592" d="M296 -12Q186 -12 124 45T61 215V686H189V219Q189 160 217 129T296 98Q347 98 375 129T404 219V686H532V215Q532 103 469 46T296 -12ZM333 774V883H433V774H333ZM158 774V883H258V774H158Z" />
<glyph unicode="&#xdd;" glyph-name="Yacute" horiz-adv-x="547" d="M210 0V259L0 686H135L275 385H279L418 686H547L338 259V0H210ZM199 751L265 853H395L396 850L308 751H199Z" />
<glyph unicode="&#xde;" glyph-name="Thorn" horiz-adv-x="547" d="M60 0V686H188V564H305Q376 564 424 538T496 465T520 358Q520 294 493 246T418 171T305 144H188V0H60ZM188 257H292Q339 257 363 284T388 358Q388 400 363 425T292 450H188V257Z" />
<glyph unicode="&#xdf;" glyph-name="germandbls" horiz-adv-x="501" d="M40 0V520Q40 597 68 644T146 713T254 735Q311 735 356 713T426 649T452 548Q452 499 426 456T357 395V391Q391 379 417 352T458 289T473 214Q473 150 447 102T375 27T273 0H208V102H260Q286
102 306 117T339 159T352 215Q352 245 340 270T307 309T260 324H208V437H257Q278 437 294 451T321 491T331 545Q331 584 311 609T249 634Q209 634 185 607T160 528V0H40Z" />
<glyph unicode="&#xe0;" glyph-name="agrave" horiz-adv-x="456" d="M146 -12Q128 -12 105 -6T62 16T28 61T14 136Q14 207 47 247T140 303T275 320V375Q275 402 265 421T220 440Q183 440 170 422T157 385V370H40Q39 375 39 380T39 392Q39 458 87 498T217 538Q309
538 352 498T396 383V124Q396 105 405 97T424 89H448V4Q438 -1 421 -6T377 -12Q341 -12 317 7T284 57H279Q257 26 228 7T146 -12ZM196 88Q225 88 242 104T267 146T275 203V233Q240 233 209 226T157 200T137 147Q137 120 151 104T196 88ZM187 591L79 720L80 723H200L286
591H187Z" />
<glyph unicode="&#xe1;" glyph-name="aacute" horiz-adv-x="456" d="M146 -12Q128 -12 105 -6T62 16T28 61T14 136Q14 207 47 247T140 303T275 320V375Q275 402 265 421T220 440Q183 440 170 422T157 385V370H40Q39 375 39 380T39 392Q39 458 87 498T217 538Q309
538 352 498T396 383V124Q396 105 405 97T424 89H448V4Q438 -1 421 -6T377 -12Q341 -12 317 7T284 57H279Q257 26 228 7T146 -12ZM196 88Q225 88 242 104T267 146T275 203V233Q240 233 209 226T157 200T137 147Q137 120 151 104T196 88ZM148 591L234 723H354L355
720L247 591H148Z" />
<glyph unicode="&#xe2;" glyph-name="acircumflex" horiz-adv-x="456" d="M146 -12Q128 -12 105 -6T62 16T28 61T14 136Q14 207 47 247T140 303T275 320V375Q275 402 265 421T220 440Q183 440 170 422T157 385V370H40Q39 375 39 380T39 392Q39 458 87 498T217
538Q309 538 352 498T396 383V124Q396 105 405 97T424 89H448V4Q438 -1 421 -6T377 -12Q341 -12 317 7T284 57H279Q257 26 228 7T146 -12ZM196 88Q225 88 242 104T267 146T275 203V233Q240 233 209 226T157 200T137 147Q137 120 151 104T196 88ZM82 588L168 723H266L351
588H261L217 657L172 588H82Z" />
<glyph unicode="&#xe3;" glyph-name="atilde" horiz-adv-x="456" d="M146 -12Q128 -12 105 -6T62 16T28 61T14 136Q14 207 47 247T140 303T275 320V375Q275 402 265 421T220 440Q183 440 170 422T157 385V370H40Q39 375 39 380T39 392Q39 458 87 498T217 538Q309
538 352 498T396 383V124Q396 105 405 97T424 89H448V4Q438 -1 421 -6T377 -12Q341 -12 317 7T284 57H279Q257 26 228 7T146 -12ZM196 88Q225 88 242 104T267 146T275 203V233Q240 233 209 226T157 200T137 147Q137 120 151 104T196 88ZM49 601Q49 629 59 657T90
704T147 723Q172 723 193 714T236 696T280 686Q296 686 306 694T319 723H385Q385 696 375 668T344 620T286 601Q262 601 241 610T198 629T154 638Q138 638 128 630T115 601H49Z" />
<glyph unicode="&#xe4;" glyph-name="adieresis" horiz-adv-x="456" d="M146 -12Q128 -12 105 -6T62 16T28 61T14 136Q14 207 47 247T140 303T275 320V375Q275 402 265 421T220 440Q183 440 170 422T157 385V370H40Q39 375 39 380T39 392Q39 458 87 498T217 538Q309
538 352 498T396 383V124Q396 105 405 97T424 89H448V4Q438 -1 421 -6T377 -12Q341 -12 317 7T284 57H279Q257 26 228 7T146 -12ZM196 88Q225 88 242 104T267 146T275 203V233Q240 233 209 226T157 200T137 147Q137 120 151 104T196 88ZM254 614V723H354V614H254ZM79
614V723H179V614H79Z" />
<glyph unicode="&#xe5;" glyph-name="aring" horiz-adv-x="456" d="M146 -12Q128 -12 105 -6T62 16T28 61T14 136Q14 207 47 247T140 303T275 320V375Q275 402 265 421T220 440Q183 440 170 422T157 385V370H40Q39 375 39 380T39 392Q39 458 87 498T217 538Q309
538 352 498T396 383V124Q396 105 405 97T424 89H448V4Q438 -1 421 -6T377 -12Q341 -12 317 7T284 57H279Q257 26 228 7T146 -12ZM196 88Q225 88 242 104T267 146T275 203V233Q240 233 209 226T157 200T137 147Q137 120 151 104T196 88ZM217 561Q178 561 150 589T121
657Q121 697 149 725T217 753Q258 753 285 725T313 657Q313 617 285 589T217 561ZM217 611Q236 611 249 624T263 657Q263 677 250 690T217 703Q198 703 185 690T171 658Q171 638 184 625T217 611Z" />
<glyph unicode="&#xe6;" glyph-name="ae" horiz-adv-x="729" d="M189 -12Q168 -12 142 -6T92 16T53 61T37 136Q37 207 70 247T163 303T298 320V375Q298 402 288 421T243 440Q206 440 193 422T180 385V370H63Q62 375 62 380T62 392Q62 458 110 498T240 538Q285
538 319 525T375 488Q422 538 500 538Q595 538 642 472T690 263V233H423Q424 163 442 125T504 86Q535 86 553 112T571 186H690Q690 85 637 37T504 -12Q452 -12 413 5T347 59Q319 28 282 8T189 -12ZM219 88Q248 88 265 104T290 146T298 203V233Q263 233 232 226T180
200T160 147Q160 120 174 104T219 88ZM424 320H564Q564 377 549 408T500 440Q462 440 445 409T424 320Z" />
<glyph unicode="&#xe7;" glyph-name="ccedilla" horiz-adv-x="456" d="M240 -12Q137 -12 89 54T41 263Q41 405 90 471T236 538Q320 538 370 488T420 328H297Q297 384 282 410T236 437Q198 437 182 398T166 282V244Q166 168 183 129T240 89Q272 89 286 116T301
198H420Q420 125 398 79T336 10T240 -12ZM230 -182Q184 -182 146 -174V-125H217Q234 -125 243 -120T253 -101Q253 -89 246 -83T219 -77H186L197 11H265L260 -33Q292 -35 315 -50T339 -101Q339 -134 321 -151T277 -175T230 -182Z" />
<glyph unicode="&#xe8;" glyph-name="egrave" horiz-adv-x="456" d="M237 -12Q136 -12 84 54T31 263Q31 405 83 471T233 538Q328 538 375 472T423 263V233H156Q157 163 175 125T237 86Q268 86 286 112T304 186H423Q423 85 370 37T237 -12ZM157 320H297Q297 377
282 408T233 440Q195 440 178 409T157 320ZM198 591L90 720L91 723H211L297 591H198Z" />
<glyph unicode="&#xe9;" glyph-name="eacute" horiz-adv-x="456" d="M237 -12Q136 -12 84 54T31 263Q31 405 83 471T233 538Q328 538 375 472T423 263V233H156Q157 163 175 125T237 86Q268 86 286 112T304 186H423Q423 85 370 37T237 -12ZM157 320H297Q297 377
282 408T233 440Q195 440 178 409T157 320ZM159 591L245 723H365L366 720L258 591H159Z" />
<glyph unicode="&#xea;" glyph-name="ecircumflex" horiz-adv-x="456" d="M237 -12Q136 -12 84 54T31 263Q31 405 83 471T233 538Q328 538 375 472T423 263V233H156Q157 163 175 125T237 86Q268 86 286 112T304 186H423Q423 85 370 37T237 -12ZM157 320H297Q297
377 282 408T233 440Q195 440 178 409T157 320ZM93 588L179 723H277L362 588H272L228 657L183 588H93Z" />
<glyph unicode="&#xeb;" glyph-name="edieresis" horiz-adv-x="456" d="M237 -12Q136 -12 84 54T31 263Q31 405 83 471T233 538Q328 538 375 472T423 263V233H156Q157 163 175 125T237 86Q268 86 286 112T304 186H423Q423 85 370 37T237 -12ZM157 320H297Q297
377 282 408T233 440Q195 440 178 409T157 320ZM265 614V723H365V614H265ZM90 614V723H190V614H90Z" />
<glyph unicode="&#xec;" glyph-name="igrave" horiz-adv-x="228" d="M54 0V526H174V0H54ZM340 591L232 720L233 723H353L439 591H340Z" />
<glyph unicode="&#xed;" glyph-name="iacute" horiz-adv-x="228" d="M54 0V526H174V0H54ZM45 591L131 723H251L252 720L144 591H45Z" />
<glyph unicode="&#xee;" glyph-name="icircumflex" horiz-adv-x="228" d="M54 0V526H174V0H54ZM235 588L321 723H419L504 588H414L370 657L325 588H235Z" />
<glyph unicode="&#xef;" glyph-name="idieresis" horiz-adv-x="228" d="M54 0V526H174V0H54ZM407 614V723H507V614H407ZM232 614V723H332V614H232Z" />
<glyph unicode="&#xf0;" glyph-name="eth" horiz-adv-x="501" d="M251 -12Q146 -12 94 54T41 263Q41 354 63 415T126 507T223 538Q234 538 247 536T272 530L275 534Q268 548 258 564T237 595L108 584V657L183 664Q168 681 154 695T130 719L132 723H258Q269 714
281 702T308 675L438 687V614L363 607Q402 550 431 466T461 263Q461 121 409 55T251 -12ZM251 89Q298 89 317 128T336 244V282Q336 358 317 397T251 437Q205 437 186 398T166 282V244Q166 168 185 129T251 89Z" />
<glyph unicode="&#xf1;" glyph-name="ntilde" horiz-adv-x="501" d="M55 0V526H155L167 461H173Q193 492 226 515T306 538Q367 538 406 500T446 369V0H326V336Q326 387 308 408T257 429Q222 429 199 399T175 324V0H55ZM82 601Q82 629 92 657T123 704T180 723Q205
723 226 714T269 696T313 686Q329 686 339 694T352 723H418Q418 696 408 668T377 620T319 601Q295 601 274 610T231 629T187 638Q171 638 161 630T148 601H82Z" />
<glyph unicode="&#xf2;" glyph-name="ograve" horiz-adv-x="501" d="M251 -12Q146 -12 94 54T41 263Q41 405 93 471T251 538Q356 538 408 472T461 263Q461 121 409 55T251 -12ZM251 89Q298 89 317 128T336 244V282Q336 358 317 397T251 437Q205 437 186 398T166
282V244Q166 168 185 129T251 89ZM220 591L112 720L113 723H233L319 591H220Z" />
<glyph unicode="&#xf3;" glyph-name="oacute" horiz-adv-x="501" d="M251 -12Q146 -12 94 54T41 263Q41 405 93 471T251 538Q356 538 408 472T461 263Q461 121 409 55T251 -12ZM251 89Q298 89 317 128T336 244V282Q336 358 317 397T251 437Q205 437 186 398T166
282V244Q166 168 185 129T251 89ZM181 591L267 723H387L388 720L280 591H181Z" />
<glyph unicode="&#xf4;" glyph-name="ocircumflex" horiz-adv-x="501" d="M251 -12Q146 -12 94 54T41 263Q41 405 93 471T251 538Q356 538 408 472T461 263Q461 121 409 55T251 -12ZM251 89Q298 89 317 128T336 244V282Q336 358 317 397T251 437Q205 437 186 398T166
282V244Q166 168 185 129T251 89ZM115 588L201 723H299L384 588H294L250 657L205 588H115Z" />
<glyph unicode="&#xf5;" glyph-name="otilde" horiz-adv-x="501" d="M251 -12Q146 -12 94 54T41 263Q41 405 93 471T251 538Q356 538 408 472T461 263Q461 121 409 55T251 -12ZM251 89Q298 89 317 128T336 244V282Q336 358 317 397T251 437Q205 437 186 398T166
282V244Q166 168 185 129T251 89ZM82 601Q82 629 92 657T123 704T180 723Q205 723 226 714T269 696T313 686Q329 686 339 694T352 723H418Q418 696 408 668T377 620T319 601Q295 601 274 610T231 629T187 638Q171 638 161 630T148 601H82Z" />
<glyph unicode="&#xf6;" glyph-name="odieresis" horiz-adv-x="501" d="M251 -12Q146 -12 94 54T41 263Q41 405 93 471T251 538Q356 538 408 472T461 263Q461 121 409 55T251 -12ZM251 89Q298 89 317 128T336 244V282Q336 358 317 397T251 437Q205 437 186 398T166
282V244Q166 168 185 129T251 89ZM287 614V723H387V614H287ZM112 614V723H212V614H112Z" />
<glyph unicode="&#xf7;" glyph-name="divide" horiz-adv-x="549" d="M33 203V307H515V203H33ZM222 41V151H326V41H222ZM222 359V470H326V359H222Z" />
<glyph unicode="&#xf8;" glyph-name="oslash" horiz-adv-x="501" d="M251 -12Q146 -12 94 54T41 263Q41 405 93 471T251 538Q356 538 408 472T461 263Q461 121 409 55T251 -12ZM251 89Q298 89 317 128T336 244V282Q336 358 317 397T251 437Q205 437 186 398T166
282V244Q166 168 185 129T251 89ZM53 -32L374 558H449L128 -32H53Z" />
<glyph unicode="&#xf9;" glyph-name="ugrave" horiz-adv-x="501" d="M195 -12Q134 -12 95 26T55 157V526H175V190Q175 139 192 118T244 97Q279 97 302 126T326 200V526H446V0H346L334 65H328Q308 34 275 11T195 -12ZM220 591L112 720L113 723H233L319 591H220Z" />
<glyph unicode="&#xfa;" glyph-name="uacute" horiz-adv-x="501" d="M195 -12Q134 -12 95 26T55 157V526H175V190Q175 139 192 118T244 97Q279 97 302 126T326 200V526H446V0H346L334 65H328Q308 34 275 11T195 -12ZM181 591L267 723H387L388 720L280 591H181Z" />
<glyph unicode="&#xfb;" glyph-name="ucircumflex" horiz-adv-x="501" d="M195 -12Q134 -12 95 26T55 157V526H175V190Q175 139 192 118T244 97Q279 97 302 126T326 200V526H446V0H346L334 65H328Q308 34 275 11T195 -12ZM115 588L201 723H299L384 588H294L250
657L205 588H115Z" />
<glyph unicode="&#xfc;" glyph-name="udieresis" horiz-adv-x="501" d="M195 -12Q134 -12 95 26T55 157V526H175V190Q175 139 192 118T244 97Q279 97 302 126T326 200V526H446V0H346L334 65H328Q308 34 275 11T195 -12ZM287 614V723H387V614H287ZM112 614V723H212V614H112Z"
/>
<glyph unicode="&#xfd;" glyph-name="yacute" horiz-adv-x="456" d="M122 -182Q86 -182 65 -178T44 -173V-81H98Q124 -81 146 -62T179 0L4 526H131L210 279Q215 264 220 241T229 196T235 158T238 142H242Q242 142 244 156T250 193T258 238T267 278L332 526H452L308
27Q292 -30 268 -77T208 -153T122 -182ZM159 591L245 723H365L366 720L258 591H159Z" />
<glyph unicode="&#xfe;" glyph-name="thorn" horiz-adv-x="501" d="M55 -173V723H175V466H176Q196 502 226 520T291 538Q369 538 414 472T460 262Q460 167 439 106T381 17T297 -12Q257 -12 226 5T180 54H175V-173H55ZM255 97Q299 97 317 135T335 244V282Q335 353
317 391T255 429Q212 429 194 391T175 282V246Q175 175 193 136T255 97Z" />
<glyph unicode="&#xff;" glyph-name="ydieresis" horiz-adv-x="456" d="M122 -182Q86 -182 65 -178T44 -173V-81H98Q124 -81 146 -62T179 0L4 526H131L210 279Q215 264 220 241T229 196T235 158T238 142H242Q242 142 244 156T250 193T258 238T267 278L332 526H452L308
27Q292 -30 268 -77T208 -153T122 -182ZM265 614V723H365V614H265ZM90 614V723H190V614H90Z" />
<glyph unicode="&#x2013;" glyph-name="endash" horiz-adv-x="456" d="M0 221V319H456V221H0Z" />
<glyph unicode="&#x2014;" glyph-name="emdash" horiz-adv-x="820" d="M0 221V319H820V221H0Z" />
<glyph unicode="&#x2018;" glyph-name="quoteleft" horiz-adv-x="228" d="M45 393V518L111 686H183L128 530H183V393H45Z" />
<glyph unicode="&#x2019;" glyph-name="quoteright" horiz-adv-x="228" d="M45 393L100 549H45V686H183V561L117 393H45Z" />
<glyph unicode="&#x201a;" glyph-name="quotesinglbase" horiz-adv-x="228" d="M45 -156L100 0H45V137H183V12L117 -156H45Z" />
<glyph unicode="&#x201c;" glyph-name="quotedblleft" horiz-adv-x="410" d="M227 393V518L293 686H365L310 530H365V393H227ZM44 393V518L110 686H182L127 530H182V393H44Z" />
<glyph unicode="&#x201d;" glyph-name="quotedblright" horiz-adv-x="410" d="M228 393L283 549H228V686H366V561L300 393H228ZM45 393L100 549H45V686H183V561L117 393H45Z" />
<glyph unicode="&#x201e;" glyph-name="quotedblbase" horiz-adv-x="410" d="M228 -156L283 0H228V137H366V12L300 -156H228ZM45 -156L100 0H45V137H183V12L117 -156H45Z" />
<glyph unicode="&#x2022;" glyph-name="bullet" horiz-adv-x="287" d="M143 220Q110 220 83 237T39 282T23 344Q23 378 39 405T82 450T143 467Q177 467 204 450T247 406T264 344Q264 311 248 283T204 237T143 220Z" />
<glyph unicode="&#x2039;" glyph-name="guilsinglleft" horiz-adv-x="273" d="M155 126L19 326L155 526H246L138 326L246 126H155Z" />
<glyph unicode="&#x203a;" glyph-name="guilsinglright" horiz-adv-x="273" d="M27 126L135 326L27 526H118L254 326L118 126H27Z" />
</font>
</defs>
</svg>
