<?xml version="1.0" standalone="no"?>
<!DOCTYPE svg PUBLIC "-//W3C//DTD SVG 1.1//EN" "http://www.w3.org/Graphics/SVG/1.1/DTD/svg11.dtd">
<svg xmlns="http://www.w3.org/2000/svg">
<defs >
<font id="Archivo" horiz-adv-x="577" ><font-face
    font-family="Archivo"
    units-per-em="1000"
    panose-1="0 0 0 0 0 0 0 0 0 0"
    ascent="878"
    descent="-210"
    alphabetic="0" />
<glyph unicode=" " glyph-name="space" horiz-adv-x="209" />
<glyph unicode="!" glyph-name="exclam" horiz-adv-x="273" d="M94 181L159 686H264L150 181H94ZM42 0L60 105H159L140 0H42Z" />
<glyph unicode="&quot;" glyph-name="quotedbl" horiz-adv-x="374" d="M101 410L106 539L132 686H225L200 539L160 410H101ZM266 410L271 539L296 686H390L364 539L324 410H266Z" />
<glyph unicode="#" glyph-name="numbersign" horiz-adv-x="582" d="M76 -12L117 179H37V255H134L168 410H82V486H184L232 698H311L264 486H411L458 698H537L490 486H570V410H474L440 255H525V179H424L382 -12H302L344 179H197L155 -12H76ZM213 255H360L395 410H247L213
255Z" />
<glyph unicode="$" glyph-name="dollar" horiz-adv-x="510" d="M170 -49L307 723H357L220 -49H170ZM230 67Q181 67 143 76T79 102T40 143T26 198Q26 210 28 221T33 243H120Q118 234 117 226T115 213Q115 186 130 170T172 146T235 139Q263 139 287 144T329 161T358
189T369 232Q369 252 358 265T326 287T280 304T228 320Q202 329 177 338T131 362T98 398T86 452Q86 494 103 525T150 576T219 607T303 617Q343 617 377 610T437 587T477 549T492 495Q492 483 490 472T486 454H400Q401 461 401 467T402 478Q402 503 389 518T353
539T300 546Q274 546 252 541T213 527T187 502T177 467Q177 443 194 430T238 409T296 389Q326 379 355 370T408 345T448 307T463 248Q463 202 446 168T397 112T324 79T230 67Z" />
<glyph unicode="%" glyph-name="percent" horiz-adv-x="950" d="M144 0L760 686H841L224 0H144ZM270 337Q205 337 168 363T131 457Q131 471 132 487T137 521Q149 586 170 624T226 680T308 698Q374 698 410 672T446 577Q446 563 445 548T441 515Q430 450 408 411T352
355T270 337ZM672 -12Q607 -12 570 14T532 108Q532 122 534 138T539 173Q551 239 573 277T629 332T709 349Q776 349 812 323T848 228Q848 214 847 198T842 163Q830 98 808 60T753 5T672 -12ZM268 396Q314 396 334 427T363 511Q366 525 367 535T369 555T370 571Q370
605 357 622T309 639Q266 639 246 609T215 524Q213 511 211 501T209 482T208 465Q208 431 222 414T268 396ZM669 47Q715 47 735 78T765 162Q768 176 769 186T771 206T772 222Q772 256 758 273T711 290Q667 290 647 259T616 175Q614 161 613 151T611 132T610 116Q610
82 624 65T669 47Z" />
<glyph unicode="&amp;" glyph-name="ampersand" horiz-adv-x="692" d="M276 -12Q203 -12 149 8T65 66T34 158Q34 215 57 254T117 318T194 352L195 356Q157 376 133 405T108 480Q108 533 129 574T188 642T277 684T387 698Q457 698 509 679T589 624T618 540Q618
534 617 522T613 493H524Q527 506 527 513T528 526Q528 559 510 581T461 613T387 623Q352 623 319 615T258 591T214 547T198 482Q198 450 214 428T259 396T322 385H384L371 312H312Q280 312 247 305T187 283T144 240T127 172Q127 134 145 110T197 75T277 63Q334
63 375 77T440 120T471 191L505 385H678L665 310H580L560 194Q548 128 512 82T417 12T276 -12Z" />
<glyph unicode="&apos;" glyph-name="quotesingle" horiz-adv-x="209" d="M101 410L106 539L132 686H225L200 539L160 410H101Z" />
<glyph unicode="(" glyph-name="parenleft" horiz-adv-x="355" d="M170 -157Q116 -85 89 1T62 181Q62 284 93 382T183 570T325 735H384Q335 677 293 612T218 475T167 327T149 172Q149 112 158 54T186 -58T227 -157H170Z" />
<glyph unicode=")" glyph-name="parenright" horiz-adv-x="355" d="M195 735Q249 663 276 577T303 397Q303 294 272 196T182 8T40 -157H-19Q30 -99 73 -34T148 103T198 251T216 406Q216 467 207 525T180 636T138 735H195Z" />
<glyph unicode="*" glyph-name="asterisk" horiz-adv-x="407" d="M183 333L218 470L98 392L74 451L202 509L95 569L140 627L231 548L245 687H312L276 548L397 627L420 569L292 509L399 451L355 392L263 470L250 333H183Z" />
<glyph unicode="+" glyph-name="plus" horiz-adv-x="625" d="M226 0L265 217H68L82 293H279L317 511H395L357 293H554L540 217H343L304 0H226Z" />
<glyph unicode="," glyph-name="comma" horiz-adv-x="277" d="M5 -147L14 -106Q34 -102 49 -87T74 -50T88 0H42L61 105H158L142 11Q134 -32 120 -61T87 -108T47 -135T5 -147Z" />
<glyph unicode="-" glyph-name="hyphen" horiz-adv-x="333" d="M34 226L49 315H302L286 226H34Z" />
<glyph unicode="." glyph-name="period" horiz-adv-x="277" d="M43 0L62 105H160L141 0H43Z" />
<glyph unicode="/" glyph-name="slash" horiz-adv-x="294" d="M-55 -49L304 735H377L18 -49H-55Z" />
<glyph unicode="0" glyph-name="zero" horiz-adv-x="573" d="M247 -12Q186 -12 141 7T70 73T45 199Q45 221 46 244T51 292T58 343Q72 433 97 499T158 610T242 676T352 698Q415 698 460 679T531 613T556 486Q556 465 554 442T550 394T543 343Q528 253 503 187T442
76T357 10T247 -12ZM249 63Q294 63 326 81T382 133T421 214T447 320Q452 349 456 373T462 417T465 455T466 489Q466 558 440 590T351 622Q307 622 274 604T218 553T180 472T153 366Q148 337 144 313T138 269T135 231T134 197Q134 128 160 96T249 63Z" />
<glyph unicode="1" glyph-name="one" horiz-adv-x="521" d="M4 0L18 75H191L274 550H101L110 606Q142 609 172 614T233 630T292 654T348 688H388L280 75H443L429 0H4Z" />
<glyph unicode="2" glyph-name="two" horiz-adv-x="567" d="M-2 0L3 29Q13 79 42 120T114 195T203 259T297 319T382 380T442 448T465 529Q465 570 436 596T348 622Q294 622 260 604T208 557T182 491L174 450H87Q91 510 111 556T167 634T251 682T357 698Q425 698
469 677T534 618T556 535Q556 480 535 436T477 354T397 286T307 228T223 174T156 118Q147 110 139 100T126 81H482L467 0H-2Z" />
<glyph unicode="3" glyph-name="three" horiz-adv-x="573" d="M249 -12Q177 -12 127 7T51 62T25 150Q25 160 26 172T31 202H119Q117 188 116 178T115 159Q115 109 149 86T245 62Q297 62 337 78T401 129T425 214Q425 252 405 273T353 302T284 311H212L225 386H300Q334
386 363 395T416 422T452 469T466 534Q466 565 451 584T409 613T349 622Q307 622 273 609T216 569T187 504L185 489H96L99 504Q108 566 144 609T235 675T354 698Q415 698 461 680T532 627T558 540Q558 490 539 454T486 395T413 356V352Q458 337 487 302T516 211Q516
142 481 92T385 15T249 -12Z" />
<glyph unicode="4" glyph-name="four" horiz-adv-x="555" d="M303 0L333 168H15L27 242Q81 314 127 387T213 537T287 698H385Q363 643 334 586T272 474T210 373T154 292T113 242H346L383 457Q393 473 402 491T421 527T438 563T452 596H496L434 242H525L512 168H422L391
0H303Z" />
<glyph unicode="5" glyph-name="five" horiz-adv-x="571" d="M249 -12Q182 -12 134 9T59 69T32 165Q32 176 33 188T36 213H125Q124 204 123 195T122 177Q122 139 138 113T182 75T248 62Q286 62 319 75T376 113T414 174T428 255Q428 313 399 342T315 371Q284 371
255 362T201 335T157 293L76 306L171 686H561L547 604H236L183 391Q200 405 223 417T276 437T340 445Q394 445 434 425T498 365T521 267Q521 182 486 119T389 22T249 -12Z" />
<glyph unicode="6" glyph-name="six" horiz-adv-x="573" d="M260 -12Q194 -12 146 8T71 76T45 201Q45 228 47 258T56 325Q81 465 123 546T225 663T361 698Q426 698 467 678T527 623T547 540Q547 527 546 514T542 486H452Q454 498 455 508T456 528Q456 576 431
599T355 623Q294 623 255 592T193 501T154 359Q174 385 202 403T265 432T337 442Q402 442 443 419T504 354T524 260Q524 199 504 149T447 63T363 8T260 -12ZM256 63Q300 63 334 80T391 127Q411 151 421 182T431 248Q431 281 419 308T381 351T312 367Q269 367 235
351T176 306Q156 283 146 251T135 181Q135 147 148 120T187 78T256 63Z" />
<glyph unicode="7" glyph-name="seven" horiz-adv-x="553" d="M94 0Q110 92 147 177T236 340T343 484T454 604H94L109 686H593L584 631Q538 587 491 536T398 426T313 306T247 178T207 47Q204 33 203 25T200 0H94Z" />
<glyph unicode="8" glyph-name="eight" horiz-adv-x="574" d="M248 -12Q171 -12 123 9T52 68T29 150Q29 198 46 237T96 305T177 352Q141 372 123 406T104 479Q104 526 122 565T173 635T251 681T351 698Q419 698 463 677T530 620T552 539Q552 498 537 462T493 398T424
352Q471 331 492 296T513 216Q513 150 483 99T393 18T248 -12ZM249 63Q274 63 295 67T336 79T371 100Q395 119 409 147T423 213Q423 260 391 287T294 314Q272 314 253 311T216 301T184 285Q154 266 138 235T121 162Q121 114 153 89T249 63ZM306 387Q329 387 350
392T389 406T421 428Q440 446 450 472T461 530Q461 577 431 600T347 623Q326 623 307 619T271 608T241 588Q219 569 207 542T195 479Q195 435 223 411T306 387Z" />
<glyph unicode="9" glyph-name="nine" horiz-adv-x="573" d="M235 -12Q171 -12 130 8T69 64T49 146Q49 159 50 173T54 200H143Q142 189 141 178T139 158Q139 110 165 87T241 63Q302 63 341 94T403 185T442 327Q422 301 394 283T331 254T259 244Q194 244 153 268T92
335T72 430Q72 490 92 539T148 623T232 678T336 698Q402 698 450 678T525 611T551 485Q551 458 549 428T540 361Q516 221 474 140T372 23T235 -12ZM284 319Q327 319 361 335T420 380Q440 404 450 436T461 505Q461 540 448 566T409 608T340 623Q296 623 262 606T204
559Q185 536 175 505T165 438Q165 405 177 378T215 335T284 319Z" />
<glyph unicode=":" glyph-name="colon" horiz-adv-x="296" d="M127 422L145 527H243L225 422H127ZM53 0L72 105H170L151 0H53Z" />
<glyph unicode=";" glyph-name="semicolon" horiz-adv-x="296" d="M15 -147L23 -106Q44 -102 59 -87T84 -50T98 0H52L71 105H168L152 11Q144 -32 130 -61T96 -108T57 -135T15 -147ZM125 422L144 527H242L224 422H125Z" />
<glyph unicode="&lt;" glyph-name="less" horiz-adv-x="625" d="M493 5L54 207L71 302L581 504L565 416L136 251L508 86L493 5Z" />
<glyph unicode="=" glyph-name="equal" horiz-adv-x="625" d="M86 322L100 398H574L560 322H86ZM49 111L63 187H537L523 111H49Z" />
<glyph unicode="&gt;" glyph-name="greater" horiz-adv-x="625" d="M41 5L56 92L487 257L114 421L129 504L568 302L551 207L41 5Z" />
<glyph unicode="?" glyph-name="question" horiz-adv-x="578" d="M231 177L241 233Q248 274 266 302T310 352T361 391T410 428T447 473T461 534Q461 553 454 572T424 605T357 619Q316 619 287 606T238 573T209 530T194 486Q193 480 193 474T192 462H103Q103 493
113 525T143 589T194 644T266 683T361 698Q415 698 452 686T513 652T547 603T558 544Q558 495 543 460T502 398T448 352T393 314T347 274T323 223L315 177H231ZM195 0L213 105H312L293 0H195Z" />
<glyph unicode="@" glyph-name="at" horiz-adv-x="1005" d="M455 -153Q342 -153 266 -127T144 -54T78 58T58 200Q58 286 73 356T119 482T194 578T296 645T421 685T568 698Q664 698 737 677T861 614T936 513T962 379Q962 331 953 281T922 185T869 102T792 44T688
22Q655 22 634 31T602 57T591 99L586 102Q557 62 517 42T435 22Q389 22 355 42T303 102T285 201Q285 223 286 245T292 289Q300 336 317 378T362 452T426 503T510 521Q540 521 564 514T608 491T639 450H645L670 510H737L717 397Q710 359 704 321T691 250T680 189T672
144T669 120Q669 107 678 98T711 89Q745 89 773 104T824 146T863 210T887 290T896 379Q896 460 860 518T750 608T568 640Q487 640 419 624T296 574T203 488T144 366T123 207Q123 141 139 86T193 -9T295 -72T455 -95Q484 -95 511 -94T562 -89T605 -83T637 -77L626
-139Q610 -141 585 -144T528 -150T455 -153ZM460 95Q488 95 510 105T550 134T580 174Q591 195 599 216T612 260T620 302T622 340Q622 382 609 406T573 440T524 450Q499 450 479 442T442 418T413 383Q402 365 394 344T381 299T373 252T370 205Q370 149 392 122T460
95Z" />
<glyph unicode="A" glyph-name="A" horiz-adv-x="682" d="M-31 0L355 686H475L621 0H524L489 172H165L70 0H-31ZM211 254H471L428 467Q426 482 423 499T415 535T409 571T404 601H398Q388 581 375 555T349 505T328 466L211 254Z" />
<glyph unicode="B" glyph-name="B" horiz-adv-x="698" d="M40 0L161 686H487Q547 686 590 669T657 619T681 539Q681 497 663 460T614 397T540 360L539 356Q583 342 612 308T641 214Q641 142 610 95T524 24T400 0H40ZM150 82H404Q448 82 479 97T528 141T546 216Q546
261 518 286T437 311H190L150 82ZM205 392H445Q476 392 501 401T544 428T571 468T581 517Q581 561 556 582T488 604H241L205 392Z" />
<glyph unicode="C" glyph-name="C" horiz-adv-x="728" d="M341 -12Q204 -12 131 54T57 255Q57 283 59 310T66 363Q85 466 135 541T265 657T449 698Q530 698 591 676T685 609T718 494Q718 481 717 467T713 439H616Q618 450 619 461T620 482Q620 528 599 557T539
601T444 616Q386 616 339 598T257 545T199 462T165 355Q163 340 161 327T158 303T156 280T155 258Q155 192 177 151T241 90T343 70Q409 70 459 89T542 148T586 247H680Q665 158 618 101T499 16T341 -12Z" />
<glyph unicode="D" glyph-name="D" horiz-adv-x="734" d="M40 0L161 686H408Q550 686 627 623T705 423Q705 396 703 370T697 319Q679 217 627 146T495 38T310 0H40ZM150 82H305Q368 82 418 99T506 147T566 226T599 332Q602 349 603 364T605 392T606 418Q606 485
582 526T512 585T401 604H242L150 82Z" />
<glyph unicode="E" glyph-name="E" horiz-adv-x="677" d="M41 0L161 686H690L675 604H242L205 392H594L580 310H190L150 82H590L575 0H41Z" />
<glyph unicode="F" glyph-name="F" horiz-adv-x="612" d="M41 0L161 686H648L633 604H242L203 384H559L545 303H189L136 0H41Z" />
<glyph unicode="G" glyph-name="G" horiz-adv-x="796" d="M348 -12Q205 -12 131 55T57 256Q57 281 59 307T66 360Q85 467 138 542T275 658T466 698Q530 698 582 686T672 649T730 588T750 502Q750 490 749 478T746 452H648Q650 460 651 469T652 485Q652 520 638
545T600 585T542 608T468 616Q409 616 359 601T270 554T204 474T166 360Q163 341 161 326T158 299T156 276T155 254Q155 189 178 149T245 89T352 70Q430 70 485 93T574 159T617 261L620 280H379L393 361H730L666 0H599V88Q568 54 528 32T443 -1T348 -12Z" />
<glyph unicode="H" glyph-name="H" horiz-adv-x="736" d="M41 0L161 686H256L204 392H578L630 686H725L605 0H509L564 309H190L136 0H41Z" />
<glyph unicode="I" glyph-name="I" horiz-adv-x="267" d="M40 0L161 686H256L135 0H40Z" />
<glyph unicode="J" glyph-name="J" horiz-adv-x="559" d="M221 -12Q124 -12 72 28T20 146Q20 156 21 171T29 216H124Q118 186 117 174T116 155Q116 113 142 92T220 70Q282 70 322 109T376 225L457 686H553L473 230Q458 148 424 94T339 14T221 -12Z" />
<glyph unicode="K" glyph-name="K" horiz-adv-x="662" d="M41 0L161 686H256L193 330L597 686H723L413 413L612 0H506L340 348L172 208L136 0H41Z" />
<glyph unicode="L" glyph-name="L" horiz-adv-x="536" d="M40 0L160 686H255L150 83H491L477 0H40Z" />
<glyph unicode="M" glyph-name="M" horiz-adv-x="847" d="M41 0L161 686H303L382 241Q385 222 387 201T391 159T394 122H400Q408 139 417 160T435 203T453 242L688 686H836L716 0H620L700 452Q704 475 709 500T719 548T725 580H718Q712 566 705 551T692 521T679
496L417 0H334L249 491Q246 511 244 535T240 580H232Q230 562 227 538T220 491T213 452L133 0H41Z" />
<glyph unicode="N" glyph-name="N" horiz-adv-x="736" d="M41 0L161 686H253L498 236Q504 227 511 213T525 184T538 158L543 159Q546 176 548 196T554 234L633 686H725L605 0H519L275 445Q267 460 253 487T230 534H224Q222 516 219 492T212 450L133 0H41Z" />
<glyph unicode="O" glyph-name="O" horiz-adv-x="788" d="M354 -12Q261 -12 194 18T92 108T57 256Q57 282 59 306T65 354Q83 459 135 536T269 655T462 698Q556 698 622 668T724 578T760 430Q760 406 759 382T752 334Q735 229 683 151T547 31T354 -12ZM357 70Q421
70 471 89T559 143T619 228T653 339Q656 352 657 364T660 386T661 407T662 426Q662 491 638 533T568 595T459 616Q396 616 346 598T258 544T197 459T163 348Q160 335 159 323T157 300T156 280T155 260Q155 196 179 154T248 91T357 70Z" />
<glyph unicode="P" glyph-name="P" horiz-adv-x="665" d="M41 0L161 686H475Q546 686 591 665T658 604T680 513Q680 455 662 409T611 330T531 280T430 263H182L136 0H41ZM196 345H426Q473 345 508 364T563 418T583 503Q583 551 556 577T471 604H242L196 345Z" />
<glyph unicode="Q" glyph-name="Q" horiz-adv-x="788" d="M507 -130L406 -8Q394 -11 381 -11T354 -12Q261 -12 194 18T92 108T57 256Q57 282 59 306T65 354Q83 459 135 536T269 655T462 698Q556 698 622 668T724 578T760 430Q760 406 759 382T752 334Q732 216
669 132T504 12L626 -130H507ZM357 70Q421 70 471 89T559 143T619 228T653 339Q656 352 657 364T660 386T661 407T662 426Q662 491 638 533T568 595T459 616Q396 616 346 598T258 544T197 459T163 348Q160 335 159 323T157 300T156 280T155 260Q155 196 179 154T248
91T357 70Z" />
<glyph unicode="R" glyph-name="R" horiz-adv-x="727" d="M40 0L161 686H507Q573 686 615 666T679 611T700 527Q700 462 679 415T622 337T539 289L635 0H533L446 273H183L135 0H40ZM198 354H449Q491 354 526 373T582 429T603 515Q603 557 577 580T499 604H242L198 354Z" />
<glyph unicode="S" glyph-name="S" horiz-adv-x="673" d="M307 -12Q248 -12 198 -3T111 27T52 79T31 156Q31 170 33 186T40 217H133Q130 206 128 194T125 169Q125 133 147 112T210 81T301 71Q349 71 387 79T451 102T491 141T505 192Q505 220 490 239T450 271T393
295T326 317Q288 328 250 342T180 376T130 427T111 501Q111 552 133 589T194 650T284 685T391 697Q447 697 493 688T573 659T625 609T644 539Q644 528 643 517T639 489H545Q548 501 548 509T549 523Q549 570 508 593T391 616Q339 616 298 605T232 570T208 513Q208
491 219 474T252 445T300 422T357 404Q399 391 442 377T522 341T581 288T603 209Q603 150 579 109T514 40T419 1T307 -12Z" />
<glyph unicode="T" glyph-name="T" horiz-adv-x="606" d="M209 0L315 603H80L94 686H661L647 603H410L304 0H209Z" />
<glyph unicode="U" glyph-name="U" horiz-adv-x="731" d="M328 -12Q210 -12 144 37T77 193Q77 208 79 228T85 268L159 686H254L178 256Q176 245 174 229T172 202Q172 134 213 102T330 70Q419 70 477 115T550 250L628 686H723L647 260Q630 165 589 105T482 16T328 -12Z" />
<glyph unicode="V" glyph-name="V" horiz-adv-x="648" d="M222 0L90 686H186L269 243Q274 219 278 193T286 142T292 102H298Q309 123 323 151T350 205T373 248L606 686H708L336 0H222Z" />
<glyph unicode="W" glyph-name="W" horiz-adv-x="924" d="M165 0L88 686H181L230 223Q231 212 233 192T237 149T240 109H247Q254 127 261 149T276 192T288 223L474 686H597L637 223Q638 212 639 192T641 149T644 109H651Q657 127 665 148T681 190T695 223L892
686H986L685 0H568L527 466Q526 481 525 501T523 544T522 582H515Q510 565 502 543T487 500T474 466L283 0H165Z" />
<glyph unicode="X" glyph-name="X" horiz-adv-x="680" d="M-34 0L302 362L110 686H219L365 435H370L598 686H715L414 357L623 0H514L350 282H346L86 0H-34Z" />
<glyph unicode="Y" glyph-name="Y" horiz-adv-x="655" d="M235 0L285 285L85 686H184L342 369H347L614 686H721L380 285L330 0H235Z" />
<glyph unicode="Z" glyph-name="Z" horiz-adv-x="635" d="M-17 0L-9 49L498 604H114L129 686H660L651 637L143 82H563L548 0H-17Z" />
<glyph unicode="[" glyph-name="bracketleft" horiz-adv-x="296" d="M18 -161L175 735H363L352 670H243L108 -96H217L206 -161H18Z" />
<glyph unicode="\" glyph-name="backslash" horiz-adv-x="294" d="M172 -49L83 735H150L239 -49H172Z" />
<glyph unicode="]" glyph-name="bracketright" horiz-adv-x="296" d="M286 735L129 -161H-59L-48 -96H61L196 670H86L98 735H286Z" />
<glyph unicode="^" glyph-name="asciicircum" horiz-adv-x="625" d="M113 294L343 686H429L523 294H444L374 605L195 294H113Z" />
<glyph unicode="_" glyph-name="underscore" horiz-adv-x="485" d="M-69 -132L-58 -65H427L415 -132H-69Z" />
<glyph unicode="`" glyph-name="grave" horiz-adv-x="178" d="M162 591L81 720L82 723H175L236 591H162Z" />
<glyph unicode="a" glyph-name="a" horiz-adv-x="561" d="M198 -12Q146 -12 108 9T48 72T27 179Q27 199 29 221T36 268Q52 362 86 422T169 510T281 538Q316 538 344 530T395 503T430 456H436L463 526H535L513 402Q507 368 500 328T485 249T473 176T464 119T460
89Q460 76 467 70T487 63H527L517 5Q507 0 491 -5T452 -11Q424 -11 407 1T384 38Q382 46 381 56T380 76L374 78Q341 32 296 10T198 -12ZM230 65Q256 65 282 74T331 106T372 164T399 255Q403 275 404 290T407 318T408 339Q408 379 397 406T361 447T297 461Q254 461
221 443T165 384T129 273Q125 250 123 234T120 205T119 181Q119 121 146 93T230 65Z" />
<glyph unicode="b" glyph-name="b" horiz-adv-x="567" d="M279 -12Q223 -12 183 9T122 75H115L93 0H23L150 723H238L192 460H198Q220 488 246 505T302 530T362 538Q415 538 453 517T513 454T534 347Q534 328 532 306T525 259Q509 164 475 105T392 17T279 -12ZM262
65Q306 65 339 83T396 142T432 253Q436 277 438 293T442 322T443 345Q443 385 431 410T393 448T329 461Q303 461 277 452T227 421T186 363T158 271Q155 251 153 236T150 209T149 187Q149 147 161 120T198 79T262 65Z" />
<glyph unicode="c" glyph-name="c" horiz-adv-x="519" d="M241 -12Q173 -12 127 9T58 74T35 185Q35 211 37 237T46 290Q58 347 79 392T132 470T207 520T307 538Q373 538 415 520T478 467T499 384Q499 372 498 359T494 331H406Q408 342 409 352T410 373Q410 403
400 423T367 454T308 465Q265 465 230 445T171 383T135 276Q131 254 129 238T126 210T125 187Q125 143 138 116T177 75T239 62Q284 62 313 78T361 124T386 195H470Q461 134 434 88T359 15T241 -12Z" />
<glyph unicode="d" glyph-name="d" horiz-adv-x="567" d="M210 -12Q155 -12 116 9T56 74T35 179Q35 200 37 224T43 275Q55 343 77 392T131 474T202 522T286 538Q321 538 350 530T403 505T438 460H445L491 723H579L452 0H382L385 75H378Q345 31 302 10T210 -12ZM235
65Q282 65 317 86T375 150T409 252Q412 273 414 288T417 314T418 336Q418 384 403 411T363 450T308 461Q261 461 227 442T170 383T136 278Q132 254 130 237T127 207T126 183Q126 120 154 93T235 65Z" />
<glyph unicode="e" glyph-name="e" horiz-adv-x="548" d="M248 -12Q177 -12 130 9T59 75T35 185Q35 212 38 239T46 292Q61 363 93 418T179 506T315 538Q383 538 427 516T493 451T515 348Q515 325 512 297T501 241H130Q128 226 127 213T125 187Q125 143 138 115T180
74T249 61Q275 61 299 67T343 88T378 124T401 179H487Q477 131 455 95T402 36T332 0T248 -12ZM142 307H422Q425 321 426 333T427 356Q427 393 415 417T377 453T314 466Q270 466 236 448T179 394T142 307Z" />
<glyph unicode="f" glyph-name="f" horiz-adv-x="280" d="M-11 -182Q-25 -182 -38 -181T-62 -177T-81 -171L-70 -109H-19Q6 -109 20 -97T39 -60L129 452H53L65 526H142L157 608Q163 638 175 666T216 713T296 731Q309 731 322 730T346 726T365 720L354 658H302Q277
658 263 646T245 609L230 526H331L318 452H217L127 -61Q122 -91 109 -119T68 -164T-11 -182Z" />
<glyph unicode="g" glyph-name="g" horiz-adv-x="556" d="M186 -182Q135 -182 94 -169T30 -129T6 -62Q6 -55 7 -46T11 -25H96Q95 -30 95 -34T94 -42Q94 -66 107 -81T143 -102T193 -108Q243 -108 278 -91T336 -40T367 46Q369 57 370 67T374 86H367Q346 59 320 42T265
16T204 8Q151 8 113 28T53 90T32 196Q32 214 34 234T40 278Q64 415 127 476T284 538Q340 538 379 517T440 451H447L468 526H539L457 55Q442 -30 409 -82T321 -158T186 -182ZM237 85Q264 85 290 94T340 124T380 179T405 265Q408 285 410 299T413 324T414 345Q414
383 402 409T365 448T301 461Q260 461 226 444T168 388T133 283Q130 261 128 245T125 219T124 198Q124 159 136 134T173 97T237 85Z" />
<glyph unicode="h" glyph-name="h" horiz-adv-x="563" d="M23 0L150 723H238L192 460H198Q222 486 249 503T308 529T373 538Q416 538 449 525T501 484T520 409Q520 395 519 379T514 346L453 0H365L425 341Q427 353 428 364T430 386Q430 415 419 431T387 453T340
460Q311 460 282 450T229 418T187 365T162 292L111 0H23Z" />
<glyph unicode="i" glyph-name="i" horiz-adv-x="226" d="M131 625L148 723H236L219 625H131ZM23 0L116 526H204L111 0H23Z" />
<glyph unicode="j" glyph-name="j" horiz-adv-x="223" d="M129 625L147 723H235L218 625H129ZM-27 -182Q-39 -182 -53 -181T-79 -177T-99 -171L-89 -109H-44Q-20 -109 -7 -97T11 -62L115 526H203L99 -64Q93 -94 80 -121T41 -165T-27 -182Z" />
<glyph unicode="k" glyph-name="k" horiz-adv-x="514" d="M23 0L150 723H238L159 273L424 526H531L316 320L448 0H353L251 263L140 165L111 0H23Z" />
<glyph unicode="l" glyph-name="l" horiz-adv-x="225" d="M23 0L150 723H238L111 0H23Z" />
<glyph unicode="m" glyph-name="m" horiz-adv-x="860" d="M23 0L115 526H184L179 447H186Q212 479 240 499T298 528T363 538Q413 538 448 517T494 447H501Q527 479 555 499T615 528T681 538Q741 538 779 509T818 410Q818 397 816 382T811 350L749 0H661L722 344Q724
357 725 367T727 386Q727 416 716 432T686 454T643 460Q608 460 574 441T516 385T482 295L430 0H342L403 344Q405 357 406 367T407 387Q407 416 397 432T367 454T324 460Q289 460 255 441T197 385T163 295L111 0H23Z" />
<glyph unicode="n" glyph-name="n" horiz-adv-x="563" d="M23 0L115 526H184L179 447H186Q212 478 242 498T306 528T373 538Q416 538 449 525T501 484T520 409Q520 395 519 379T514 346L453 0H365L425 341Q427 354 428 365T430 386Q430 415 419 431T387 453T340
460Q311 460 283 450T230 418T187 365T162 292L111 0H23Z" />
<glyph unicode="o" glyph-name="o" horiz-adv-x="570" d="M245 -12Q176 -12 129 9T58 74T33 185Q33 205 35 226T42 271Q58 364 95 422T189 509T324 538Q394 538 441 517T512 451T536 339Q536 320 534 299T528 255Q512 163 475 104T381 17T245 -12ZM249 62Q299
62 336 82T398 144T434 252Q438 275 440 290T443 317T444 339Q444 382 430 409T389 450T319 464Q269 464 232 444T171 382T135 274Q131 251 129 235T125 208T124 187Q124 143 138 116T180 76T249 62Z" />
<glyph unicode="p" glyph-name="p" horiz-adv-x="567" d="M-8 -173L115 526H184L181 451H188Q221 495 264 516T356 538Q412 538 451 517T511 454T532 347Q532 326 531 302T524 251Q508 161 473 103T389 17T281 -12Q246 -12 216 -4T164 21T128 66H122L80 -173H-8ZM259
65Q306 65 340 84T396 143T430 248Q435 272 437 289T440 320T441 343Q441 385 428 411T391 449T332 461Q285 461 250 440T191 377T158 274Q154 253 152 238T149 212T148 190Q148 142 163 115T203 76T259 65Z" />
<glyph unicode="q" glyph-name="q" horiz-adv-x="567" d="M333 -173L375 66H369Q348 38 322 21T266 -4T206 -12Q153 -12 114 9T53 72T32 179Q32 199 34 221T41 268Q58 363 92 422T175 510T288 538Q345 538 385 517T445 451H452L473 526H544L421 -173H333ZM238
65Q265 65 291 74T340 105T381 163T409 255Q412 275 414 290T416 318T417 339Q417 379 406 406T369 447T305 461Q262 461 228 443T171 384T135 273Q131 250 129 234T125 205T124 181Q124 121 152 93T238 65Z" />
<glyph unicode="r" glyph-name="r" horiz-adv-x="332" d="M23 0L115 526H184L179 441H184Q196 463 214 485T258 523T320 538Q336 538 348 536T367 530L353 449H319Q287 449 260 437T213 404T180 353T161 287L111 0H23Z" />
<glyph unicode="s" glyph-name="s" horiz-adv-x="510" d="M216 -12Q167 -12 129 -3T65 23T26 64T12 119Q12 131 14 142T19 163H106Q104 155 103 147T101 133Q101 107 116 91T158 67T221 60Q249 60 273 65T315 82T344 110T355 152Q355 172 344 185T312 208T266
225T214 241Q188 249 163 259T117 283T84 318T72 372Q72 414 89 445T136 497T205 528T289 538Q329 538 363 531T423 508T463 469T478 416Q478 403 476 392T472 375H386Q387 382 387 387T388 398Q388 423 375 438T339 459T286 466Q260 466 238 462T199 448T173 423T163
388Q163 364 180 351T224 329T282 310Q312 300 341 290T394 266T434 228T449 169Q449 123 432 89T383 33T310 -1T216 -12Z" />
<glyph unicode="t" glyph-name="t" horiz-adv-x="297" d="M149 -12Q114 -12 95 -1T67 29T58 71Q58 78 59 85T61 101L122 452H54L67 526H136L179 673H248L222 526H321L308 452H210L151 121Q150 115 149 106T147 93Q147 78 156 70T184 62H240L230 4Q219 -1 205 -4T177
-9T149 -12Z" />
<glyph unicode="u" glyph-name="u" horiz-adv-x="562" d="M189 -12Q147 -12 113 1T60 42T41 117Q41 132 43 147T48 180L109 526H197L137 184Q136 172 134 161T132 140Q132 111 143 95T175 72T222 66Q252 66 280 76T332 106T374 158T399 230L451 526H540L447 0H377L382
79H376Q351 48 321 28T257 -2T189 -12Z" />
<glyph unicode="v" glyph-name="v" horiz-adv-x="504" d="M162 0L62 526H151L199 263Q202 244 206 215T215 156T222 101H227Q238 124 251 154T279 213T304 263L442 526H536L250 0H162Z" />
<glyph unicode="w" glyph-name="w" horiz-adv-x="723" d="M124 0L59 526H147L175 261Q176 245 178 218T182 163T186 112H190Q199 134 210 162T231 216T249 261L360 526H454L474 261Q475 243 476 216T479 162T482 112H486Q495 132 506 159T529 214T549 261L668
526H756L506 0H417L397 282Q396 299 395 323T392 371T391 415H386Q379 397 370 372T351 324T334 282L214 0H124Z" />
<glyph unicode="x" glyph-name="x" horiz-adv-x="513" d="M-33 0L205 271L68 526H166L265 335H271L433 526H535L309 268L452 0H354L251 201H245L70 0H-33Z" />
<glyph unicode="y" glyph-name="y" horiz-adv-x="504" d="M44 -182Q18 -182 -1 -179T-28 -174L-17 -109H32Q57 -109 80 -100T125 -67T170 3L61 526H150L202 262Q207 240 212 210T222 151T230 98H235Q242 115 251 135T270 177T289 219T307 255L443 526H535L270
15Q247 -29 225 -65T176 -127T118 -167T44 -182Z" />
<glyph unicode="z" glyph-name="z" horiz-adv-x="498" d="M-14 0L-6 47L350 452H86L99 526H496L488 480L130 74H433L420 0H-14Z" />
<glyph unicode="{" glyph-name="braceleft" horiz-adv-x="353" d="M233 -159Q191 -159 157 -151T103 -120T82 -57Q82 -44 86 -17T97 43T110 108T120 165T125 195Q125 226 102 235T48 245L63 330Q96 330 124 341T159 388L197 604Q206 657 233 685T300 724T390 735L381
679Q363 679 342 674T304 656T281 617L234 398Q227 364 215 340T179 304T114 292L112 283Q160 283 178 264T197 208Q197 197 194 169T186 106T176 36T168 -22T164 -52Q164 -72 175 -83T205 -99T242 -103L233 -159Z" />
<glyph unicode="|" glyph-name="bar" horiz-adv-x="245" d="M88 -183V723H161V-183H88Z" />
<glyph unicode="}" glyph-name="braceright" horiz-adv-x="353" d="M129 735Q171 735 205 727T259 697T279 633Q279 620 275 593T265 533T252 468T241 411T237 381Q237 351 260 341T314 331L299 246Q266 246 238 235T203 188L165 -28Q156 -81 129 -109T62 -148T-28
-159L-19 -103Q-1 -103 20 -98T58 -80T81 -41L128 178Q136 213 148 236T183 272T248 284L250 293Q202 293 183 312T164 368Q164 379 167 407T176 470T186 540T194 598T198 628Q198 649 187 660T157 675T119 679L129 735Z" />
<glyph unicode="~" glyph-name="asciitilde" horiz-adv-x="625" d="M30 215L45 301Q45 301 56 312T87 337T137 363T203 374Q232 374 256 365T303 344T350 322T404 313Q436 313 464 324T515 349T549 375T562 386L547 299Q547 299 536 288T505 263T455 238T390 227Q362
227 337 236T289 257T242 278T188 287Q156 287 128 276T77 251T43 226T30 215Z" />
<glyph unicode="&#xa0;" glyph-name="uni00A0" horiz-adv-x="209" />
<glyph unicode="&#xa1;" glyph-name="exclamdown" horiz-adv-x="273" d="M11 -160L124 345H181L116 -160H11ZM116 421L135 526H233L214 421H116Z" />
<glyph unicode="&#xa2;" glyph-name="cent" horiz-adv-x="570" d="M199 -49L336 723H385L248 -49H199ZM274 67Q206 67 160 87T91 152T68 264Q68 289 70 315T79 369Q90 426 111 471T165 549T240 599T340 617Q405 617 447 598T511 545T532 463Q532 450 531 437T527
410H439Q441 421 442 431T443 451Q443 481 433 501T400 532T341 543Q297 543 263 523T204 462T168 355Q164 333 162 317T159 288T158 265Q158 222 171 195T210 154T272 140Q317 140 346 156T393 203T418 273H503Q494 213 466 166T391 93T274 67Z" />
<glyph unicode="&#xa3;" glyph-name="sterling" horiz-adv-x="569" d="M3 0L16 77H91L130 302H42L54 378H143L167 510Q179 575 209 616T286 678T390 698Q445 698 486 683T549 636T571 556Q571 542 570 530T565 497H478Q480 510 481 518T482 531T483 540Q483 569
471 587T439 615T390 624Q357 624 329 612T282 577T257 517L232 378H397L384 302H218L170 77H491L478 0H3Z" />
<glyph unicode="&#xa4;" glyph-name="currency" horiz-adv-x="569" d="M94 99L51 143L105 198Q79 230 67 269T54 350Q54 392 66 432T105 502L50 556L95 601L152 545Q182 571 220 584T300 598Q341 598 380 585T448 545L505 601L550 556L495 502Q522 472 534 432T546
350Q546 309 534 270T495 198L549 143L506 99L450 156Q420 129 381 116T300 102Q259 102 220 115T150 156L94 99ZM300 166Q350 166 390 191T455 258T480 350Q480 400 456 441T390 507T300 532Q251 532 210 507T145 441T120 350Q120 300 144 259T210 192T300 166Z"
/>
<glyph unicode="&#xa5;" glyph-name="yen" horiz-adv-x="562" d="M190 0L219 159H22L32 222H229L242 292H45L56 355H228Q218 376 207 402T190 439L85 686H182L266 472Q270 464 275 448T288 414T300 381H304Q315 396 327 413T352 447T370 472L528 686H627L434 434Q424
421 405 397T371 355H540L529 292H333L320 222H516L505 159H309L281 0H190Z" />
<glyph unicode="&#xa6;" glyph-name="brokenbar" horiz-adv-x="245" d="M88 351V723H161V351H88ZM88 -183V189H161V-183H88Z" />
<glyph unicode="&#xa7;" glyph-name="section" horiz-adv-x="568" d="M211 -182Q159 -182 121 -173T59 -147T22 -108T9 -58Q9 -48 11 -36T16 -17H108Q107 -23 106 -29T105 -42Q105 -60 115 -75T150 -100T220 -110Q264 -110 296 -97T345 -62T363 -11Q363 14 346
31T300 61T239 86T173 111T111 142T66 186T49 249Q49 276 57 300T82 345T121 383T170 414Q143 431 127 456T111 518Q111 554 122 582T155 632T207 668T274 690T356 698Q408 698 446 689T508 663T545 624T558 575Q558 564 556 553T551 533H459Q460 539 460 545T461
558Q461 575 451 590T417 615T348 625Q304 625 272 613T222 578T204 527Q204 502 221 485T266 454T328 429T394 404T455 372T501 327T518 264Q518 237 509 214T484 169T446 131T397 102Q424 84 440 60T456 0Q456 -36 445 -65T412 -116T360 -152T293 -174T211 -182ZM338
135Q357 145 376 160T410 198T424 246Q424 276 407 296T360 329T297 355T228 381Q210 371 190 355T156 318T142 270Q142 240 160 220T207 185T270 160T338 135Z" />
<glyph unicode="&#xa8;" glyph-name="dieresis" horiz-adv-x="280" d="M65 629L81 721H169L153 629H65ZM255 629L272 721H360L344 629H255Z" />
<glyph unicode="&#xa9;" glyph-name="copyright" horiz-adv-x="752" d="M391 -12Q314 -12 249 14T137 88T63 201T36 343Q36 420 62 485T136 597T249 671T391 698Q468 698 533 672T645 598T719 485T746 343Q746 266 720 201T646 89T533 15T391 -12ZM388 131Q335
131 297 152T238 219T218 342Q218 418 237 464T295 531T388 553Q437 553 472 537T526 484T545 389H485Q485 431 474 455T441 490T388 501Q336 501 307 466T278 349V335Q278 282 290 248T328 199T388 183Q419 183 441 194T476 230T488 294H545Q545 242 526 206T472
150T388 131ZM391 34Q480 34 549 74T657 184T697 343Q697 432 658 501T549 611T391 651Q302 651 233 611T124 502T84 343Q84 254 123 184T232 74T391 34Z" />
<glyph unicode="&#xaa;" glyph-name="ordfeminine" horiz-adv-x="385" d="M180 330Q130 330 102 363T73 461Q73 478 74 495T79 530Q88 575 107 613T157 675T232 698Q264 698 287 686T323 645H327L344 690H395L379 598Q375 575 370 549T361 498T353 451T347 416T345
398Q345 388 350 385T364 381H388L381 340Q372 336 361 333T336 330Q314 330 302 339T286 366Q286 372 286 378T288 389H284Q264 360 237 345T180 330ZM197 385Q223 385 241 398T272 433T291 479Q298 498 303 521T309 566Q309 596 300 613T277 636T244 643Q200
643 176 608T142 523Q139 507 138 493T137 463Q137 424 151 405T197 385Z" />
<glyph unicode="&#xab;" glyph-name="guillemotleft" horiz-adv-x="550" d="M189 126L68 326L251 526H331L167 326L260 126H189ZM384 126L263 326L446 526H526L362 326L455 126H384Z" />
<glyph unicode="&#xac;" glyph-name="logicalnot" horiz-adv-x="625" d="M437 198L467 369H68L82 443H556L512 198H437Z" />
<glyph unicode="&#xad;" glyph-name="uni00AD" horiz-adv-x="333" d="M34 226L49 315H302L286 226H34Z" />
<glyph unicode="&#xae;" glyph-name="registered" horiz-adv-x="752" d="M391 -12Q314 -12 249 14T137 88T63 201T36 343Q36 420 62 485T136 597T249 671T391 698Q468 698 533 672T645 598T719 485T746 343Q746 266 720 201T646 89T533 15T391 -12ZM391 34Q480
34 549 74T657 184T697 343Q697 432 658 501T549 611T391 651Q302 651 233 611T124 502T84 343Q84 254 123 184T232 74T391 34ZM251 137V549H432Q495 549 526 516T558 425Q558 384 540 353T486 308L573 137H508L428 297H311V137H251ZM311 349H430Q460 349 478 369T496
425Q496 460 479 478T430 497H311V349Z" />
<glyph unicode="&#xaf;" glyph-name="overscore" horiz-adv-x="300" d="M66 635L77 700H376L366 635H66Z" />
<glyph unicode="&#xb0;" glyph-name="degree" horiz-adv-x="400" d="M254 428Q217 428 186 446T137 495T118 563Q118 601 136 631T186 680T254 698Q291 698 322 680T371 632T389 563Q389 526 371 495T323 446T254 428ZM254 481Q288 481 311 505T334 563Q334 597
311 620T254 644Q220 644 196 621T171 563Q171 530 195 506T254 481Z" />
<glyph unicode="&#xb1;" glyph-name="plusminus" horiz-adv-x="625" d="M206 127L244 344H48L61 420H258L296 638H374L335 420H533L520 344H322L284 127H206ZM-13 0L1 75H472L459 0H-13Z" />
<glyph unicode="&#xb2;" glyph-name="uni00B2" horiz-adv-x="346" d="M75 440L80 462Q86 491 104 514T150 555T205 591T257 625T297 661T313 704Q313 722 300 733T261 745Q236 745 220 737T196 716T184 686L179 662H121Q121 670 121 677T123 691Q130 729 151 752T203
787T266 798Q303 798 327 787T363 757T375 711Q375 682 364 659T334 617T292 583T245 554T200 526T163 496H340L330 440H75Z" />
<glyph unicode="&#xb3;" glyph-name="uni00B3" horiz-adv-x="346" d="M214 428Q152 428 121 450T89 513Q89 518 90 526T93 547H154Q152 536 152 532T151 524Q151 503 166 492T210 481Q233 481 251 487T281 509T292 547Q292 564 283 573T260 586T227 590H186L195
643H234Q253 643 271 649T301 669T313 705Q313 726 298 736T261 746Q244 746 228 740T202 722T187 691L186 681H124L126 695Q131 726 150 749T198 785T260 798Q315 798 345 776T375 711Q375 689 367 672T344 642T311 621V617Q331 607 342 589T354 545Q354 508 335
482T284 442T214 428Z" />
<glyph unicode="&#xb4;" glyph-name="acute" horiz-adv-x="187" d="M58 591L167 723H268V720L137 591H58Z" />
<glyph unicode="&#xb5;" glyph-name="uni00B5" horiz-adv-x="567" d="M-9 -179L115 526H203L144 184Q142 172 141 161T139 140Q139 111 150 95T181 72T228 66Q257 66 285 76T337 106T379 158T404 230L456 526H545L452 0H382L387 79H381Q356 48 326 28T263 -2T195
-12Q169 -12 148 -7T110 10Q109 -4 107 -18T103 -46L79 -179H-9Z" />
<glyph unicode="&#xb6;" glyph-name="paragraph" horiz-adv-x="565" d="M177 -170L251 251Q203 254 165 276T105 336T83 428Q83 492 104 540T162 620T246 669T347 686H596L587 631H524L382 -170H315L456 631H385L244 -170H177Z" />
<glyph unicode="&#xb7;" glyph-name="middot" horiz-adv-x="333" d="M123 303L142 410H243L224 303H123Z" />
<glyph unicode="&#xb8;" glyph-name="cedilla" horiz-adv-x="210" d="M14 -176Q-8 -176 -33 -174T-76 -168L-69 -129H23Q48 -129 60 -121T72 -95Q72 -86 64 -82T37 -77H-14L18 11H77L61 -39Q97 -40 121 -50T146 -90Q146 -115 134 -132T104 -158T62 -172T14 -176Z" />
<glyph unicode="&#xb9;" glyph-name="uni00B9" horiz-adv-x="346" d="M88 440L98 496H187L225 711H137L144 752Q164 754 186 758T229 771T269 793H301L248 496H329L319 440H88Z" />
<glyph unicode="&#xba;" glyph-name="ordmasculine" horiz-adv-x="379" d="M210 330Q143 330 108 362T73 461Q73 477 74 494T79 528Q88 579 110 617T170 677T257 699Q324 699 359 667T395 567Q395 550 394 535T389 503Q380 452 357 413T297 352T210 330ZM211 384Q262
384 289 419T326 507Q328 518 329 527T330 546T331 565Q331 608 312 626T255 644Q205 644 178 610T141 521Q140 512 139 502T137 483T136 463Q136 421 156 403T211 384Z" />
<glyph unicode="&#xbb;" glyph-name="guillemotright" horiz-adv-x="550" d="M383 526L504 326L321 126H241L405 326L312 526H383ZM187 526L309 326L125 126H46L209 326L117 526H187Z" />
<glyph unicode="&#xbc;" glyph-name="onequarter" horiz-adv-x="845" d="M77 -12L748 698H823L152 -12H77ZM70 340L80 396H169L207 611H119L126 652Q146 654 168 658T211 671T251 693H283L230 396H311L301 340H70ZM639 0L653 79H491L499 126Q539 178 571 235T631
357H696Q683 324 665 290T628 225T592 170T562 132H662L678 221Q684 233 690 245T703 270T715 295H752L723 132H768L759 79H713L699 0H639Z" />
<glyph unicode="&#xbd;" glyph-name="onehalf" horiz-adv-x="845" d="M77 -12L748 698H823L152 -12H77ZM70 340L80 396H169L207 611H119L126 652Q146 654 168 658T211 671T251 693H283L230 396H311L301 340H70ZM481 0L485 22Q491 51 510 74T555 115T610 151T662
185T702 221T718 264Q718 282 705 293T666 305Q642 305 626 297T601 276T589 246L585 222H526Q526 230 527 237T529 251Q536 289 557 312T608 347T671 358Q708 358 732 347T768 317T781 271Q781 242 770 219T740 177T698 143T650 114T605 86T568 56H745L735 0H481Z"
/>
<glyph unicode="&#xbe;" glyph-name="threequarters" horiz-adv-x="845" d="M77 -12L748 698H823L152 -12H77ZM196 328Q134 328 103 350T71 413Q71 418 72 426T75 447H136Q134 436 134 432T133 424Q133 403 148 392T192 381Q215 381 233 387T263 409T274 447Q274
464 265 473T242 486T209 490H168L177 543H216Q235 543 253 549T283 569T295 605Q295 626 280 636T243 646Q226 646 210 640T184 622T169 591L168 581H106L108 595Q113 626 132 649T180 685T242 698Q297 698 327 676T357 611Q357 589 349 572T326 542T293 521V517Q313
507 324 489T336 445Q336 408 317 382T266 342T196 328ZM639 0L653 79H491L499 126Q539 178 571 235T631 357H696Q683 324 665 290T628 225T592 170T562 132H662L678 221Q684 233 690 245T703 270T715 295H752L723 132H768L759 79H713L699 0H639Z" />
<glyph unicode="&#xbf;" glyph-name="questiondown" horiz-adv-x="626" d="M248 -172Q194 -172 156 -160T95 -126T62 -76T51 -18Q51 32 66 67T107 128T161 174T216 212T262 252T286 303L294 349H378L368 293Q361 252 343 224T299 174T248 135T199 98T162 53T148
-8Q148 -26 155 -46T185 -79T252 -93Q293 -93 322 -80T371 -47T401 -4T415 40Q416 46 416 52T417 64H506Q506 33 496 1T466 -63T415 -118T343 -157T248 -172ZM297 421L316 526H414L395 421H297Z" />
<glyph unicode="&#xc0;" glyph-name="Agrave" horiz-adv-x="682" d="M-31 0L355 686H475L621 0H524L489 172H165L70 0H-31ZM211 254H471L428 467Q426 482 423 499T415 535T409 571T404 601H398Q388 581 375 555T349 505T328 466L211 254ZM398 736L310 865L311
868H410L475 736H398Z" />
<glyph unicode="&#xc1;" glyph-name="Aacute" horiz-adv-x="682" d="M-31 0L355 686H475L621 0H524L489 172H165L70 0H-31ZM211 254H471L428 467Q426 482 423 499T415 535T409 571T404 601H398Q388 581 375 555T349 505T328 466L211 254ZM384 736L494 868H598V865L465
736H384Z" />
<glyph unicode="&#xc2;" glyph-name="Acircumflex" horiz-adv-x="682" d="M-31 0L355 686H475L621 0H524L489 172H165L70 0H-31ZM211 254H471L428 467Q426 482 423 499T415 535T409 571T404 601H398Q388 581 375 555T349 505T328 466L211 254ZM273 736L403 868H493L574
736H492L424 845H468L361 736H273Z" />
<glyph unicode="&#xc3;" glyph-name="Atilde" horiz-adv-x="682" d="M-31 0L355 686H475L621 0H524L489 172H165L70 0H-31ZM211 254H471L428 467Q426 482 423 499T415 535T409 571T404 601H398Q388 581 375 555T349 505T328 466L211 254ZM275 766Q281 793 293
815T327 851T378 865Q404 865 426 857T470 840T514 831Q529 831 538 840T553 865H609Q604 838 591 816T556 780T504 766Q480 766 458 775T414 792T370 801Q354 801 345 792T330 766H275Z" />
<glyph unicode="&#xc4;" glyph-name="Adieresis" horiz-adv-x="682" d="M-31 0L355 686H475L621 0H524L489 172H165L70 0H-31ZM211 254H471L428 467Q426 482 423 499T415 535T409 571T404 601H398Q388 581 375 555T349 505T328 466L211 254ZM298 774L314 868H401L385
774H298ZM485 774L501 868H588L572 774H485Z" />
<glyph unicode="&#xc5;" glyph-name="Aring" horiz-adv-x="682" d="M-31 0L355 686H475L621 0H524L489 172H165L70 0H-31ZM211 254H471L428 467Q426 482 423 499T415 535T409 571T404 601H398Q388 581 375 555T349 505T328 466L211 254ZM430 730Q391 730 366 752T341
809Q341 840 356 864T398 903T459 917Q497 917 522 895T547 838Q547 807 532 783T491 744T430 730ZM437 780Q454 780 466 786T485 804T492 830Q492 846 481 856T451 866Q436 866 424 860T404 842T397 816Q397 801 408 791T437 780Z" />
<glyph unicode="&#xc6;" glyph-name="AE" horiz-adv-x="1000" d="M-43 0L418 686H1013L999 604H550L569 392H918L903 310H577L597 82H913L899 0H512L498 173H174L59 0H-43ZM227 254H491L468 515Q468 524 467 535T465 558T463 581T462 602H457Q448 589 438 573T418
542T400 515L227 254Z" />
<glyph unicode="&#xc7;" glyph-name="Ccedilla" horiz-adv-x="728" d="M341 -12Q204 -12 131 54T57 255Q57 283 59 310T66 363Q85 466 135 541T265 657T449 698Q530 698 591 676T685 609T718 494Q718 481 717 467T713 439H616Q618 450 619 461T620 482Q620 528
599 557T539 601T444 616Q386 616 339 598T257 545T199 462T165 355Q163 340 161 327T158 303T156 280T155 258Q155 192 177 151T241 90T343 70Q409 70 459 89T542 148T586 247H680Q665 158 618 101T499 16T341 -12ZM302 -176Q279 -176 255 -174T212 -168L219 -129H310Q336
-129 348 -121T360 -95Q360 -86 352 -82T325 -77H274L306 11H365L349 -39Q385 -40 409 -50T433 -90Q433 -115 422 -132T391 -158T349 -172T302 -176Z" />
<glyph unicode="&#xc8;" glyph-name="Egrave" horiz-adv-x="677" d="M41 0L161 686H690L675 604H242L205 392H594L580 310H190L150 82H590L575 0H41ZM402 736L313 865L314 868H414L478 736H402Z" />
<glyph unicode="&#xc9;" glyph-name="Eacute" horiz-adv-x="677" d="M41 0L161 686H690L675 604H242L205 392H594L580 310H190L150 82H590L575 0H41ZM387 736L498 868H601V865L468 736H387Z" />
<glyph unicode="&#xca;" glyph-name="Ecircumflex" horiz-adv-x="677" d="M41 0L161 686H690L675 604H242L205 392H594L580 310H190L150 82H590L575 0H41ZM277 736L406 868H496L577 736H496L428 845H472L364 736H277Z" />
<glyph unicode="&#xcb;" glyph-name="Edieresis" horiz-adv-x="677" d="M41 0L161 686H690L675 604H242L205 392H594L580 310H190L150 82H590L575 0H41ZM301 774L317 868H405L388 774H301ZM488 774L505 868H592L575 774H488Z" />
<glyph unicode="&#xcc;" glyph-name="Igrave" horiz-adv-x="267" d="M40 0L161 686H256L135 0H40ZM188 736L100 865L101 868H200L265 736H188Z" />
<glyph unicode="&#xcd;" glyph-name="Iacute" horiz-adv-x="267" d="M40 0L161 686H256L135 0H40ZM174 736L284 868H388V865L255 736H174Z" />
<glyph unicode="&#xce;" glyph-name="Icircumflex" horiz-adv-x="267" d="M40 0L161 686H256L135 0H40ZM63 736L193 868H283L364 736H283L214 845H258L151 736H63Z" />
<glyph unicode="&#xcf;" glyph-name="Idieresis" horiz-adv-x="267" d="M40 0L161 686H256L135 0H40ZM88 774L104 868H191L175 774H88ZM275 774L291 868H378L362 774H275Z" />
<glyph unicode="&#xd0;" glyph-name="Eth" horiz-adv-x="734" d="M8 310L22 386H397L384 310H8ZM40 0L161 686H408Q550 686 627 623T705 423Q705 396 703 370T697 319Q679 217 627 146T495 38T310 0H40ZM150 82H305Q368 82 418 99T506 147T566 226T599 332Q602
349 603 364T605 392T606 418Q606 485 582 526T512 585T401 604H242L150 82Z" />
<glyph unicode="&#xd1;" glyph-name="Ntilde" horiz-adv-x="736" d="M41 0L161 686H253L498 236Q504 227 511 213T525 184T538 158L543 159Q546 176 548 196T554 234L633 686H725L605 0H519L275 445Q267 460 253 487T230 534H224Q222 516 219 492T212 450L133
0H41ZM303 766Q309 793 322 815T356 851T406 865Q432 865 454 857T498 840T542 831Q557 831 566 840T581 865H637Q632 838 619 816T584 780T533 766Q508 766 486 775T442 792T398 801Q383 801 374 792T358 766H303Z" />
<glyph unicode="&#xd2;" glyph-name="Ograve" horiz-adv-x="788" d="M354 -12Q261 -12 194 18T92 108T57 256Q57 282 59 306T65 354Q83 459 135 536T269 655T462 698Q556 698 622 668T724 578T760 430Q760 406 759 382T752 334Q735 229 683 151T547 31T354 -12ZM357
70Q421 70 471 89T559 143T619 228T653 339Q656 352 657 364T660 386T661 407T662 426Q662 491 638 533T568 595T459 616Q396 616 346 598T258 544T197 459T163 348Q160 335 159 323T157 300T156 280T155 260Q155 196 179 154T248 91T357 70ZM448 736L359 865L360
868H460L524 736H448Z" />
<glyph unicode="&#xd3;" glyph-name="Oacute" horiz-adv-x="788" d="M354 -12Q261 -12 194 18T92 108T57 256Q57 282 59 306T65 354Q83 459 135 536T269 655T462 698Q556 698 622 668T724 578T760 430Q760 406 759 382T752 334Q735 229 683 151T547 31T354 -12ZM357
70Q421 70 471 89T559 143T619 228T653 339Q656 352 657 364T660 386T661 407T662 426Q662 491 638 533T568 595T459 616Q396 616 346 598T258 544T197 459T163 348Q160 335 159 323T157 300T156 280T155 260Q155 196 179 154T248 91T357 70ZM433 736L544 868H647V865L514
736H433Z" />
<glyph unicode="&#xd4;" glyph-name="Ocircumflex" horiz-adv-x="788" d="M354 -12Q261 -12 194 18T92 108T57 256Q57 282 59 306T65 354Q83 459 135 536T269 655T462 698Q556 698 622 668T724 578T760 430Q760 406 759 382T752 334Q735 229 683 151T547 31T354
-12ZM357 70Q421 70 471 89T559 143T619 228T653 339Q656 352 657 364T660 386T661 407T662 426Q662 491 638 533T568 595T459 616Q396 616 346 598T258 544T197 459T163 348Q160 335 159 323T157 300T156 280T155 260Q155 196 179 154T248 91T357 70ZM323 736L452
868H542L623 736H542L474 845H518L410 736H323Z" />
<glyph unicode="&#xd5;" glyph-name="Otilde" horiz-adv-x="788" d="M354 -12Q261 -12 194 18T92 108T57 256Q57 282 59 306T65 354Q83 459 135 536T269 655T462 698Q556 698 622 668T724 578T760 430Q760 406 759 382T752 334Q735 229 683 151T547 31T354 -12ZM357
70Q421 70 471 89T559 143T619 228T653 339Q656 352 657 364T660 386T661 407T662 426Q662 491 638 533T568 595T459 616Q396 616 346 598T258 544T197 459T163 348Q160 335 159 323T157 300T156 280T155 260Q155 196 179 154T248 91T357 70ZM324 766Q330 793 343
815T377 851T427 865Q453 865 475 857T519 840T563 831Q578 831 587 840T602 865H659Q654 838 640 816T605 780T554 766Q529 766 507 775T463 792T419 801Q404 801 395 792T380 766H324Z" />
<glyph unicode="&#xd6;" glyph-name="Odieresis" horiz-adv-x="788" d="M354 -12Q261 -12 194 18T92 108T57 256Q57 282 59 306T65 354Q83 459 135 536T269 655T462 698Q556 698 622 668T724 578T760 430Q760 406 759 382T752 334Q735 229 683 151T547 31T354
-12ZM357 70Q421 70 471 89T559 143T619 228T653 339Q656 352 657 364T660 386T661 407T662 426Q662 491 638 533T568 595T459 616Q396 616 346 598T258 544T197 459T163 348Q160 335 159 323T157 300T156 280T155 260Q155 196 179 154T248 91T357 70ZM347 774L363
868H451L434 774H347ZM534 774L551 868H638L621 774H534Z" />
<glyph unicode="&#xd7;" glyph-name="multiply" horiz-adv-x="625" d="M122 46L74 103L258 258L138 403L197 455L317 309L500 465L548 407L364 252L484 107L425 55L305 201L122 46Z" />
<glyph unicode="&#xd8;" glyph-name="Oslash" horiz-adv-x="788" d="M354 -12Q261 -12 194 18T92 108T57 256Q57 282 59 306T65 354Q83 459 135 536T269 655T462 698Q556 698 622 668T724 578T760 430Q760 406 759 382T752 334Q735 229 683 151T547 31T354 -12ZM357
70Q421 70 471 89T559 143T619 228T653 339Q656 352 657 364T660 386T661 407T662 426Q662 491 638 533T568 595T459 616Q396 616 346 598T258 544T197 459T163 348Q160 335 159 323T157 300T156 280T155 260Q155 196 179 154T248 91T357 70ZM3 -49L727 735H812L88
-49H3Z" />
<glyph unicode="&#xd9;" glyph-name="Ugrave" horiz-adv-x="731" d="M328 -12Q210 -12 144 37T77 193Q77 208 79 228T85 268L159 686H254L178 256Q176 245 174 229T172 202Q172 134 213 102T330 70Q419 70 477 115T550 250L628 686H723L647 260Q630 165 589 105T482
16T328 -12ZM425 736L337 865L338 868H437L502 736H425Z" />
<glyph unicode="&#xda;" glyph-name="Uacute" horiz-adv-x="731" d="M328 -12Q210 -12 144 37T77 193Q77 208 79 228T85 268L159 686H254L178 256Q176 245 174 229T172 202Q172 134 213 102T330 70Q419 70 477 115T550 250L628 686H723L647 260Q630 165 589 105T482
16T328 -12ZM411 736L521 868H625V865L492 736H411Z" />
<glyph unicode="&#xdb;" glyph-name="Ucircumflex" horiz-adv-x="731" d="M328 -12Q210 -12 144 37T77 193Q77 208 79 228T85 268L159 686H254L178 256Q176 245 174 229T172 202Q172 134 213 102T330 70Q419 70 477 115T550 250L628 686H723L647 260Q630 165 589
105T482 16T328 -12ZM300 736L430 868H520L601 736H519L451 845H495L387 736H300Z" />
<glyph unicode="&#xdc;" glyph-name="Udieresis" horiz-adv-x="731" d="M328 -12Q210 -12 144 37T77 193Q77 208 79 228T85 268L159 686H254L178 256Q176 245 174 229T172 202Q172 134 213 102T330 70Q419 70 477 115T550 250L628 686H723L647 260Q630 165 589
105T482 16T328 -12ZM325 774L341 868H428L411 774H325ZM511 774L528 868H615L598 774H511Z" />
<glyph unicode="&#xdd;" glyph-name="Yacute" horiz-adv-x="655" d="M235 0L285 285L85 686H184L342 369H347L614 686H721L380 285L330 0H235ZM368 736L478 868H582V865L449 736H368Z" />
<glyph unicode="&#xde;" glyph-name="Thorn" horiz-adv-x="679" d="M40 0L161 686H256L236 570H451Q524 570 569 549T635 489T657 398Q657 340 639 294T587 215T509 165T407 147H161L135 0H40ZM175 229H403Q449 229 484 248T539 302T559 387Q559 435 532 461T448
488H221L175 229Z" />
<glyph unicode="&#xdf;" glyph-name="germandbls" horiz-adv-x="619" d="M23 0L114 516Q123 570 145 611T200 679T278 721T376 735Q429 735 469 724T536 692T577 642T591 577Q591 533 573 496T520 434T440 395V391Q496 375 526 336T557 233Q557 176 537 133T481
60T399 15T300 0H199L211 74H301Q352 74 389 95T446 152T466 233Q466 270 451 295T410 333T350 346H259L273 423H355Q391 423 423 441T477 490T498 561Q498 606 468 634T378 662Q332 662 296 646T235 598T202 518L111 0H23Z" />
<glyph unicode="&#xe0;" glyph-name="agrave" horiz-adv-x="561" d="M198 -12Q146 -12 108 9T48 72T27 179Q27 199 29 221T36 268Q52 362 86 422T169 510T281 538Q316 538 344 530T395 503T430 456H436L463 526H535L513 402Q507 368 500 328T485 249T473 176T464
119T460 89Q460 76 467 70T487 63H527L517 5Q507 0 491 -5T452 -11Q424 -11 407 1T384 38Q382 46 381 56T380 76L374 78Q341 32 296 10T198 -12ZM230 65Q256 65 282 74T331 106T372 164T399 255Q403 275 404 290T407 318T408 339Q408 379 397 406T361 447T297 461Q254
461 221 443T165 384T129 273Q125 250 123 234T120 205T119 181Q119 121 146 93T230 65ZM285 591L204 720L205 723H297L359 591H285Z" />
<glyph unicode="&#xe1;" glyph-name="aacute" horiz-adv-x="561" d="M198 -12Q146 -12 108 9T48 72T27 179Q27 199 29 221T36 268Q52 362 86 422T169 510T281 538Q316 538 344 530T395 503T430 456H436L463 526H535L513 402Q507 368 500 328T485 249T473 176T464
119T460 89Q460 76 467 70T487 63H527L517 5Q507 0 491 -5T452 -11Q424 -11 407 1T384 38Q382 46 381 56T380 76L374 78Q341 32 296 10T198 -12ZM230 65Q256 65 282 74T331 106T372 164T399 255Q403 275 404 290T407 318T408 339Q408 379 397 406T361 447T297 461Q254
461 221 443T165 384T129 273Q125 250 123 234T120 205T119 181Q119 121 146 93T230 65ZM274 591L382 723H484V720L352 591H274Z" />
<glyph unicode="&#xe2;" glyph-name="acircumflex" horiz-adv-x="561" d="M198 -12Q146 -12 108 9T48 72T27 179Q27 199 29 221T36 268Q52 362 86 422T169 510T281 538Q316 538 344 530T395 503T430 456H436L463 526H535L513 402Q507 368 500 328T485 249T473
176T464 119T460 89Q460 76 467 70T487 63H527L517 5Q507 0 491 -5T452 -11Q424 -11 407 1T384 38Q382 46 381 56T380 76L374 78Q341 32 296 10T198 -12ZM230 65Q256 65 282 74T331 106T372 164T399 255Q403 275 404 290T407 318T408 339Q408 379 397 406T361 447T297
461Q254 461 221 443T165 384T129 273Q125 250 123 234T120 205T119 181Q119 121 146 93T230 65ZM171 591L300 723H384L465 591H386L318 700H362L255 591H171Z" />
<glyph unicode="&#xe3;" glyph-name="atilde" horiz-adv-x="561" d="M198 -12Q146 -12 108 9T48 72T27 179Q27 199 29 221T36 268Q52 362 86 422T169 510T281 538Q316 538 344 530T395 503T430 456H436L463 526H535L513 402Q507 368 500 328T485 249T473 176T464
119T460 89Q460 76 467 70T487 63H527L517 5Q507 0 491 -5T452 -11Q424 -11 407 1T384 38Q382 46 381 56T380 76L374 78Q341 32 296 10T198 -12ZM230 65Q256 65 282 74T331 106T372 164T399 255Q403 275 404 290T407 318T408 339Q408 379 397 406T361 447T297 461Q254
461 221 443T165 384T129 273Q125 250 123 234T120 205T119 181Q119 121 146 93T230 65ZM163 622Q169 648 181 670T215 706T266 720Q292 720 314 712T358 695T402 686Q417 686 426 695T441 720H498Q492 693 479 671T444 635T392 622Q368 622 346 630T302 647T259
656Q243 656 233 647T218 622H163Z" />
<glyph unicode="&#xe4;" glyph-name="adieresis" horiz-adv-x="561" d="M198 -12Q146 -12 108 9T48 72T27 179Q27 199 29 221T36 268Q52 362 86 422T169 510T281 538Q316 538 344 530T395 503T430 456H436L463 526H535L513 402Q507 368 500 328T485 249T473 176T464
119T460 89Q460 76 467 70T487 63H527L517 5Q507 0 491 -5T452 -11Q424 -11 407 1T384 38Q382 46 381 56T380 76L374 78Q341 32 296 10T198 -12ZM230 65Q256 65 282 74T331 106T372 164T399 255Q403 275 404 290T407 318T408 339Q408 379 397 406T361 447T297 461Q254
461 221 443T165 384T129 273Q125 250 123 234T120 205T119 181Q119 121 146 93T230 65ZM188 629L205 721H293L277 629H188ZM379 629L395 721H484L468 629H379Z" />
<glyph unicode="&#xe5;" glyph-name="aring" horiz-adv-x="561" d="M198 -12Q146 -12 108 9T48 72T27 179Q27 199 29 221T36 268Q52 362 86 422T169 510T281 538Q316 538 344 530T395 503T430 456H436L463 526H535L513 402Q507 368 500 328T485 249T473 176T464
119T460 89Q460 76 467 70T487 63H527L517 5Q507 0 491 -5T452 -11Q424 -11 407 1T384 38Q382 46 381 56T380 76L374 78Q341 32 296 10T198 -12ZM230 65Q256 65 282 74T331 106T372 164T399 255Q403 275 404 290T407 318T408 339Q408 379 397 406T361 447T297 461Q254
461 221 443T165 384T129 273Q125 250 123 234T120 205T119 181Q119 121 146 93T230 65ZM324 580Q288 580 265 602T241 660Q241 707 271 737T349 767Q383 767 406 745T429 687Q429 656 416 632T379 594T324 580ZM328 624Q345 624 357 631T375 652T382 681Q382 700
372 711T343 723Q326 723 314 715T294 695T287 665Q287 647 298 636T328 624Z" />
<glyph unicode="&#xe6;" glyph-name="ae" horiz-adv-x="894" d="M177 -12Q147 -12 117 -6T61 14T21 52T6 113Q6 163 26 197T83 254T169 287T276 303T398 308L408 366Q409 373 410 381T411 396Q411 428 387 446T301 465Q253 465 225 454T182 425T163 384L161 370H75Q75
372 75 377T77 388Q87 437 118 470T197 520T309 538Q377 538 420 519T481 465Q514 501 560 519T664 538Q729 538 773 517T839 456T862 355Q862 333 859 304T847 241H476Q473 225 472 210T470 182Q470 139 484 112T525 73T593 60Q626 60 652 68T698 93T730 131T748
179H834Q827 137 808 102T757 41T685 2T592 -12Q519 -12 472 12T402 88Q370 50 332 28T255 -3T177 -12ZM188 60Q222 60 254 70T312 99T356 144T379 202L386 241Q307 241 242 233T139 199T100 123Q100 102 110 88T141 67T188 60ZM489 308H768Q771 321 772 333T773
355Q773 396 760 420T721 455T661 466Q616 466 582 449T525 397T489 308Z" />
<glyph unicode="&#xe7;" glyph-name="ccedilla" horiz-adv-x="519" d="M241 -12Q173 -12 127 9T58 74T35 185Q35 211 37 237T46 290Q58 347 79 392T132 470T207 520T307 538Q373 538 415 520T478 467T499 384Q499 372 498 359T494 331H406Q408 342 409 352T410
373Q410 403 400 423T367 454T308 465Q265 465 230 445T171 383T135 276Q131 254 129 238T126 210T125 187Q125 143 138 116T177 75T239 62Q284 62 313 78T361 124T386 195H470Q461 134 434 88T359 15T241 -12ZM188 -176Q166 -176 141 -174T98 -168L105 -129H197Q222
-129 234 -121T246 -95Q246 -86 238 -82T211 -77H160L192 11H251L235 -39Q271 -40 295 -50T320 -90Q320 -115 308 -132T278 -158T236 -172T188 -176Z" />
<glyph unicode="&#xe8;" glyph-name="egrave" horiz-adv-x="548" d="M248 -12Q177 -12 130 9T59 75T35 185Q35 212 38 239T46 292Q61 363 93 418T179 506T315 538Q383 538 427 516T493 451T515 348Q515 325 512 297T501 241H130Q128 226 127 213T125 187Q125 143
138 115T180 74T249 61Q275 61 299 67T343 88T378 124T401 179H487Q477 131 455 95T402 36T332 0T248 -12ZM142 307H422Q425 321 426 333T427 356Q427 393 415 417T377 453T314 466Q270 466 236 448T179 394T142 307ZM294 591L213 720L214 723H307L368 591H294Z"
/>
<glyph unicode="&#xe9;" glyph-name="eacute" horiz-adv-x="548" d="M248 -12Q177 -12 130 9T59 75T35 185Q35 212 38 239T46 292Q61 363 93 418T179 506T315 538Q383 538 427 516T493 451T515 348Q515 325 512 297T501 241H130Q128 226 127 213T125 187Q125 143
138 115T180 74T249 61Q275 61 299 67T343 88T378 124T401 179H487Q477 131 455 95T402 36T332 0T248 -12ZM142 307H422Q425 321 426 333T427 356Q427 393 415 417T377 453T314 466Q270 466 236 448T179 394T142 307ZM283 591L392 723H493V720L362 591H283Z" />
<glyph unicode="&#xea;" glyph-name="ecircumflex" horiz-adv-x="548" d="M248 -12Q177 -12 130 9T59 75T35 185Q35 212 38 239T46 292Q61 363 93 418T179 506T315 538Q383 538 427 516T493 451T515 348Q515 325 512 297T501 241H130Q128 226 127 213T125 187Q125
143 138 115T180 74T249 61Q275 61 299 67T343 88T378 124T401 179H487Q477 131 455 95T402 36T332 0T248 -12ZM142 307H422Q425 321 426 333T427 356Q427 393 415 417T377 453T314 466Q270 466 236 448T179 394T142 307ZM180 591L310 723H393L475 591H396L327
700H371L264 591H180Z" />
<glyph unicode="&#xeb;" glyph-name="edieresis" horiz-adv-x="548" d="M248 -12Q177 -12 130 9T59 75T35 185Q35 212 38 239T46 292Q61 363 93 418T179 506T315 538Q383 538 427 516T493 451T515 348Q515 325 512 297T501 241H130Q128 226 127 213T125 187Q125
143 138 115T180 74T249 61Q275 61 299 67T343 88T378 124T401 179H487Q477 131 455 95T402 36T332 0T248 -12ZM142 307H422Q425 321 426 333T427 356Q427 393 415 417T377 453T314 466Q270 466 236 448T179 394T142 307ZM198 629L214 721H302L286 629H198ZM388
629L405 721H493L477 629H388Z" />
<glyph unicode="&#xec;" glyph-name="igrave" horiz-adv-x="226" d="M23 0L116 526H204L111 0H23ZM134 591L53 720L54 723H146L208 591H134Z" />
<glyph unicode="&#xed;" glyph-name="iacute" horiz-adv-x="226" d="M23 0L116 526H204L111 0H23ZM123 591L232 723H333V720L202 591H123Z" />
<glyph unicode="&#xee;" glyph-name="icircumflex" horiz-adv-x="226" d="M23 0L116 526H204L111 0H23ZM20 591L149 723H233L314 591H235L167 700H211L104 591H20Z" />
<glyph unicode="&#xef;" glyph-name="idieresis" horiz-adv-x="226" d="M23 0L116 526H204L111 0H23ZM38 629L54 721H142L126 629H38ZM228 629L244 721H333L317 629H228Z" />
<glyph unicode="&#xf0;" glyph-name="eth" horiz-adv-x="567" d="M245 -12Q177 -12 131 9T60 74T36 185Q36 253 52 312T98 414Q114 442 134 464T180 502T236 525T300 534Q325 534 348 529T392 516L396 518Q384 544 369 568T335 615L185 604L195 661L291 667Q276
683 262 695T234 718L236 723H340Q352 713 365 701T391 675L540 685L530 629L436 622Q475 567 503 497T531 345Q531 298 525 254T502 172Q484 118 451 76T367 11T245 -12ZM250 62Q296 62 328 79T383 128T417 202Q423 218 427 234T434 267T438 300T440 334Q440 380
426 407T384 447T315 460Q271 460 239 443T186 396T152 323Q143 301 138 279T130 234T127 188Q127 143 141 115T182 75T250 62Z" />
<glyph unicode="&#xf1;" glyph-name="ntilde" horiz-adv-x="563" d="M23 0L115 526H184L179 447H186Q212 478 242 498T306 528T373 538Q416 538 449 525T501 484T520 409Q520 395 519 379T514 346L453 0H365L425 341Q427 354 428 365T430 386Q430 415 419 431T387
453T340 460Q311 460 283 450T230 418T187 365T162 292L111 0H23ZM191 622Q197 648 210 670T244 706T295 720Q321 720 343 712T387 695T430 686Q446 686 455 695T469 720H526Q521 693 507 671T472 635T421 622Q396 622 374 630T331 647T287 656Q272 656 262 647T247
622H191Z" />
<glyph unicode="&#xf2;" glyph-name="ograve" horiz-adv-x="570" d="M245 -12Q176 -12 129 9T58 74T33 185Q33 205 35 226T42 271Q58 364 95 422T189 509T324 538Q394 538 441 517T512 451T536 339Q536 320 534 299T528 255Q512 163 475 104T381 17T245 -12ZM249
62Q299 62 336 82T398 144T434 252Q438 275 440 290T443 317T444 339Q444 382 430 409T389 450T319 464Q269 464 232 444T171 382T135 274Q131 251 129 235T125 208T124 187Q124 143 138 116T180 76T249 62ZM307 591L225 720L226 723H319L380 591H307Z" />
<glyph unicode="&#xf3;" glyph-name="oacute" horiz-adv-x="570" d="M245 -12Q176 -12 129 9T58 74T33 185Q33 205 35 226T42 271Q58 364 95 422T189 509T324 538Q394 538 441 517T512 451T536 339Q536 320 534 299T528 255Q512 163 475 104T381 17T245 -12ZM249
62Q299 62 336 82T398 144T434 252Q438 275 440 290T443 317T444 339Q444 382 430 409T389 450T319 464Q269 464 232 444T171 382T135 274Q131 251 129 235T125 208T124 187Q124 143 138 116T180 76T249 62ZM296 591L404 723H505V720L374 591H296Z" />
<glyph unicode="&#xf4;" glyph-name="ocircumflex" horiz-adv-x="570" d="M245 -12Q176 -12 129 9T58 74T33 185Q33 205 35 226T42 271Q58 364 95 422T189 509T324 538Q394 538 441 517T512 451T536 339Q536 320 534 299T528 255Q512 163 475 104T381 17T245 -12ZM249
62Q299 62 336 82T398 144T434 252Q438 275 440 290T443 317T444 339Q444 382 430 409T389 450T319 464Q269 464 232 444T171 382T135 274Q131 251 129 235T125 208T124 187Q124 143 138 116T180 76T249 62ZM192 591L322 723H406L487 591H408L340 700H384L276 591H192Z"
/>
<glyph unicode="&#xf5;" glyph-name="otilde" horiz-adv-x="570" d="M245 -12Q176 -12 129 9T58 74T33 185Q33 205 35 226T42 271Q58 364 95 422T189 509T324 538Q394 538 441 517T512 451T536 339Q536 320 534 299T528 255Q512 163 475 104T381 17T245 -12ZM249
62Q299 62 336 82T398 144T434 252Q438 275 440 290T443 317T444 339Q444 382 430 409T389 450T319 464Q269 464 232 444T171 382T135 274Q131 251 129 235T125 208T124 187Q124 143 138 116T180 76T249 62ZM184 622Q190 648 203 670T237 706T288 720Q314 720 336
712T380 695T423 686Q439 686 448 695T462 720H519Q514 693 500 671T465 635T414 622Q390 622 368 630T324 647T280 656Q265 656 255 647T240 622H184Z" />
<glyph unicode="&#xf6;" glyph-name="odieresis" horiz-adv-x="570" d="M245 -12Q176 -12 129 9T58 74T33 185Q33 205 35 226T42 271Q58 364 95 422T189 509T324 538Q394 538 441 517T512 451T536 339Q536 320 534 299T528 255Q512 163 475 104T381 17T245 -12ZM249
62Q299 62 336 82T398 144T434 252Q438 275 440 290T443 317T444 339Q444 382 430 409T389 450T319 464Q269 464 232 444T171 382T135 274Q131 251 129 235T125 208T124 187Q124 143 138 116T180 76T249 62ZM210 629L226 721H315L298 629H210ZM401 629L417 721H506L489
629H401Z" />
<glyph unicode="&#xf7;" glyph-name="divide" horiz-adv-x="625" d="M68 217L82 293H554L540 217H68ZM224 23L240 113H331L316 23H224ZM290 398L306 487H397L381 398H290Z" />
<glyph unicode="&#xf8;" glyph-name="oslash" horiz-adv-x="570" d="M245 -12Q176 -12 129 9T58 74T33 185Q33 205 35 226T42 271Q58 364 95 422T189 509T324 538Q394 538 441 517T512 451T536 339Q536 320 534 299T528 255Q512 163 475 104T381 17T245 -12ZM249
62Q299 62 336 82T398 144T434 252Q438 275 440 290T443 317T444 339Q444 382 430 409T389 450T319 464Q269 464 232 444T171 382T135 274Q131 251 129 235T125 208T124 187Q124 143 138 116T180 76T249 62ZM-27 -49L531 575H597L41 -49H-27Z" />
<glyph unicode="&#xf9;" glyph-name="ugrave" horiz-adv-x="562" d="M189 -12Q147 -12 113 1T60 42T41 117Q41 132 43 147T48 180L109 526H197L137 184Q136 172 134 161T132 140Q132 111 143 95T175 72T222 66Q252 66 280 76T332 106T374 158T399 230L451 526H540L447
0H377L382 79H376Q351 48 321 28T257 -2T189 -12ZM300 591L219 720L220 723H312L374 591H300Z" />
<glyph unicode="&#xfa;" glyph-name="uacute" horiz-adv-x="562" d="M189 -12Q147 -12 113 1T60 42T41 117Q41 132 43 147T48 180L109 526H197L137 184Q136 172 134 161T132 140Q132 111 143 95T175 72T222 66Q252 66 280 76T332 106T374 158T399 230L451 526H540L447
0H377L382 79H376Q351 48 321 28T257 -2T189 -12ZM289 591L397 723H499V720L367 591H289Z" />
<glyph unicode="&#xfb;" glyph-name="ucircumflex" horiz-adv-x="562" d="M189 -12Q147 -12 113 1T60 42T41 117Q41 132 43 147T48 180L109 526H197L137 184Q136 172 134 161T132 140Q132 111 143 95T175 72T222 66Q252 66 280 76T332 106T374 158T399 230L451
526H540L447 0H377L382 79H376Q351 48 321 28T257 -2T189 -12ZM185 591L315 723H399L480 591H401L333 700H377L270 591H185Z" />
<glyph unicode="&#xfc;" glyph-name="udieresis" horiz-adv-x="562" d="M189 -12Q147 -12 113 1T60 42T41 117Q41 132 43 147T48 180L109 526H197L137 184Q136 172 134 161T132 140Q132 111 143 95T175 72T222 66Q252 66 280 76T332 106T374 158T399 230L451 526H540L447
0H377L382 79H376Q351 48 321 28T257 -2T189 -12ZM203 629L219 721H308L291 629H203ZM394 629L410 721H499L483 629H394Z" />
<glyph unicode="&#xfd;" glyph-name="yacute" horiz-adv-x="504" d="M44 -182Q18 -182 -1 -179T-28 -174L-17 -109H32Q57 -109 80 -100T125 -67T170 3L61 526H150L202 262Q207 240 212 210T222 151T230 98H235Q242 115 251 135T270 177T289 219T307 255L443 526H535L270
15Q247 -29 225 -65T176 -127T118 -167T44 -182ZM259 591L367 723H469V720L338 591H259Z" />
<glyph unicode="&#xfe;" glyph-name="thorn" horiz-adv-x="562" d="M-8 -173L150 723H238L192 459H198Q219 485 244 502T299 529T362 538Q415 538 452 516T508 451T528 345Q528 323 526 299T519 250Q505 167 472 109T389 19T273 -12Q241 -12 214 -4T165 22T129
66H122L80 -173H-8ZM259 65Q309 65 342 87T397 152T428 251Q432 270 433 284T436 313T437 340Q437 382 426 408T390 448T329 461Q280 461 245 436T187 367T155 269Q152 253 151 239T148 212T147 188Q147 141 162 114T203 76T259 65Z" />
<glyph unicode="&#xff;" glyph-name="ydieresis" horiz-adv-x="504" d="M44 -182Q18 -182 -1 -179T-28 -174L-17 -109H32Q57 -109 80 -100T125 -67T170 3L61 526H150L202 262Q207 240 212 210T222 151T230 98H235Q242 115 251 135T270 177T289 219T307 255L443
526H535L270 15Q247 -29 225 -65T176 -127T118 -167T44 -182ZM173 629L190 721H278L262 629H173ZM364 629L380 721H469L453 629H364Z" />
<glyph unicode="&#x2013;" glyph-name="endash" horiz-adv-x="500" d="M-4 233L8 308H507L494 233H-4Z" />
<glyph unicode="&#x2014;" glyph-name="emdash" horiz-adv-x="1000" d="M-4 233L8 308H1007L994 233H-4Z" />
<glyph unicode="&#x2018;" glyph-name="quoteleft" horiz-adv-x="238" d="M255 686L247 645Q227 641 212 626T187 589T173 539H218L200 435H102L118 528Q128 586 150 619T200 667T255 686Z" />
<glyph unicode="&#x2019;" glyph-name="quoteright" horiz-adv-x="238" d="M88 435L96 475Q117 480 132 495T157 532T171 581H125L143 686H241L225 592Q215 535 193 502T144 453T88 435Z" />
<glyph unicode="&#x201a;" glyph-name="quotesinglbase" horiz-adv-x="239" d="M-14 -147L-6 -106Q15 -102 30 -87T54 -50T68 0H22L41 105H139L123 11Q113 -47 91 -80T42 -128T-14 -147Z" />
<glyph unicode="&#x201c;" glyph-name="quotedblleft" horiz-adv-x="393" d="M410 686L402 645Q382 641 367 626T342 589T328 539H374L355 435H257L274 528Q284 586 305 619T355 667T410 686ZM255 686L247 645Q227 641 212 626T187 589T173 539H218L200 435H102L118
528Q128 586 150 619T200 667T255 686Z" />
<glyph unicode="&#x201d;" glyph-name="quotedblright" horiz-adv-x="393" d="M88 435L96 475Q117 480 132 495T157 532T171 581H125L143 686H241L225 592Q215 535 193 502T144 453T88 435ZM243 435L251 475Q272 480 287 495T312 532T326 581H280L299 686H396L380
592Q370 535 348 502T299 453T243 435Z" />
<glyph unicode="&#x201e;" glyph-name="quotedblbase" horiz-adv-x="394" d="M-14 -147L-6 -106Q15 -102 30 -87T54 -50T68 0H22L41 105H139L123 11Q113 -47 91 -80T42 -128T-14 -147ZM141 -147L149 -106Q170 -102 185 -87T210 -50T224 0H178L196 105H294L278
11Q268 -47 246 -80T197 -128T141 -147Z" />
<glyph unicode="&#x2022;" glyph-name="bullet" horiz-adv-x="391" d="M190 220Q159 220 135 233T98 269T84 320Q84 363 103 396T155 448T230 467Q261 467 285 454T322 418T335 367Q335 324 317 291T265 239T190 220Z" />
<glyph unicode="&#x2039;" glyph-name="guilsinglleft" horiz-adv-x="355" d="M189 126L68 326L251 526H331L167 326L260 126H189Z" />
<glyph unicode="&#x203a;" glyph-name="guilsinglright" horiz-adv-x="355" d="M187 526L309 326L125 126H46L209 326L117 526H187Z" />
</font>
</defs>
</svg>
