<?xml version="1.0" standalone="no"?>
<!DOCTYPE svg PUBLIC "-//W3C//DTD SVG 1.1//EN" "http://www.w3.org/Graphics/SVG/1.1/DTD/svg11.dtd">
<svg xmlns="http://www.w3.org/2000/svg">
<defs >
<font id="Archivo" horiz-adv-x="577" ><font-face
    font-family="Archivo Thin"
    units-per-em="1000"
    panose-1="0 0 0 0 0 0 0 0 0 0"
    ascent="878"
    descent="-210"
    alphabetic="0" />
<glyph unicode=" " glyph-name="space" horiz-adv-x="220" />
<glyph unicode="!" glyph-name="exclam" horiz-adv-x="250" d="M92 171L170 686H230L126 171H92ZM47 0L61 77H125L111 0H47Z" />
<glyph unicode="&quot;" glyph-name="quotedbl" horiz-adv-x="291" d="M93 414L104 539L129 686H181L156 539L123 414H93ZM218 414L229 539L254 686H306L281 539L248 414H218Z" />
<glyph unicode="#" glyph-name="numbersign" horiz-adv-x="580" d="M85 -12L132 193H37V241H143L185 424H81V472H196L249 698H303L250 472H429L482 698H536L483 472H567V424H472L430 241H523V193H419L372 -12H318L365 193H186L139 -12H85ZM197 241H376L418 424H239L197
241Z" />
<glyph unicode="$" glyph-name="dollar" horiz-adv-x="473" d="M159 -49L296 723H343L206 -49H159ZM205 68Q163 68 130 76T73 99T37 138T24 192Q24 203 25 215T31 241H79Q76 228 75 218T73 197Q73 166 89 147T136 120T214 111Q249 111 277 119T326 142T358 182T370
238Q370 261 357 276T322 303T273 322T218 341Q194 350 171 359T130 381T102 415T91 466Q91 506 107 535T150 582T213 609T288 618Q321 618 351 612T404 590T440 552T454 496Q454 487 453 478T449 458H402Q404 467 404 475T405 490Q405 525 388 543T344 568T285
575Q259 575 234 570T187 554T154 522T141 471Q141 443 155 428T193 404T245 384Q275 373 306 363T363 338T406 301T422 241Q422 203 408 171T367 116T300 81T205 68Z" />
<glyph unicode="%" glyph-name="percent" horiz-adv-x="932" d="M148 0L756 686H816L209 0H148ZM259 337Q201 337 167 362T133 451Q133 465 135 481T140 517Q153 587 173 626T224 681T299 698Q359 698 391 674T424 585Q424 571 423 554T417 517Q405 448 385 409T334
353T259 337ZM662 -12Q604 -12 570 13T536 102Q536 116 538 132T543 168Q556 238 576 277T627 332T702 349Q762 349 794 325T827 236Q827 222 826 205T820 168Q808 99 788 60T737 4T662 -12ZM255 378Q306 378 329 412T364 514Q367 529 368 541T371 563T372 583Q372
620 357 638T304 657Q255 657 231 623T195 520Q193 506 191 494T189 473T188 454Q188 417 203 398T255 378ZM658 29Q709 29 732 63T767 165Q770 180 771 192T774 215T775 234Q775 271 760 289T707 308Q658 308 634 274T598 171Q596 157 594 145T592 124T591 105Q591
68 606 49T658 29Z" />
<glyph unicode="&amp;" glyph-name="ampersand" horiz-adv-x="649" d="M252 -12Q186 -12 136 9T58 69T30 161Q30 218 53 257T111 320T180 352L181 356Q147 375 125 405T103 475Q103 530 123 572T180 642T266 684T372 698Q437 698 485 679T559 624T586 540Q586
535 586 523T583 502H535Q537 510 537 517T538 532Q538 575 516 601T456 640T373 653Q339 653 301 645T229 619T174 568T153 487Q153 447 173 421T228 383T303 370H359L351 329H297Q260 329 222 321T151 293T100 244T80 169Q80 122 102 92T165 47T260 33Q323 33
369 49T442 98T479 183L511 370H636L628 326H551L527 186Q516 119 481 75T388 10T252 -12Z" />
<glyph unicode="&apos;" glyph-name="quotesingle" horiz-adv-x="166" d="M93 414L104 539L129 686H181L156 539L123 414H93Z" />
<glyph unicode="(" glyph-name="parenleft" horiz-adv-x="353" d="M186 -157Q130 -85 101 1T71 182Q71 286 103 384T197 571T343 735H374Q324 679 280 617T201 486T147 341T127 181Q127 118 138 59T170 -55T217 -157H186Z" />
<glyph unicode=")" glyph-name="parenright" horiz-adv-x="353" d="M177 735Q233 663 262 577T292 396Q292 292 260 194T167 7T20 -157H-11Q39 -101 83 -39T162 92T216 237T236 397Q236 460 225 519T193 633T146 735H177Z" />
<glyph unicode="*" glyph-name="asterisk" horiz-adv-x="407" d="M188 337L224 480L102 399L82 450L212 511L104 573L142 624L235 542L250 686H308L271 542L394 624L414 573L283 511L392 450L354 399L260 480L246 337H188Z" />
<glyph unicode="+" glyph-name="plus" horiz-adv-x="612" d="M234 0L275 230H64L73 280H284L325 511H375L334 280H545L536 230H325L284 0H234Z" />
<glyph unicode="," glyph-name="comma" horiz-adv-x="250" d="M13 -128L19 -99Q34 -94 45 -81T64 -47T76 0H49L63 77H127L115 11Q108 -31 95 -57T66 -99T37 -120T13 -128Z" />
<glyph unicode="-" glyph-name="hyphen" horiz-adv-x="333" d="M36 240L47 302H300L289 240H36Z" />
<glyph unicode="." glyph-name="period" horiz-adv-x="250" d="M47 0L60 77H124L111 0H47Z" />
<glyph unicode="/" glyph-name="slash" horiz-adv-x="289" d="M-55 -49L320 735H372L-3 -49H-55Z" />
<glyph unicode="0" glyph-name="zero" horiz-adv-x="570" d="M238 -12Q179 -12 135 8T65 76T40 204Q40 227 41 250T45 297T51 342Q62 416 85 480T145 593T235 670T360 698Q419 698 463 678T533 610T558 482Q558 460 557 437T553 390T547 344Q536 271 513 207T453
93T363 16T238 -12ZM244 34Q299 34 341 56T413 118T463 210T493 322Q496 341 499 361T503 402T506 444T507 485Q507 573 472 612T354 652Q299 652 257 630T185 568T136 476T105 364Q102 345 99 325T95 285T92 243T91 201Q91 113 126 74T244 34Z" />
<glyph unicode="1" glyph-name="one" horiz-adv-x="457" d="M-20 0L-12 46H170L263 572H81L86 605Q128 608 159 612T217 625T267 649T317 690H333L220 46H395L387 0H-20Z" />
<glyph unicode="2" glyph-name="two" horiz-adv-x="557" d="M-3 0L2 24Q12 72 44 111T121 184T217 249T319 310T410 374T475 447T500 534Q500 592 461 622T349 652Q278 652 235 628T171 566T142 491L135 450H88Q90 499 106 543T156 623T240 678T361 698Q413 698
456 681T525 630T551 543Q551 484 525 437T456 352T361 280T257 217T160 155T88 88Q81 80 74 68T63 46H470L461 0H-3Z" />
<glyph unicode="3" glyph-name="three" horiz-adv-x="570" d="M238 -12Q170 -12 122 5T48 58T22 146Q22 157 23 169T27 194H74Q72 184 71 172T70 150Q70 86 114 59T234 31Q301 31 352 50T433 110T463 209Q463 253 437 278T371 315T284 327H195L203 370H295Q340
370 378 381T444 415T488 469T504 543Q504 582 485 606T431 641T352 652Q302 652 257 636T182 589T145 508L143 493H95L96 502Q103 567 140 610T235 676T359 698Q416 698 460 681T529 629T555 543Q555 494 535 457T481 395T404 355V351Q452 336 482 301T513 211Q513
142 478 92T380 15T238 -12Z" />
<glyph unicode="4" glyph-name="four" horiz-adv-x="530" d="M317 0L350 186H11L19 230Q77 309 125 385T214 538T285 698H338Q316 641 287 582T227 467T166 363T112 281T72 229H357L405 500Q410 512 415 525T426 552T435 576T443 596H471L406 229H503L496 186H399L366
0H317Z" />
<glyph unicode="5" glyph-name="five" horiz-adv-x="567" d="M239 -12Q176 -12 129 9T56 69T30 166Q30 177 31 188T34 213H81Q80 203 79 193T77 172Q77 123 98 92T157 46T242 31Q294 31 335 47T406 94T450 165T465 256Q465 327 430 363T324 399Q287 399 249 388T176
354T119 296L77 306L173 686H557L548 638H210L143 372Q164 392 192 408T256 434T331 444Q387 444 429 423T494 362T517 264Q517 183 483 121T386 23T239 -12Z" />
<glyph unicode="6" glyph-name="six" horiz-adv-x="570" d="M251 -12Q188 -12 141 9T69 76T43 198Q43 226 45 256T54 324Q79 462 122 544T228 662T369 698Q429 698 467 679T523 625T541 543Q541 530 540 516T536 488H487Q489 501 490 513T491 536Q491 597 457
624T360 652Q286 652 237 615T156 508T106 335Q137 379 175 402T253 435T330 444Q396 444 438 419T501 351T521 258Q521 198 501 149T443 63T357 8T251 -12ZM248 34Q299 34 341 51T412 98Q440 127 454 165T469 250Q469 289 454 322T405 377T316 398Q264 398 221
380T147 328Q121 300 107 261T93 177Q93 136 109 104T160 53T248 34Z" />
<glyph unicode="7" glyph-name="seven" horiz-adv-x="525" d="M93 0Q110 102 152 193T250 365T366 514T481 638H90L99 686H574L570 660Q521 614 469 559T366 441T273 311T200 177T157 43Q154 29 154 24T151 0H93Z" />
<glyph unicode="8" glyph-name="eight" horiz-adv-x="571" d="M239 -12Q168 -12 122 10T53 69T31 151Q31 200 49 239T103 308T187 352Q149 372 129 408T109 484Q109 532 127 571T179 639T257 683T354 698Q418 698 460 678T524 623T546 545Q546 500 529 462T482
396T412 352Q462 331 484 295T507 214Q507 143 474 92T381 15T239 -12ZM243 34Q275 34 303 39T355 53T397 78Q426 100 441 132T457 207Q457 262 417 295T295 329Q269 329 246 326T202 315T163 298Q124 276 102 240T80 154Q80 95 121 65T243 34ZM302 372Q330 372
355 377T401 391T440 415Q466 437 481 468T496 538Q496 596 457 624T349 652Q322 652 298 648T254 634T217 612Q189 590 175 558T160 485Q160 431 197 402T302 372Z" />
<glyph unicode="9" glyph-name="nine" horiz-adv-x="570" d="M222 -12Q163 -12 125 7T68 62T50 143Q50 156 51 170T55 198H104Q102 185 101 173T100 150Q100 89 134 62T231 34Q305 34 354 71T435 178T485 351Q454 307 416 284T339 251T261 242Q195 242 153 269T91
341T70 438Q70 495 90 542T146 625T231 679T340 698Q404 698 450 677T522 610T548 488Q548 460 546 430T537 362Q513 224 469 142T364 24T222 -12ZM275 288Q328 288 371 306T444 358Q470 387 484 425T498 509Q498 551 482 583T431 633T343 652Q292 652 250 635T179
588Q151 560 137 521T122 436Q122 398 137 364T187 309T275 288Z" />
<glyph unicode=":" glyph-name="colon" horiz-adv-x="248" d="M128 449L141 526H205L192 449H128ZM49 0L62 77H126L113 0H49Z" />
<glyph unicode=";" glyph-name="semicolon" horiz-adv-x="248" d="M12 -128L18 -99Q33 -94 44 -81T63 -47T75 0H48L62 77H126L114 11Q106 -31 93 -57T65 -99T35 -120T12 -128ZM126 449L139 526H203L190 449H126Z" />
<glyph unicode="&lt;" glyph-name="less" horiz-adv-x="612" d="M486 7L48 216L59 280L571 489L560 432L100 245L496 61L486 7Z" />
<glyph unicode="=" glyph-name="equal" horiz-adv-x="612" d="M81 334L90 384H566L557 334H81ZM45 126L54 176H530L521 126H45Z" />
<glyph unicode="&gt;" glyph-name="greater" horiz-adv-x="612" d="M35 7L46 64L506 251L110 435L120 489L558 280L547 216L35 7Z" />
<glyph unicode="?" glyph-name="question" horiz-adv-x="537" d="M228 160L240 227Q247 265 266 290T311 336T365 374T416 415T455 469T470 546Q470 570 461 594T425 636T349 653Q299 653 264 637T205 596T168 543T150 491Q149 484 149 478T148 466H101Q101 482
107 510T130 571T174 632T244 679T346 698Q403 698 437 683T490 645T515 597T521 552Q521 499 506 462T466 397T413 350T358 312T313 272T289 222L278 160H228ZM193 0L207 77H271L257 0H193Z" />
<glyph unicode="@" glyph-name="at" horiz-adv-x="1013" d="M456 -153Q345 -153 270 -128T150 -56T84 54T64 192Q64 280 80 351T127 479T202 576T303 645T426 685T569 698Q665 698 738 677T862 615T937 515T963 379Q963 332 954 282T924 186T874 102T801 44T706
22Q671 22 650 32T620 61T611 107H606Q574 64 533 44T449 24Q401 24 369 43T320 101T304 197Q304 221 306 245T312 292Q321 340 338 381T383 455T449 504T536 522Q562 522 586 515T629 491T660 446H666L688 511H725L705 403Q700 377 694 342T682 268T670 196T661
136T657 100Q657 86 666 75T704 63Q741 63 773 78T831 122T875 190T904 277T914 379Q914 465 877 527T763 622T569 656Q489 656 419 639T293 588T196 499T134 370T112 199Q112 132 129 75T185 -23T291 -88T456 -111Q485 -111 512 -110T563 -105T606 -99T638 -93L627
-139Q611 -141 586 -144T529 -150T456 -153ZM457 68Q491 68 517 80T564 114T600 162Q613 185 622 209T637 259T645 309T648 353Q648 406 630 433T584 469T533 478Q505 478 482 469T440 444T406 406Q393 386 383 362T366 310T356 255T353 197Q353 130 379 99T457
68Z" />
<glyph unicode="A" glyph-name="A" horiz-adv-x="650" d="M-20 0L366 686H434L579 0H524L483 203H151L38 0H-20ZM178 251H473L422 502Q420 513 417 529T409 563T402 600T395 634H389Q379 614 365 589T339 540T318 502L178 251Z" />
<glyph unicode="B" glyph-name="B" horiz-adv-x="689" d="M52 0L173 686H502Q555 686 592 669T650 622T670 551Q670 508 654 469T607 402T531 360L530 356Q571 343 600 312T629 221Q629 149 602 100T522 25T395 0H52ZM115 48H408Q466 48 503 68T558 125T576 217Q576
271 544 299T451 328H165L115 48ZM173 376H449Q484 376 514 387T566 420T601 471T614 535Q614 586 585 612T505 638H218L173 376Z" />
<glyph unicode="C" glyph-name="C" horiz-adv-x="737" d="M341 -12Q207 -12 136 57T65 256Q65 285 67 312T74 364Q92 467 143 541T274 657T456 698Q539 698 598 677T688 613T719 502Q719 489 719 475T714 445H659Q662 460 663 474T665 501Q665 553 640 585T566
634T448 650Q382 650 328 628T232 566T165 469T127 343Q126 333 125 323T122 301T121 279T120 256Q120 177 148 129T226 58T342 36Q423 36 481 57T576 124T627 241H678Q664 154 618 98T501 15T341 -12Z" />
<glyph unicode="D" glyph-name="D" horiz-adv-x="741" d="M52 0L173 686H405Q549 686 627 625T705 433Q705 403 703 375T696 319Q677 214 624 143T489 36T296 0H52ZM115 48H291Q371 48 432 67T538 124T608 216T644 341Q646 354 647 368T648 396T649 426Q649 507
619 553T533 619T397 638H219L115 48Z" />
<glyph unicode="E" glyph-name="E" horiz-adv-x="682" d="M53 0L173 686H693L685 638H219L173 376H595L586 328H164L115 48H587L579 0H53Z" />
<glyph unicode="F" glyph-name="F" horiz-adv-x="616" d="M53 0L173 686H651L643 638H219L173 376H562L554 329H165L107 0H53Z" />
<glyph unicode="G" glyph-name="G" horiz-adv-x="798" d="M359 -12Q209 -12 136 56T63 256Q63 279 65 305T73 359Q93 468 145 543T280 658T472 698Q539 698 590 686T675 651T727 592T745 508Q745 495 744 481T740 452H685Q687 463 689 476T691 499Q691 542 675
571T630 617T561 642T472 650Q410 650 354 634T251 583T174 491T129 353Q126 334 124 319T121 291T120 268T120 247Q120 171 148 125T230 57T355 36Q453 36 513 64T607 145T654 271L660 304H391L399 352H723L661 0H623V99Q593 59 549 35T456 -1T359 -12Z" />
<glyph unicode="H" glyph-name="H" horiz-adv-x="740" d="M53 0L173 686H227L172 374H608L663 686H717L597 0H543L600 326H164L107 0H53Z" />
<glyph unicode="I" glyph-name="I" horiz-adv-x="250" d="M52 0L173 686H227L106 0H52Z" />
<glyph unicode="J" glyph-name="J" horiz-adv-x="529" d="M196 -12Q111 -12 66 26T20 138Q20 148 21 161T28 201H83Q76 170 75 159T74 139Q74 89 104 63T189 36Q261 36 309 79T374 214L457 686H511L430 224Q416 144 384 92T304 14T196 -12Z" />
<glyph unicode="K" glyph-name="K" horiz-adv-x="623" d="M53 0L173 686H227L155 276L626 686H699L394 420L593 0H535L352 384L142 202L107 0H53Z" />
<glyph unicode="L" glyph-name="L" horiz-adv-x="496" d="M51 0L171 686H225L113 48H451L443 0H51Z" />
<glyph unicode="M" glyph-name="M" horiz-adv-x="851" d="M53 0L173 686H250L372 166Q376 152 379 138T384 108T389 78H394Q402 93 410 108T426 137T443 166L747 686H828L708 0H654L736 466Q741 493 745 520T754 570T761 608H754Q746 589 738 573T723 543T706
515L399 0H362L235 515Q230 536 227 558T221 608H214Q211 591 207 567T198 516T189 466L107 0H53Z" />
<glyph unicode="N" glyph-name="N" horiz-adv-x="740" d="M53 0L173 686H228L515 177Q521 167 529 152T545 122T558 94L562 95Q565 113 567 132T574 177L663 686H717L597 0H555L259 518Q252 531 238 557T215 602L210 601Q208 582 205 560T198 519L107 0H53Z" />
<glyph unicode="O" glyph-name="O" horiz-adv-x="795" d="M349 -12Q259 -12 195 19T98 110T64 256Q64 284 66 310T73 361Q92 461 144 536T280 655T474 698Q565 698 628 667T725 576T759 430Q759 403 757 377T750 325Q732 226 679 150T543 31T349 -12ZM356 36Q431
36 489 59T590 123T659 221T697 343Q699 354 700 364T702 386T703 408T704 430Q704 510 675 558T592 628T467 650Q393 650 335 627T233 563T164 465T126 343Q124 333 123 322T121 300T120 278T119 256Q119 177 148 129T231 58T356 36Z" />
<glyph unicode="P" glyph-name="P" horiz-adv-x="659" d="M53 0L173 686H503Q560 686 597 666T653 611T672 531Q672 476 655 431T608 353T537 303T448 285H157L107 0H53ZM165 333H442Q495 333 534 356T595 423T617 525Q617 578 587 608T495 638H219L165 333Z" />
<glyph unicode="Q" glyph-name="Q" horiz-adv-x="795" d="M534 -130L433 -5Q414 -9 393 -10T349 -12Q259 -12 195 19T98 110T64 256Q64 284 66 310T73 361Q92 461 144 536T280 655T474 698Q565 698 628 667T725 576T759 430Q759 403 757 377T750 325Q728 211 662
128T489 9L606 -130H534ZM356 36Q431 36 489 59T590 123T659 221T697 343Q699 354 700 364T702 386T703 408T704 430Q704 510 675 558T592 628T467 650Q393 650 335 627T233 563T164 465T126 343Q124 333 123 322T121 300T120 278T119 256Q119 177 148 129T231
58T356 36Z" />
<glyph unicode="R" glyph-name="R" horiz-adv-x="739" d="M52 0L173 686H523Q582 686 619 668T675 616T694 541Q694 470 669 422T606 346T527 305L626 0H568L472 295H158L106 0H52ZM167 343H455Q503 343 545 366T613 431T639 534Q639 583 609 610T517 638H219L167 343Z" />
<glyph unicode="S" glyph-name="S" horiz-adv-x="679" d="M301 -11Q244 -11 196 -3T112 23T57 71T37 147Q37 162 39 178T46 214H96Q90 196 88 181T86 151Q86 104 115 80T192 46T301 37Q353 37 397 47T473 76T524 123T542 189Q542 222 526 244T481 283T418 311T345
335Q305 347 266 361T195 396T145 446T126 519Q126 567 148 600T208 655T296 686T401 696Q457 696 501 686T578 657T628 609T645 542Q645 530 644 518T639 493H586Q589 506 590 517T591 538Q591 597 541 623T393 650Q336 650 288 636T210 594T180 524Q180 496 192
475T227 439T278 412T339 390Q383 376 428 362T512 327T573 275T597 196Q597 143 575 104T512 40T417 2T301 -11Z" />
<glyph unicode="T" glyph-name="T" horiz-adv-x="590" d="M221 0L333 638H79L87 686H652L644 638H387L275 0H221Z" />
<glyph unicode="U" glyph-name="U" horiz-adv-x="740" d="M323 -12Q215 -12 153 33T91 185Q91 203 93 227T100 274L174 686H228L150 251Q147 236 146 216T144 183Q144 104 192 70T327 36Q431 36 499 87T585 240L664 686H718L643 266Q625 165 583 104T475 15T323 -12Z" />
<glyph unicode="V" glyph-name="V" horiz-adv-x="620" d="M231 0L95 686H149L248 184Q251 170 255 147T263 98T270 52H275Q285 72 298 97T323 146T343 184L615 686H675L301 0H231Z" />
<glyph unicode="W" glyph-name="W" horiz-adv-x="888" d="M187 0L90 686H146L211 198Q213 184 216 161T222 112T229 66H238Q246 86 255 111T274 160T288 198L482 686H553L609 198Q611 184 613 161T618 112T623 66H632Q640 86 650 111T669 160T685 198L891 686H948L653
0H580L523 484Q521 500 520 523T517 572T514 618H506Q499 599 489 574T470 524T455 484L262 0H187Z" />
<glyph unicode="X" glyph-name="X" horiz-adv-x="673" d="M-34 0L321 359L112 686H175L357 401H361L634 686H703L388 360L615 0H552L352 317H348L38 0H-34Z" />
<glyph unicode="Y" glyph-name="Y" horiz-adv-x="630" d="M242 0L293 291L85 686H142L324 338H328L631 686H695L347 291L296 0H242Z" />
<glyph unicode="Z" glyph-name="Z" horiz-adv-x="637" d="M-18 0L-12 34L564 638H120L128 686H657L652 654L73 48H554L546 0H-18Z" />
<glyph unicode="[" glyph-name="bracketleft" horiz-adv-x="245" d="M-1 -161L157 735H322L314 695H198L55 -121H172L165 -161H-1Z" />
<glyph unicode="\" glyph-name="backslash" horiz-adv-x="289" d="M187 -49L83 735H131L234 -49H187Z" />
<glyph unicode="]" glyph-name="bracketright" horiz-adv-x="245" d="M254 735L96 -161H-69L-61 -121H55L198 695H81L88 735H254Z" />
<glyph unicode="^" glyph-name="asciicircum" horiz-adv-x="612" d="M111 294L349 686H411L511 294H459L373 639L165 294H111Z" />
<glyph unicode="_" glyph-name="underscore" horiz-adv-x="459" d="M-66 -113L-58 -65H401L392 -113H-66Z" />
<glyph unicode="`" glyph-name="grave" horiz-adv-x="151" d="M164 591L81 720L82 723H141L209 591H164Z" />
<glyph unicode="a" glyph-name="a" horiz-adv-x="531" d="M205 -12Q151 -12 114 7T56 68T36 175Q36 195 38 217T44 265Q60 361 93 421T175 510T286 538Q324 538 352 529T402 499T436 446H442L465 526H501L481 410Q477 384 470 344T454 258T439 170T428 98T423
58Q423 46 429 40T449 33H496L491 6Q481 1 467 -4T437 -10Q407 -10 393 5T379 49Q379 56 380 64T382 80L376 83Q344 34 298 11T205 -12ZM212 31Q236 31 264 39T320 71T370 138T405 252Q409 277 411 295T415 328T416 354Q416 400 403 431T361 479T287 495Q245 495
208 476T141 409T98 278Q93 248 91 229T87 195T86 169Q86 96 118 64T212 31Z" />
<glyph unicode="b" glyph-name="b" horiz-adv-x="537" d="M247 -12Q189 -12 150 10T90 80H83L62 0H27L154 723H202L155 454H162Q185 486 214 504T273 530T328 538Q383 538 422 519T481 458T502 351Q502 332 500 310T493 262Q476 165 443 105T360 16T247 -12ZM246
31Q288 31 327 50T395 117T439 248Q444 278 447 298T451 332T452 357Q452 406 437 436T393 480T321 495Q297 495 268 488T210 458T159 391T123 274Q119 249 117 231T113 198T112 172Q112 126 126 95T170 47T246 31Z" />
<glyph unicode="c" glyph-name="c" horiz-adv-x="485" d="M219 -12Q161 -12 120 8T58 71T36 181Q36 201 38 223T45 271Q57 338 78 388T132 471T206 521T303 538Q365 538 401 520T454 471T470 396Q470 382 469 367T464 334H417Q420 350 421 364T423 392Q423 428
411 451T371 484T301 495Q257 495 216 475T143 408T97 278Q92 250 90 231T87 199T86 175Q86 124 102 93T148 46T218 31Q274 31 309 50T364 106T392 192H439Q431 138 407 92T337 17T219 -12Z" />
<glyph unicode="d" glyph-name="d" horiz-adv-x="537" d="M211 -12Q155 -12 117 7T59 67T39 175Q39 198 40 223T47 278Q59 345 80 394T133 475T204 522T292 538Q323 538 352 530T405 504T442 454H449L497 723H545L417 0H382L389 80H382Q347 33 304 11T211 -12ZM210
31Q264 31 305 56T374 129T414 246Q418 271 420 289T424 320T425 345Q425 410 405 442T355 484T299 495Q248 495 208 474T140 405T99 282Q94 252 92 232T89 198T88 172Q88 95 121 63T210 31Z" />
<glyph unicode="e" glyph-name="e" horiz-adv-x="532" d="M224 -12Q161 -12 120 10T58 75T37 180Q37 206 40 232T48 284Q64 360 96 417T181 506T313 538Q377 538 417 514T477 448T497 351Q497 328 494 303T484 250H95Q92 231 91 215T89 183Q89 129 105 96T153
47T231 31Q259 31 286 38T339 62T384 106T417 174H463Q450 127 427 92T374 34T305 0T224 -12ZM103 293H443Q446 311 447 327T449 358Q449 402 434 432T388 479T307 495Q256 495 215 472T145 403T103 293Z" />
<glyph unicode="f" glyph-name="f" horiz-adv-x="249" d="M-28 -182Q-40 -182 -50 -181T-69 -179T-84 -175L-78 -141H-25Q2 -141 18 -127T38 -88L139 483H62L68 526H146L164 625Q169 650 178 674T212 715T282 731Q293 731 303 731T321 729T337 724L330 690H276Q248
690 234 677T214 637L194 526H301L295 483H187L88 -81Q84 -106 75 -129T42 -167T-28 -182Z" />
<glyph unicode="g" glyph-name="g" horiz-adv-x="515" d="M162 -182Q118 -182 82 -169T24 -130T2 -62Q2 -56 3 -46T7 -25H54Q53 -32 52 -38T51 -51Q51 -83 66 -102T108 -130T167 -139Q223 -139 263 -121T330 -65T366 31Q368 45 370 58T375 84H367Q344 53 316 35T259
8T201 0Q147 0 109 20T51 81T31 184Q31 204 33 225T40 270Q65 413 127 475T283 538Q340 538 378 516T437 446H444L465 526H500L416 43Q403 -36 372 -85T289 -158T162 -182ZM211 43Q235 43 264 51T321 82T371 147T405 258Q409 283 411 300T415 331T416 356Q416 402
402 432T359 479T284 495Q242 495 204 477T137 412T94 284Q89 255 87 236T83 204T82 180Q82 132 97 102T140 58T211 43Z" />
<glyph unicode="h" glyph-name="h" horiz-adv-x="538" d="M27 0L154 723H202L155 453H162Q192 486 222 504T284 530T352 538Q394 538 426 526T476 487T494 416Q494 406 493 395T490 371L425 0H377L442 372Q444 382 445 392T446 410Q446 445 432 463T392 488T333
495Q302 495 269 483T207 447T157 387T128 303L75 0H27Z" />
<glyph unicode="i" glyph-name="i" horiz-adv-x="195" d="M139 647L152 723H200L187 647H139ZM27 0L120 526H168L75 0H27Z" />
<glyph unicode="j" glyph-name="j" horiz-adv-x="191" d="M137 647L150 723H198L185 647H137ZM-43 -182Q-52 -182 -61 -181T-79 -179T-94 -175L-88 -141H-49Q-24 -141 -10 -128T9 -90L118 526H166L58 -85Q54 -111 43 -133T12 -169T-43 -182Z" />
<glyph unicode="k" glyph-name="k" horiz-adv-x="480" d="M27 0L154 723H202L117 238L426 526H490L272 322L407 0H356L235 289L107 175L75 0H27Z" />
<glyph unicode="l" glyph-name="l" horiz-adv-x="194" d="M27 0L154 723H202L75 0H27Z" />
<glyph unicode="m" glyph-name="m" horiz-adv-x="858" d="M27 0L119 526H153L142 437H148Q181 479 213 500T278 530T345 538Q398 538 434 515T478 437H485Q517 479 549 500T613 530T680 538Q738 538 776 510T814 416Q814 406 813 395T810 371L745 0H697L762 372Q764
382 765 392T766 410Q766 445 752 463T714 488T661 495Q620 495 579 474T506 410T463 303L410 0H362L427 372Q429 382 430 392T431 410Q431 445 417 463T379 488T326 495Q285 495 244 475T171 412T128 303L75 0H27Z" />
<glyph unicode="n" glyph-name="n" horiz-adv-x="538" d="M27 0L119 526H153L142 437H148Q182 479 216 500T284 530T352 538Q394 538 426 526T476 487T494 416Q494 406 493 395T490 371L425 0H377L442 372Q444 383 445 393T446 410Q446 445 432 463T392 488T333
495Q302 495 270 483T208 447T158 387T128 303L75 0H27Z" />
<glyph unicode="o" glyph-name="o" horiz-adv-x="536" d="M227 -12Q166 -12 124 9T59 73T36 182Q36 202 38 224T45 271Q61 365 96 423T184 510T308 538Q370 538 412 517T477 453T499 342Q499 323 498 301T491 255Q475 163 439 104T350 17T227 -12ZM227 31Q280
31 323 53T395 123T437 248Q442 276 444 294T448 326T449 350Q449 401 432 433T384 480T308 495Q255 495 213 473T141 404T98 278Q93 250 91 231T87 200T86 176Q86 124 102 93T151 46T227 31Z" />
<glyph unicode="p" glyph-name="p" horiz-adv-x="537" d="M-4 -173L119 526H154L146 446H154Q190 493 233 515T326 538Q382 538 420 519T478 459T498 351Q498 329 497 303T490 248Q474 159 440 102T357 16T245 -12Q214 -12 185 -4T132 22T94 72H87L44 -173H-4ZM238
31Q289 31 329 52T397 121T438 244Q443 274 445 294T448 328T449 354Q449 406 434 436T391 481T327 495Q274 495 232 470T162 398T122 280Q118 255 116 237T112 206T111 181Q111 116 131 84T181 42T238 31Z" />
<glyph unicode="q" glyph-name="q" horiz-adv-x="537" d="M339 -173L382 72H375Q353 40 324 22T265 -4T210 -12Q155 -12 116 7T56 68T35 175Q35 195 37 217T44 265Q62 362 95 422T178 510T291 538Q349 538 388 516T447 446H454L475 526H510L387 -173H339ZM217
31Q241 31 270 38T327 68T379 135T414 252Q418 277 420 295T424 328T425 354Q425 400 411 431T368 479T292 495Q250 495 211 476T142 409T98 278Q93 248 90 229T86 195T85 169Q85 96 119 64T217 31Z" />
<glyph unicode="r" glyph-name="r" horiz-adv-x="296" d="M27 0L119 526H153L142 438H147Q157 458 175 481T222 521T289 538Q303 538 314 536T329 532L322 490H292Q258 490 231 475T183 435T149 377T129 310L75 0H27Z" />
<glyph unicode="s" glyph-name="s" horiz-adv-x="473" d="M191 -12Q149 -12 116 -4T59 19T23 58T10 112Q10 123 11 135T17 161H65Q62 148 61 138T59 117Q59 86 75 67T122 40T200 31Q235 31 263 39T312 62T344 102T356 158Q356 181 343 196T308 223T259 242T204
261Q180 270 157 279T116 301T88 335T77 386Q77 426 93 455T136 502T199 529T274 538Q307 538 337 532T390 510T426 472T440 416Q440 407 439 398T435 378H388Q390 387 390 395T391 410Q391 445 374 463T330 488T271 495Q245 495 220 490T173 474T140 442T127 391Q127
363 141 348T179 324T231 304Q261 293 292 283T349 258T392 221T408 161Q408 123 394 91T353 36T286 1T191 -12Z" />
<glyph unicode="t" glyph-name="t" horiz-adv-x="277" d="M130 -11Q104 -11 89 -4T67 15T60 47Q60 53 61 60T63 74L135 483H61L69 526H142L178 672H216L190 526H298L290 483H183L113 88Q112 79 111 72T109 58Q109 44 116 38T144 31H211L206 3Q195 -2 182 -5T155
-9T130 -11Z" />
<glyph unicode="u" glyph-name="u" horiz-adv-x="538" d="M186 -12Q144 -12 112 0T62 39T44 110Q44 121 45 132T48 155L113 526H161L96 154Q95 144 94 134T92 116Q92 81 106 63T147 38T205 31Q237 31 269 42T329 75T379 131T408 213L463 526H511L419 0H385L396
89H390Q357 48 323 26T255 -4T186 -12Z" />
<glyph unicode="v" glyph-name="v" horiz-adv-x="475" d="M171 0L73 526H122L175 233Q179 212 183 182T192 122T200 67H205Q217 91 232 121T262 182T288 233L443 526H494L212 0H171Z" />
<glyph unicode="w" glyph-name="w" horiz-adv-x="682" d="M138 0L71 526H121L154 233Q157 212 159 183T165 126T170 76H175Q184 98 195 126T218 183T239 233L362 526H413L434 233Q436 212 437 184T439 127T442 76H447Q457 97 470 125T496 183T519 233L654 526H703L452
0H409L386 297Q385 315 383 342T380 399T377 452H371Q362 429 351 400T328 343T308 296L181 0H138Z" />
<glyph unicode="x" glyph-name="x" horiz-adv-x="475" d="M-29 0L208 269L67 526H121L240 304H246L436 526H493L267 267L410 0H357L236 231H230L28 0H-29Z" />
<glyph unicode="y" glyph-name="y" horiz-adv-x="475" d="M24 -182Q14 -182 -3 -181T-31 -179L-25 -141H16Q44 -141 68 -131T119 -90T177 7L72 526H121L175 233Q179 212 184 182T196 120T206 63H211Q220 81 230 104T252 150T274 195T293 233L442 526H493L221 0Q198
-44 179 -78T138 -135T89 -170T24 -182Z" />
<glyph unicode="z" glyph-name="z" horiz-adv-x="484" d="M-9 0L-3 36L395 483H101L109 526H472L466 492L65 43H409L401 0H-9Z" />
<glyph unicode="{" glyph-name="braceleft" horiz-adv-x="304" d="M193 -159Q167 -159 140 -151T96 -123T78 -69Q78 -60 82 -32T94 33T107 106T118 168T123 199Q123 231 105 239T55 247L69 326Q101 326 125 336T156 383L199 623Q207 666 232 690T289 724T350 735L344
697Q330 697 311 692T276 674T254 638L200 394Q193 362 183 339T153 303T99 291L97 282Q136 282 150 265T165 217Q165 205 162 174T153 104T143 26T134 -38T130 -70Q130 -90 140 -101T165 -116T199 -121L193 -159Z" />
<glyph unicode="|" glyph-name="bar" horiz-adv-x="246" d="M100 -173V723H150V-173H100Z" />
<glyph unicode="}" glyph-name="braceright" horiz-adv-x="304" d="M120 735Q147 735 173 727T217 699T235 645Q235 636 231 608T220 543T206 470T195 408T190 377Q190 346 208 338T258 329L244 250Q213 250 189 241T157 193L114 -47Q107 -89 82 -113T24 -148T-37
-159L-31 -121Q-17 -121 2 -116T38 -98T59 -62L113 182Q120 215 130 238T161 273T214 285L216 294Q177 294 163 311T148 359Q148 371 151 402T160 472T171 550T179 615T183 646Q183 666 174 677T148 692T114 697L120 735Z" />
<glyph unicode="~" glyph-name="asciitilde" horiz-adv-x="612" d="M38 229L48 286Q48 286 59 297T90 322T140 348T206 359Q235 359 259 350T306 329T353 307T407 298Q439 298 467 309T518 334T552 360T565 371L555 314Q555 314 544 303T513 278T463 252T397 241Q369
241 345 250T297 271T250 293T196 302Q164 302 136 291T85 266T51 240T38 229Z" />
<glyph unicode="&#xa0;" glyph-name="uni00A0" horiz-adv-x="220" />
<glyph unicode="&#xa1;" glyph-name="exclamdown" horiz-adv-x="250" d="M22 -160L126 355H160L82 -160H22ZM127 449L141 526H205L191 449H127Z" />
<glyph unicode="&#xa2;" glyph-name="cent" horiz-adv-x="586" d="M208 -49L345 723H392L255 -49H208ZM269 66Q211 66 170 86T108 149T86 259Q86 279 88 301T95 349Q107 416 128 466T182 549T256 599T353 616Q415 616 451 598T504 549T520 474Q520 460 519 445T514
412H467Q470 428 471 442T473 470Q473 506 461 529T421 562T351 573Q307 573 266 553T193 486T147 356Q142 328 140 309T137 277T136 253Q136 202 152 171T198 124T268 109Q324 109 359 128T414 184T442 270H489Q481 216 457 170T387 95T269 66Z" />
<glyph unicode="&#xa3;" glyph-name="sterling" horiz-adv-x="555" d="M3 0L11 48H96L144 317H44L52 365H152L180 522Q191 583 222 622T298 679T394 698Q441 698 477 683T533 637T553 561Q553 552 552 540T547 503H499Q502 519 503 528T504 544T505 555Q505 591
490 613T450 645T392 656Q354 656 320 642T261 599T228 522L200 365H372L364 317H192L139 48H473L465 0H3Z" />
<glyph unicode="&#xa4;" glyph-name="currency" horiz-adv-x="556" d="M85 99L43 141L98 195Q70 227 58 267T45 349Q45 391 57 431T98 503L43 557L85 599L141 543Q173 570 212 583T293 597Q335 597 374 584T445 543L501 599L543 557L488 503Q516 472 528 432T541
349Q541 307 529 267T488 195L543 141L501 99L445 155Q414 128 375 115T293 101Q251 101 212 114T141 155L85 99ZM293 149Q347 149 392 176T465 248T492 349Q492 404 465 449T393 521T293 548Q239 548 194 521T121 449T93 349Q93 294 120 249T193 176T293 149Z"
/>
<glyph unicode="&#xa5;" glyph-name="yen" horiz-adv-x="550" d="M200 0L230 169H26L34 217H238L251 288H47L55 336H240Q230 357 218 382T202 417L85 686H140L242 442Q246 434 253 416T269 377T285 338H289Q302 355 317 375T346 413T367 442L554 686H615L404 417Q396
407 375 382T336 336H517L509 288H305L292 217H496L488 169H284L254 0H200Z" />
<glyph unicode="&#xa6;" glyph-name="brokenbar" horiz-adv-x="246" d="M100 357V723H150V357H100ZM100 -173V193H150V-173H100Z" />
<glyph unicode="&#xa7;" glyph-name="section" horiz-adv-x="556" d="M199 -182Q142 -182 104 -172T45 -145T14 -105T4 -59Q4 -49 6 -39T11 -18H64Q63 -24 61 -34T59 -53Q59 -72 70 -92T114 -125T210 -138Q261 -138 303 -124T370 -80T395 -8Q395 22 376 41T326
72T257 93T183 113T114 139T63 179T44 242Q44 271 53 296T80 344T121 383T173 412Q142 428 124 452T105 514Q105 551 116 580T148 631T199 668T269 690T355 698Q412 698 450 688T509 661T540 621T550 575Q550 565 548 555T543 534H490Q492 540 493 550T495 569Q495
589 484 608T440 641T344 654Q294 654 252 640T184 596T159 524Q159 494 178 475T228 444T297 423T372 403T440 377T491 337T510 274Q510 245 501 220T474 172T433 133T381 104Q412 88 430 64T449 2Q449 -35 438 -64T406 -115T355 -152T285 -174T199 -182ZM335
124Q354 131 382 149T432 194T454 256Q454 290 432 311T375 345T298 368T219 392Q200 386 172 368T122 322T100 260Q100 226 122 205T179 171T256 148T335 124Z" />
<glyph unicode="&#xa8;" glyph-name="dieresis" horiz-adv-x="242" d="M68 650L81 719H146L133 650H68ZM244 650L257 719H322L309 650H244Z" />
<glyph unicode="&#xa9;" glyph-name="copyright" horiz-adv-x="737" d="M383 -12Q306 -12 241 14T129 88T55 201T28 343Q28 420 54 485T128 597T241 671T383 698Q460 698 525 672T637 598T711 485T738 343Q738 266 712 201T638 89T525 15T383 -12ZM378 130Q333
130 296 149T238 215T216 342Q216 422 237 468T295 534T378 554Q418 554 453 540T510 490T532 390H490Q490 440 474 467T433 505T378 516Q326 516 292 478T257 357V328Q257 273 272 238T315 186T378 169Q407 169 433 180T475 218T491 293H532Q532 231 510 196T453
145T378 130ZM384 22Q476 22 548 63T661 177T702 343Q702 436 661 508T548 622T383 664Q291 664 219 623T105 509T64 343Q64 250 105 178T218 64T384 22Z" />
<glyph unicode="&#xaa;" glyph-name="ordfeminine" horiz-adv-x="370" d="M179 329Q125 329 98 362T70 460Q70 477 72 495T77 529Q86 576 106 614T160 675T242 698Q270 698 294 686T330 641H335L349 690H383L370 612Q367 595 362 569T352 512T342 454T335 406T332
380Q332 370 336 368T352 366H379L376 339Q363 334 353 332T335 329Q310 329 300 338T289 364Q289 370 290 377T294 391H290Q267 359 238 344T179 329ZM185 368Q225 368 251 389T292 443T313 513Q315 528 316 542T318 573Q318 610 306 628T275 653T240 659Q189
659 160 621T120 524Q117 508 116 492T114 458Q114 410 131 389T185 368Z" />
<glyph unicode="&#xab;" glyph-name="guillemotleft" horiz-adv-x="525" d="M206 126L67 326L269 526H325L144 326L254 126H206ZM378 126L239 326L441 526H497L316 326L426 126H378Z" />
<glyph unicode="&#xac;" glyph-name="logicalnot" horiz-adv-x="612" d="M455 202L487 381H89L98 430H550L509 202H455Z" />
<glyph unicode="&#xad;" glyph-name="uni00AD" horiz-adv-x="333" d="M36 240L47 302H300L289 240H36Z" />
<glyph unicode="&#xae;" glyph-name="registered" horiz-adv-x="737" d="M383 -12Q306 -12 241 14T129 88T55 201T28 343Q28 420 54 485T128 597T241 671T383 698Q460 698 525 672T637 598T711 485T738 343Q738 266 712 201T638 89T525 15T383 -12ZM384 22Q476
22 548 63T661 177T702 343Q702 436 661 508T548 622T383 664Q291 664 219 623T105 509T64 343Q64 250 105 178T218 64T384 22ZM253 135V547H421Q482 547 513 516T544 426Q544 383 525 352T469 307L556 135H510L428 299H294V135H253ZM294 337H428Q461 337 480 360T500
426Q500 465 482 487T428 509H294V337Z" />
<glyph unicode="&#xaf;" glyph-name="overscore" horiz-adv-x="295" d="M70 657L77 700H371L364 657H70Z" />
<glyph unicode="&#xb0;" glyph-name="degree" horiz-adv-x="400" d="M258 463Q226 463 199 478T155 521T138 580Q138 613 154 640T198 682T258 698Q291 698 317 683T359 640T375 580Q375 548 360 521T318 479T258 463ZM258 491Q294 491 319 518T344 580Q344 616
319 642T258 669Q221 669 195 643T168 580Q168 545 194 518T258 491Z" />
<glyph unicode="&#xb1;" glyph-name="plusminus" horiz-adv-x="612" d="M224 109L265 339H54L62 389H273L314 620H364L323 389H534L526 339H315L274 109H224ZM-5 0L4 50H475L466 0H-5Z" />
<glyph unicode="&#xb2;" glyph-name="uni00B2" horiz-adv-x="333" d="M69 440L73 460Q78 488 98 510T147 551T206 586T264 621T308 659T325 706Q325 731 307 744T257 757Q224 757 204 746T173 718T159 684L154 656H114Q114 664 115 671T117 686Q124 725 145 749T198
784T262 796Q292 796 316 788T355 761T370 711Q370 680 357 657T321 614T271 578T215 547T164 516T124 481H331L324 440H69Z" />
<glyph unicode="&#xb3;" glyph-name="uni00B3" horiz-adv-x="333" d="M205 428Q143 428 112 449T80 511Q80 516 80 523T84 547H125Q123 534 123 529T122 521Q122 495 142 481T197 467Q227 467 251 475T290 500T305 546Q305 566 293 576T262 591T221 596H167L173
634H229Q251 634 273 641T310 664T325 708Q325 733 306 745T257 757Q235 757 214 750T178 728T160 691L158 677H114L116 691Q121 722 141 745T191 782T255 796Q311 796 340 775T369 712Q369 690 360 672T338 642T308 621V616Q327 606 338 589T349 547Q349 509 330
482T278 442T205 428Z" />
<glyph unicode="&#xb4;" glyph-name="acute" horiz-adv-x="161" d="M58 591L173 723H242V720L108 591H58Z" />
<glyph unicode="&#xb5;" glyph-name="uni00B5" horiz-adv-x="544" d="M-4 -173L119 526H167L102 154Q101 144 100 134T98 116Q98 81 112 63T153 38T211 31Q243 31 275 42T335 75T385 131T414 213L469 526H517L425 0H391L402 89H396Q363 48 329 26T261 -4T192 -12Q155
-12 126 -3T77 25Q76 11 74 -3T69 -31L44 -173H-4Z" />
<glyph unicode="&#xb6;" glyph-name="paragraph" horiz-adv-x="536" d="M168 -173L242 249Q197 256 163 281T109 344T90 428Q90 496 112 545T173 625T257 671T351 686H557L549 637H483L340 -173H292L435 637H359L216 -173H168Z" />
<glyph unicode="&#xb7;" glyph-name="middot" horiz-adv-x="333" d="M141 315L155 398H225L211 315H141Z" />
<glyph unicode="&#xb8;" glyph-name="cedilla" horiz-adv-x="182" d="M4 -168Q-16 -168 -38 -167T-75 -161L-70 -133H22Q50 -133 62 -123T74 -96Q74 -87 66 -82T40 -76H-19L16 11H53L35 -44Q71 -44 94 -53T118 -90Q118 -111 111 -126T90 -150T55 -164T4 -168Z" />
<glyph unicode="&#xb9;" glyph-name="uni00B9" horiz-adv-x="333" d="M85 440L92 480H186L229 720H135L140 751Q165 752 186 755T226 768T263 793H285L229 480H317L310 440H85Z" />
<glyph unicode="&#xba;" glyph-name="ordmasculine" horiz-adv-x="365" d="M193 329Q136 329 105 361T73 458Q73 475 74 492T79 525Q88 576 110 615T170 676T259 698Q316 698 347 666T379 569Q379 551 378 536T374 507Q365 457 343 417T283 353T193 329ZM200 368Q258
368 290 408T332 508Q334 518 335 528T336 548T337 571Q337 621 314 640T251 659Q194 659 163 619T120 519Q119 509 118 499T116 478T115 456Q115 406 138 387T200 368Z" />
<glyph unicode="&#xbb;" glyph-name="guillemotright" horiz-adv-x="525" d="M341 526L480 326L278 126H222L403 326L293 526H341ZM169 526L308 326L106 126H50L231 326L121 526H169Z" />
<glyph unicode="&#xbc;" glyph-name="onequarter" horiz-adv-x="834" d="M70 -12L741 698H798L127 -12H70ZM67 340L74 380H168L211 620H117L122 651Q147 652 168 655T208 668T245 693H267L211 380H299L292 340H67ZM626 0L641 84H467L473 117Q516 175 550 232T610
354H655Q641 319 623 284T587 218T552 162T524 123H648L670 250Q674 260 678 268T685 286T692 303H721L689 123H740L733 84H682L667 0H626Z" />
<glyph unicode="&#xbd;" glyph-name="onehalf" horiz-adv-x="834" d="M70 -12L741 698H798L127 -12H70ZM67 340L74 380H168L211 620H117L122 651Q147 652 168 655T208 668T245 693H267L211 380H299L292 340H67ZM458 0L462 20Q467 48 487 70T536 111T595 146T653
181T697 219T714 266Q714 291 696 304T646 317Q613 317 593 306T562 278T548 244L543 216H503Q503 224 504 231T506 246Q513 285 534 309T587 344T651 356Q681 356 705 348T744 321T759 271Q759 240 746 217T710 174T660 138T604 107T553 76T513 41H720L713 0H458Z"
/>
<glyph unicode="&#xbe;" glyph-name="threequarters" horiz-adv-x="834" d="M70 -12L741 698H798L127 -12H70ZM187 328Q125 328 94 349T62 411Q62 416 62 423T66 447H107Q105 434 105 429T104 421Q104 395 124 381T179 367Q209 367 233 375T272 400T287 446Q287
466 275 476T244 491T203 496H149L155 534H211Q233 534 255 541T292 564T307 608Q307 633 288 645T239 657Q217 657 196 650T160 628T142 591L140 577H96L98 591Q103 622 123 645T173 682T237 696Q293 696 322 675T351 612Q351 590 342 572T320 542T290 521V516Q309
506 320 489T331 447Q331 409 312 382T260 342T187 328ZM626 0L641 84H467L473 117Q516 175 550 232T610 354H655Q641 319 623 284T587 218T552 162T524 123H648L670 250Q674 260 678 268T685 286T692 303H721L689 123H740L733 84H682L667 0H626Z" />
<glyph unicode="&#xbf;" glyph-name="questiondown" horiz-adv-x="641" d="M258 -172Q201 -172 167 -157T114 -119T89 -70T83 -26Q83 28 98 65T138 129T191 176T246 214T291 254T315 304L326 366H376L364 299Q357 262 338 236T293 190T239 152T188 111T149 57T134
-20Q134 -43 143 -68T179 -110T255 -127Q305 -127 340 -111T399 -70T436 -17T454 35Q455 42 455 48T456 60H503Q503 44 497 16T474 -45T430 -106T360 -153T258 -172ZM333 449L347 526H411L397 449H333Z" />
<glyph unicode="&#xc0;" glyph-name="Agrave" horiz-adv-x="650" d="M-20 0L366 686H434L579 0H524L483 203H151L38 0H-20ZM178 251H473L422 502Q420 513 417 529T409 563T402 600T395 634H389Q379 614 365 589T339 540T318 502L178 251ZM395 736L304 865L305
868H372L443 736H395Z" />
<glyph unicode="&#xc1;" glyph-name="Aacute" horiz-adv-x="650" d="M-20 0L366 686H434L579 0H524L483 203H151L38 0H-20ZM178 251H473L422 502Q420 513 417 529T409 563T402 600T395 634H389Q379 614 365 589T339 540T318 502L178 251ZM379 736L496 868H566V865L430
736H379Z" />
<glyph unicode="&#xc2;" glyph-name="Acircumflex" horiz-adv-x="650" d="M-20 0L366 686H434L579 0H524L483 203H151L38 0H-20ZM178 251H473L422 502Q420 513 417 529T409 563T402 600T395 634H389Q379 614 365 589T339 540T318 502L178 251ZM270 736L399 868H451L533
736H480L408 850H438L327 736H270Z" />
<glyph unicode="&#xc3;" glyph-name="Atilde" horiz-adv-x="650" d="M-20 0L366 686H434L579 0H524L483 203H151L38 0H-20ZM178 251H473L422 502Q420 513 417 529T409 563T402 600T395 634H389Q379 614 365 589T339 540T318 502L178 251ZM266 784Q272 806 283
823T313 851T357 861Q383 861 407 853T453 837T497 828Q514 828 523 839T536 861H579Q574 839 561 822T530 794T486 784Q462 784 438 792T392 809T348 817Q329 817 320 807T307 784H266Z" />
<glyph unicode="&#xc4;" glyph-name="Adieresis" horiz-adv-x="650" d="M-20 0L366 686H434L579 0H524L483 203H151L38 0H-20ZM178 251H473L422 502Q420 513 417 529T409 563T402 600T395 634H389Q379 614 365 589T339 540T318 502L178 251ZM302 793L316 868H378L364
793H302ZM471 793L485 868H545L531 793H471Z" />
<glyph unicode="&#xc5;" glyph-name="Aring" horiz-adv-x="650" d="M-20 0L366 686H434L579 0H524L483 203H151L38 0H-20ZM178 251H473L422 502Q420 513 417 529T409 563T402 600T395 634H389Q379 614 365 589T339 540T318 502L178 251ZM409 731Q375 731 352 751T329
803Q329 832 343 854T381 890T436 903Q471 903 493 883T516 831Q516 802 502 780T464 744T409 731ZM416 769Q433 769 446 776T466 797T474 827Q474 844 462 854T429 865Q413 865 400 858T380 837T372 807Q372 791 384 780T416 769Z" />
<glyph unicode="&#xc6;" glyph-name="AE" horiz-adv-x="1001" d="M-37 0L431 686H1012L1004 638H505L526 376H914L905 327H530L553 48H906L898 0H503L487 203H160L22 0H-37ZM192 251H483L463 502Q462 514 461 531T458 566T456 602T453 634H448Q436 614 420 589T388
540T363 502L192 251Z" />
<glyph unicode="&#xc7;" glyph-name="Ccedilla" horiz-adv-x="737" d="M341 -12Q207 -12 136 57T65 256Q65 285 67 312T74 364Q92 467 143 541T274 657T456 698Q539 698 598 677T688 613T719 502Q719 489 719 475T714 445H659Q662 460 663 474T665 501Q665 553
640 585T566 634T448 650Q382 650 328 628T232 566T165 469T127 343Q126 333 125 323T122 301T121 279T120 256Q120 177 148 129T226 58T342 36Q423 36 481 57T576 124T627 241H678Q664 154 618 98T501 15T341 -12ZM314 -168Q294 -168 272 -167T235 -161L240 -133H332Q360
-133 372 -123T384 -96Q384 -87 376 -82T350 -76H291L326 11H363L345 -44Q381 -44 404 -53T428 -90Q428 -111 421 -126T400 -150T365 -164T314 -168Z" />
<glyph unicode="&#xc8;" glyph-name="Egrave" horiz-adv-x="682" d="M53 0L173 686H693L685 638H219L173 376H595L586 328H164L115 48H587L579 0H53ZM421 736L330 865L331 868H398L469 736H421Z" />
<glyph unicode="&#xc9;" glyph-name="Eacute" horiz-adv-x="682" d="M53 0L173 686H693L685 638H219L173 376H595L586 328H164L115 48H587L579 0H53ZM405 736L522 868H592V865L456 736H405Z" />
<glyph unicode="&#xca;" glyph-name="Ecircumflex" horiz-adv-x="682" d="M53 0L173 686H693L685 638H219L173 376H595L586 328H164L115 48H587L579 0H53ZM296 736L425 868H477L559 736H506L434 850H464L353 736H296Z" />
<glyph unicode="&#xcb;" glyph-name="Edieresis" horiz-adv-x="682" d="M53 0L173 686H693L685 638H219L173 376H595L586 328H164L115 48H587L579 0H53ZM328 793L342 868H404L390 793H328ZM497 793L511 868H571L557 793H497Z" />
<glyph unicode="&#xcc;" glyph-name="Igrave" horiz-adv-x="250" d="M52 0L173 686H227L106 0H52ZM197 736L106 865L107 868H174L245 736H197Z" />
<glyph unicode="&#xcd;" glyph-name="Iacute" horiz-adv-x="250" d="M52 0L173 686H227L106 0H52ZM181 736L298 868H368V865L232 736H181Z" />
<glyph unicode="&#xce;" glyph-name="Icircumflex" horiz-adv-x="250" d="M52 0L173 686H227L106 0H52ZM72 736L201 868H253L335 736H282L210 850H240L129 736H72Z" />
<glyph unicode="&#xcf;" glyph-name="Idieresis" horiz-adv-x="250" d="M52 0L173 686H227L106 0H52ZM104 793L118 868H180L166 793H104ZM273 793L287 868H347L333 793H273Z" />
<glyph unicode="&#xd0;" glyph-name="Eth" horiz-adv-x="741" d="M11 324L19 372H398L390 324H11ZM52 0L173 686H405Q549 686 627 625T705 433Q705 403 703 375T696 319Q677 214 624 143T489 36T296 0H52ZM115 48H291Q371 48 432 67T538 124T608 216T644 341Q646
354 647 368T648 396T649 426Q649 507 619 553T533 619T397 638H219L115 48Z" />
<glyph unicode="&#xd1;" glyph-name="Ntilde" horiz-adv-x="740" d="M53 0L173 686H228L515 177Q521 167 529 152T545 122T558 94L562 95Q565 113 567 132T574 177L663 686H717L597 0H555L259 518Q252 531 238 557T215 602L210 601Q208 582 205 560T198 519L107
0H53ZM318 784Q324 806 335 823T365 851T409 861Q435 861 459 853T505 837T549 828Q566 828 575 839T588 861H631Q626 839 613 822T582 794T538 784Q514 784 490 792T444 809T400 817Q381 817 372 807T359 784H318Z" />
<glyph unicode="&#xd2;" glyph-name="Ograve" horiz-adv-x="795" d="M349 -12Q259 -12 195 19T98 110T64 256Q64 284 66 310T73 361Q92 461 144 536T280 655T474 698Q565 698 628 667T725 576T759 430Q759 403 757 377T750 325Q732 226 679 150T543 31T349 -12ZM356
36Q431 36 489 59T590 123T659 221T697 343Q699 354 700 364T702 386T703 408T704 430Q704 510 675 558T592 628T467 650Q393 650 335 627T233 563T164 465T126 343Q124 333 123 322T121 300T120 278T119 256Q119 177 148 129T231 58T356 36ZM467 736L376 865L377
868H444L515 736H467Z" />
<glyph unicode="&#xd3;" glyph-name="Oacute" horiz-adv-x="795" d="M349 -12Q259 -12 195 19T98 110T64 256Q64 284 66 310T73 361Q92 461 144 536T280 655T474 698Q565 698 628 667T725 576T759 430Q759 403 757 377T750 325Q732 226 679 150T543 31T349 -12ZM356
36Q431 36 489 59T590 123T659 221T697 343Q699 354 700 364T702 386T703 408T704 430Q704 510 675 558T592 628T467 650Q393 650 335 627T233 563T164 465T126 343Q124 333 123 322T121 300T120 278T119 256Q119 177 148 129T231 58T356 36ZM451 736L568 868H638V865L502
736H451Z" />
<glyph unicode="&#xd4;" glyph-name="Ocircumflex" horiz-adv-x="795" d="M349 -12Q259 -12 195 19T98 110T64 256Q64 284 66 310T73 361Q92 461 144 536T280 655T474 698Q565 698 628 667T725 576T759 430Q759 403 757 377T750 325Q732 226 679 150T543 31T349
-12ZM356 36Q431 36 489 59T590 123T659 221T697 343Q699 354 700 364T702 386T703 408T704 430Q704 510 675 558T592 628T467 650Q393 650 335 627T233 563T164 465T126 343Q124 333 123 322T121 300T120 278T119 256Q119 177 148 129T231 58T356 36ZM342 736L471
868H523L605 736H552L480 850H510L399 736H342Z" />
<glyph unicode="&#xd5;" glyph-name="Otilde" horiz-adv-x="795" d="M349 -12Q259 -12 195 19T98 110T64 256Q64 284 66 310T73 361Q92 461 144 536T280 655T474 698Q565 698 628 667T725 576T759 430Q759 403 757 377T750 325Q732 226 679 150T543 31T349 -12ZM356
36Q431 36 489 59T590 123T659 221T697 343Q699 354 700 364T702 386T703 408T704 430Q704 510 675 558T592 628T467 650Q393 650 335 627T233 563T164 465T126 343Q124 333 123 322T121 300T120 278T119 256Q119 177 148 129T231 58T356 36ZM338 784Q344 806 355
823T385 851T429 861Q455 861 479 853T525 837T569 828Q586 828 595 839T608 861H651Q646 839 633 822T602 794T558 784Q534 784 510 792T464 809T420 817Q401 817 392 807T379 784H338Z" />
<glyph unicode="&#xd6;" glyph-name="Odieresis" horiz-adv-x="795" d="M349 -12Q259 -12 195 19T98 110T64 256Q64 284 66 310T73 361Q92 461 144 536T280 655T474 698Q565 698 628 667T725 576T759 430Q759 403 757 377T750 325Q732 226 679 150T543 31T349
-12ZM356 36Q431 36 489 59T590 123T659 221T697 343Q699 354 700 364T702 386T703 408T704 430Q704 510 675 558T592 628T467 650Q393 650 335 627T233 563T164 465T126 343Q124 333 123 322T121 300T120 278T119 256Q119 177 148 129T231 58T356 36ZM374 793L388
868H450L436 793H374ZM543 793L557 868H617L603 793H543Z" />
<glyph unicode="&#xd7;" glyph-name="multiply" horiz-adv-x="612" d="M107 56L76 94L269 257L147 405L187 439L309 291L502 455L533 417L340 253L461 105L422 71L300 219L107 56Z" />
<glyph unicode="&#xd8;" glyph-name="Oslash" horiz-adv-x="795" d="M349 -12Q259 -12 195 19T98 110T64 256Q64 284 66 310T73 361Q92 461 144 536T280 655T474 698Q565 698 628 667T725 576T759 430Q759 403 757 377T750 325Q732 226 679 150T543 31T349 -12ZM356
36Q431 36 489 59T590 123T659 221T697 343Q699 354 700 364T702 386T703 408T704 430Q704 510 675 558T592 628T467 650Q393 650 335 627T233 563T164 465T126 343Q124 333 123 322T121 300T120 278T119 256Q119 177 148 129T231 58T356 36ZM14 -49L749 735H807L72
-49H14Z" />
<glyph unicode="&#xd9;" glyph-name="Ugrave" horiz-adv-x="740" d="M323 -12Q215 -12 153 33T91 185Q91 203 93 227T100 274L174 686H228L150 251Q147 236 146 216T144 183Q144 104 192 70T327 36Q431 36 499 87T585 240L664 686H718L643 266Q625 165 583 104T475
15T323 -12ZM443 736L352 865L353 868H420L491 736H443Z" />
<glyph unicode="&#xda;" glyph-name="Uacute" horiz-adv-x="740" d="M323 -12Q215 -12 153 33T91 185Q91 203 93 227T100 274L174 686H228L150 251Q147 236 146 216T144 183Q144 104 192 70T327 36Q431 36 499 87T585 240L664 686H718L643 266Q625 165 583 104T475
15T323 -12ZM427 736L544 868H614V865L478 736H427Z" />
<glyph unicode="&#xdb;" glyph-name="Ucircumflex" horiz-adv-x="740" d="M323 -12Q215 -12 153 33T91 185Q91 203 93 227T100 274L174 686H228L150 251Q147 236 146 216T144 183Q144 104 192 70T327 36Q431 36 499 87T585 240L664 686H718L643 266Q625 165 583
104T475 15T323 -12ZM318 736L447 868H499L581 736H528L456 850H486L375 736H318Z" />
<glyph unicode="&#xdc;" glyph-name="Udieresis" horiz-adv-x="740" d="M323 -12Q215 -12 153 33T91 185Q91 203 93 227T100 274L174 686H228L150 251Q147 236 146 216T144 183Q144 104 192 70T327 36Q431 36 499 87T585 240L664 686H718L643 266Q625 165 583
104T475 15T323 -12ZM350 793L364 868H426L412 793H350ZM519 793L533 868H593L579 793H519Z" />
<glyph unicode="&#xdd;" glyph-name="Yacute" horiz-adv-x="630" d="M242 0L293 291L85 686H142L324 338H328L631 686H695L347 291L296 0H242ZM375 736L492 868H562V865L426 736H375Z" />
<glyph unicode="&#xde;" glyph-name="Thorn" horiz-adv-x="667" d="M52 0L173 686H227L206 565H493Q550 565 587 545T643 490T662 410Q662 355 646 310T600 232T530 182T441 164H135L106 0H52ZM143 212H432Q485 212 524 235T585 302T607 404Q607 457 577 487T485
517H197L143 212Z" />
<glyph unicode="&#xdf;" glyph-name="germandbls" horiz-adv-x="611" d="M27 0L119 521Q128 573 150 613T205 680T282 721T376 735Q427 735 465 724T528 693T565 646T577 586Q577 538 558 499T503 434T418 395V391Q476 378 509 339T543 237Q543 174 522 129T465
56T387 14T302 0H188L195 44H302Q358 44 401 67T468 134T492 237Q492 282 475 310T427 352T361 366H252L260 408H354Q394 408 433 430T498 491T524 576Q524 629 488 660T381 692Q324 692 280 673T207 616T167 518L76 0H27Z" />
<glyph unicode="&#xe0;" glyph-name="agrave" horiz-adv-x="531" d="M205 -12Q151 -12 114 7T56 68T36 175Q36 195 38 217T44 265Q60 361 93 421T175 510T286 538Q324 538 352 529T402 499T436 446H442L465 526H501L481 410Q477 384 470 344T454 258T439 170T428
98T423 58Q423 46 429 40T449 33H496L491 6Q481 1 467 -4T437 -10Q407 -10 393 5T379 49Q379 56 380 64T382 80L376 83Q344 34 298 11T205 -12ZM212 31Q236 31 264 39T320 71T370 138T405 252Q409 277 411 295T415 328T416 354Q416 400 403 431T361 479T287 495Q245
495 208 476T141 409T98 278Q93 248 91 229T87 195T86 169Q86 96 118 64T212 31ZM284 591L201 720L202 723H261L329 591H284Z" />
<glyph unicode="&#xe1;" glyph-name="aacute" horiz-adv-x="531" d="M205 -12Q151 -12 114 7T56 68T36 175Q36 195 38 217T44 265Q60 361 93 421T175 510T286 538Q324 538 352 529T402 499T436 446H442L465 526H501L481 410Q477 384 470 344T454 258T439 170T428
98T423 58Q423 46 429 40T449 33H496L491 6Q481 1 467 -4T437 -10Q407 -10 393 5T379 49Q379 56 380 64T382 80L376 83Q344 34 298 11T205 -12ZM212 31Q236 31 264 39T320 71T370 138T405 252Q409 277 411 295T415 328T416 354Q416 400 403 431T361 479T287 495Q245
495 208 476T141 409T98 278Q93 248 91 229T87 195T86 169Q86 96 118 64T212 31ZM276 591L391 723H460V720L326 591H276Z" />
<glyph unicode="&#xe2;" glyph-name="acircumflex" horiz-adv-x="531" d="M205 -12Q151 -12 114 7T56 68T36 175Q36 195 38 217T44 265Q60 361 93 421T175 510T286 538Q324 538 352 529T402 499T436 446H442L465 526H501L481 410Q477 384 470 344T454 258T439
170T428 98T423 58Q423 46 429 40T449 33H496L491 6Q481 1 467 -4T437 -10Q407 -10 393 5T379 49Q379 56 380 64T382 80L376 83Q344 34 298 11T205 -12ZM212 31Q236 31 264 39T320 71T370 138T405 252Q409 277 411 295T415 328T416 354Q416 400 403 431T361 479T287
495Q245 495 208 476T141 409T98 278Q93 248 91 229T87 195T86 169Q86 96 118 64T212 31ZM176 591L305 723H353L435 591H384L312 705H342L231 591H176Z" />
<glyph unicode="&#xe3;" glyph-name="atilde" horiz-adv-x="531" d="M205 -12Q151 -12 114 7T56 68T36 175Q36 195 38 217T44 265Q60 361 93 421T175 510T286 538Q324 538 352 529T402 499T436 446H442L465 526H501L481 410Q477 384 470 344T454 258T439 170T428
98T423 58Q423 46 429 40T449 33H496L491 6Q481 1 467 -4T437 -10Q407 -10 393 5T379 49Q379 56 380 64T382 80L376 83Q344 34 298 11T205 -12ZM212 31Q236 31 264 39T320 71T370 138T405 252Q409 277 411 295T415 328T416 354Q416 400 403 431T361 479T287 495Q245
495 208 476T141 409T98 278Q93 248 91 229T87 195T86 169Q86 96 118 64T212 31ZM161 640Q167 662 178 679T208 707T252 717Q278 717 302 709T348 693T392 684Q409 684 418 695T431 717H474Q469 695 456 678T425 650T381 640Q357 640 333 648T287 665T243 673Q224
673 215 663T202 640H161Z" />
<glyph unicode="&#xe4;" glyph-name="adieresis" horiz-adv-x="531" d="M205 -12Q151 -12 114 7T56 68T36 175Q36 195 38 217T44 265Q60 361 93 421T175 510T286 538Q324 538 352 529T402 499T436 446H442L465 526H501L481 410Q477 384 470 344T454 258T439 170T428
98T423 58Q423 46 429 40T449 33H496L491 6Q481 1 467 -4T437 -10Q407 -10 393 5T379 49Q379 56 380 64T382 80L376 83Q344 34 298 11T205 -12ZM212 31Q236 31 264 39T320 71T370 138T405 252Q409 277 411 295T415 328T416 354Q416 400 403 431T361 479T287 495Q245
495 208 476T141 409T98 278Q93 248 91 229T87 195T86 169Q86 96 118 64T212 31ZM197 650L210 719H275L262 650H197ZM373 650L386 719H451L438 650H373Z" />
<glyph unicode="&#xe5;" glyph-name="aring" horiz-adv-x="531" d="M205 -12Q151 -12 114 7T56 68T36 175Q36 195 38 217T44 265Q60 361 93 421T175 510T286 538Q324 538 352 529T402 499T436 446H442L465 526H501L481 410Q477 384 470 344T454 258T439 170T428
98T423 58Q423 46 429 40T449 33H496L491 6Q481 1 467 -4T437 -10Q407 -10 393 5T379 49Q379 56 380 64T382 80L376 83Q344 34 298 11T205 -12ZM212 31Q236 31 264 39T320 71T370 138T405 252Q409 277 411 295T415 328T416 354Q416 400 403 431T361 479T287 495Q245
495 208 476T141 409T98 278Q93 248 91 229T87 195T86 169Q86 96 118 64T212 31ZM307 581Q274 581 253 600T232 651Q232 697 260 725T334 753Q366 753 386 734T407 683Q407 653 395 630T360 594T307 581ZM313 614Q331 614 344 622T363 645T370 678Q370 697 359
708T328 720Q310 720 297 712T276 689T269 656Q269 637 281 626T313 614Z" />
<glyph unicode="&#xe6;" glyph-name="ae" horiz-adv-x="892" d="M149 -12Q117 -12 90 -5T44 18T13 55T2 109Q2 159 24 193T85 247T175 278T286 292T409 296L422 371Q424 378 425 391T427 410Q427 449 396 471T287 493Q231 493 196 479T143 441T120 387L117 370H71Q71
372 72 378T74 392Q86 443 116 475T194 522T305 538Q376 538 420 513T472 442Q509 491 560 514T676 538Q735 538 775 518T837 459T858 365Q858 344 855 314T843 251H452Q448 229 446 210T444 173Q444 121 461 90T509 45T585 31Q629 31 662 43T719 75T757 121T778
174H824Q817 140 800 107T753 47T680 4T577 -12Q505 -12 462 19T402 114Q362 60 316 33T226 -3T149 -12ZM158 31Q194 31 232 42T303 75T360 125T390 191L401 251Q302 251 224 242T101 202T56 111Q56 83 69 66T106 40T158 31ZM459 294H802Q805 312 806 327T808 357Q808
408 791 438T743 482T667 495Q613 495 572 474T503 409T459 294Z" />
<glyph unicode="&#xe7;" glyph-name="ccedilla" horiz-adv-x="485" d="M219 -12Q161 -12 120 8T58 71T36 181Q36 201 38 223T45 271Q57 338 78 388T132 471T206 521T303 538Q365 538 401 520T454 471T470 396Q470 382 469 367T464 334H417Q420 350 421 364T423
392Q423 428 411 451T371 484T301 495Q257 495 216 475T143 408T97 278Q92 250 90 231T87 199T86 175Q86 124 102 93T148 46T218 31Q274 31 309 50T364 106T392 192H439Q431 138 407 92T337 17T219 -12ZM178 -168Q158 -168 136 -167T99 -161L104 -133H196Q224 -133
236 -123T248 -96Q248 -87 240 -82T214 -76H155L190 11H227L209 -44Q245 -44 268 -53T292 -90Q292 -111 285 -126T264 -150T229 -164T178 -168Z" />
<glyph unicode="&#xe8;" glyph-name="egrave" horiz-adv-x="532" d="M224 -12Q161 -12 120 10T58 75T37 180Q37 206 40 232T48 284Q64 360 96 417T181 506T313 538Q377 538 417 514T477 448T497 351Q497 328 494 303T484 250H95Q92 231 91 215T89 183Q89 129 105
96T153 47T231 31Q259 31 286 38T339 62T384 106T417 174H463Q450 127 427 92T374 34T305 0T224 -12ZM103 293H443Q446 311 447 327T449 358Q449 402 434 432T388 479T307 495Q256 495 215 472T145 403T103 293ZM308 591L225 720L226 723H285L353 591H308Z" />
<glyph unicode="&#xe9;" glyph-name="eacute" horiz-adv-x="532" d="M224 -12Q161 -12 120 10T58 75T37 180Q37 206 40 232T48 284Q64 360 96 417T181 506T313 538Q377 538 417 514T477 448T497 351Q497 328 494 303T484 250H95Q92 231 91 215T89 183Q89 129 105
96T153 47T231 31Q259 31 286 38T339 62T384 106T417 174H463Q450 127 427 92T374 34T305 0T224 -12ZM103 293H443Q446 311 447 327T449 358Q449 402 434 432T388 479T307 495Q256 495 215 472T145 403T103 293ZM300 591L415 723H484V720L350 591H300Z" />
<glyph unicode="&#xea;" glyph-name="ecircumflex" horiz-adv-x="532" d="M224 -12Q161 -12 120 10T58 75T37 180Q37 206 40 232T48 284Q64 360 96 417T181 506T313 538Q377 538 417 514T477 448T497 351Q497 328 494 303T484 250H95Q92 231 91 215T89 183Q89
129 105 96T153 47T231 31Q259 31 286 38T339 62T384 106T417 174H463Q450 127 427 92T374 34T305 0T224 -12ZM103 293H443Q446 311 447 327T449 358Q449 402 434 432T388 479T307 495Q256 495 215 472T145 403T103 293ZM200 591L329 723H377L459 591H408L336 705H366L255
591H200Z" />
<glyph unicode="&#xeb;" glyph-name="edieresis" horiz-adv-x="532" d="M224 -12Q161 -12 120 10T58 75T37 180Q37 206 40 232T48 284Q64 360 96 417T181 506T313 538Q377 538 417 514T477 448T497 351Q497 328 494 303T484 250H95Q92 231 91 215T89 183Q89 129
105 96T153 47T231 31Q259 31 286 38T339 62T384 106T417 174H463Q450 127 427 92T374 34T305 0T224 -12ZM103 293H443Q446 311 447 327T449 358Q449 402 434 432T388 479T307 495Q256 495 215 472T145 403T103 293ZM221 650L234 719H299L286 650H221ZM397 650L410
719H475L462 650H397Z" />
<glyph unicode="&#xec;" glyph-name="igrave" horiz-adv-x="195" d="M27 0L120 526H168L75 0H27ZM131 591L48 720L49 723H108L176 591H131Z" />
<glyph unicode="&#xed;" glyph-name="iacute" horiz-adv-x="195" d="M27 0L120 526H168L75 0H27ZM123 591L238 723H307V720L173 591H123Z" />
<glyph unicode="&#xee;" glyph-name="icircumflex" horiz-adv-x="195" d="M27 0L120 526H168L75 0H27ZM23 591L152 723H200L282 591H231L159 705H189L78 591H23Z" />
<glyph unicode="&#xef;" glyph-name="idieresis" horiz-adv-x="195" d="M27 0L120 526H168L75 0H27ZM44 650L57 719H122L109 650H44ZM220 650L233 719H298L285 650H220Z" />
<glyph unicode="&#xf0;" glyph-name="eth" horiz-adv-x="512" d="M208 -12Q155 -12 117 9T59 73T39 180Q39 229 46 274T68 358Q83 399 105 432T156 488T221 525T302 538Q326 538 348 533T387 518L391 519Q375 551 356 579T316 632L182 622L190 665L279 671Q262
688 247 699T220 719V723H284Q295 716 309 704T339 676L469 686L461 643L374 636Q412 584 443 510T474 346Q474 312 471 280T459 218Q443 152 412 100T332 18T208 -12ZM219 31Q259 31 290 46T346 88T387 150Q397 171 404 194T417 243T424 294T427 349Q427 405 411
436T365 481T295 495Q257 495 227 481T173 442T131 384Q116 355 107 322T92 252T87 177Q87 122 103 90T150 45T219 31Z" />
<glyph unicode="&#xf1;" glyph-name="ntilde" horiz-adv-x="538" d="M27 0L119 526H153L142 437H148Q182 479 216 500T284 530T352 538Q394 538 426 526T476 487T494 416Q494 406 493 395T490 371L425 0H377L442 372Q444 383 445 393T446 410Q446 445 432 463T392
488T333 495Q302 495 270 483T208 447T158 387T128 303L75 0H27ZM194 640Q200 662 211 679T241 707T285 717Q311 717 335 709T381 693T425 684Q442 684 451 695T464 717H507Q502 695 489 678T458 650T414 640Q390 640 366 648T320 665T276 673Q257 673 248 663T235
640H194Z" />
<glyph unicode="&#xf2;" glyph-name="ograve" horiz-adv-x="536" d="M227 -12Q166 -12 124 9T59 73T36 182Q36 202 38 224T45 271Q61 365 96 423T184 510T308 538Q370 538 412 517T477 453T499 342Q499 323 498 301T491 255Q475 163 439 104T350 17T227 -12ZM227
31Q280 31 323 53T395 123T437 248Q442 276 444 294T448 326T449 350Q449 401 432 433T384 480T308 495Q255 495 213 473T141 404T98 278Q93 250 91 231T87 200T86 176Q86 124 102 93T151 46T227 31ZM303 591L220 720L221 723H280L348 591H303Z" />
<glyph unicode="&#xf3;" glyph-name="oacute" horiz-adv-x="536" d="M227 -12Q166 -12 124 9T59 73T36 182Q36 202 38 224T45 271Q61 365 96 423T184 510T308 538Q370 538 412 517T477 453T499 342Q499 323 498 301T491 255Q475 163 439 104T350 17T227 -12ZM227
31Q280 31 323 53T395 123T437 248Q442 276 444 294T448 326T449 350Q449 401 432 433T384 480T308 495Q255 495 213 473T141 404T98 278Q93 250 91 231T87 200T86 176Q86 124 102 93T151 46T227 31ZM295 591L410 723H479V720L345 591H295Z" />
<glyph unicode="&#xf4;" glyph-name="ocircumflex" horiz-adv-x="536" d="M227 -12Q166 -12 124 9T59 73T36 182Q36 202 38 224T45 271Q61 365 96 423T184 510T308 538Q370 538 412 517T477 453T499 342Q499 323 498 301T491 255Q475 163 439 104T350 17T227 -12ZM227
31Q280 31 323 53T395 123T437 248Q442 276 444 294T448 326T449 350Q449 401 432 433T384 480T308 495Q255 495 213 473T141 404T98 278Q93 250 91 231T87 200T86 176Q86 124 102 93T151 46T227 31ZM195 591L324 723H372L454 591H403L331 705H361L250 591H195Z"
/>
<glyph unicode="&#xf5;" glyph-name="otilde" horiz-adv-x="536" d="M227 -12Q166 -12 124 9T59 73T36 182Q36 202 38 224T45 271Q61 365 96 423T184 510T308 538Q370 538 412 517T477 453T499 342Q499 323 498 301T491 255Q475 163 439 104T350 17T227 -12ZM227
31Q280 31 323 53T395 123T437 248Q442 276 444 294T448 326T449 350Q449 401 432 433T384 480T308 495Q255 495 213 473T141 404T98 278Q93 250 91 231T87 200T86 176Q86 124 102 93T151 46T227 31ZM180 640Q186 662 197 679T227 707T271 717Q297 717 321 709T367
693T411 684Q428 684 437 695T450 717H493Q488 695 475 678T444 650T400 640Q376 640 352 648T306 665T262 673Q243 673 234 663T221 640H180Z" />
<glyph unicode="&#xf6;" glyph-name="odieresis" horiz-adv-x="536" d="M227 -12Q166 -12 124 9T59 73T36 182Q36 202 38 224T45 271Q61 365 96 423T184 510T308 538Q370 538 412 517T477 453T499 342Q499 323 498 301T491 255Q475 163 439 104T350 17T227 -12ZM227
31Q280 31 323 53T395 123T437 248Q442 276 444 294T448 326T449 350Q449 401 432 433T384 480T308 495Q255 495 213 473T141 404T98 278Q93 250 91 231T87 200T86 176Q86 124 102 93T151 46T227 31ZM216 650L229 719H294L281 650H216ZM392 650L405 719H470L457
650H392Z" />
<glyph unicode="&#xf7;" glyph-name="divide" horiz-adv-x="612" d="M64 230L73 280H545L536 230H64ZM236 51L248 120H313L301 51H236ZM295 390L307 459H372L360 390H295Z" />
<glyph unicode="&#xf8;" glyph-name="oslash" horiz-adv-x="536" d="M227 -12Q166 -12 124 9T59 73T36 182Q36 202 38 224T45 271Q61 365 96 423T184 510T308 538Q370 538 412 517T477 453T499 342Q499 323 498 301T491 255Q475 163 439 104T350 17T227 -12ZM227
31Q280 31 323 53T395 123T437 248Q442 276 444 294T448 326T449 350Q449 401 432 433T384 480T308 495Q255 495 213 473T141 404T98 278Q93 250 91 231T87 200T86 176Q86 124 102 93T151 46T227 31ZM-40 -49L527 575H576L12 -49H-40Z" />
<glyph unicode="&#xf9;" glyph-name="ugrave" horiz-adv-x="538" d="M186 -12Q144 -12 112 0T62 39T44 110Q44 121 45 132T48 155L113 526H161L96 154Q95 144 94 134T92 116Q92 81 106 63T147 38T205 31Q237 31 269 42T329 75T379 131T408 213L463 526H511L419
0H385L396 89H390Q357 48 323 26T255 -4T186 -12ZM301 591L218 720L219 723H278L346 591H301Z" />
<glyph unicode="&#xfa;" glyph-name="uacute" horiz-adv-x="538" d="M186 -12Q144 -12 112 0T62 39T44 110Q44 121 45 132T48 155L113 526H161L96 154Q95 144 94 134T92 116Q92 81 106 63T147 38T205 31Q237 31 269 42T329 75T379 131T408 213L463 526H511L419
0H385L396 89H390Q357 48 323 26T255 -4T186 -12ZM293 591L408 723H477V720L343 591H293Z" />
<glyph unicode="&#xfb;" glyph-name="ucircumflex" horiz-adv-x="538" d="M186 -12Q144 -12 112 0T62 39T44 110Q44 121 45 132T48 155L113 526H161L96 154Q95 144 94 134T92 116Q92 81 106 63T147 38T205 31Q237 31 269 42T329 75T379 131T408 213L463 526H511L419
0H385L396 89H390Q357 48 323 26T255 -4T186 -12ZM193 591L322 723H370L452 591H401L329 705H359L248 591H193Z" />
<glyph unicode="&#xfc;" glyph-name="udieresis" horiz-adv-x="538" d="M186 -12Q144 -12 112 0T62 39T44 110Q44 121 45 132T48 155L113 526H161L96 154Q95 144 94 134T92 116Q92 81 106 63T147 38T205 31Q237 31 269 42T329 75T379 131T408 213L463 526H511L419
0H385L396 89H390Q357 48 323 26T255 -4T186 -12ZM214 650L227 719H292L279 650H214ZM390 650L403 719H468L455 650H390Z" />
<glyph unicode="&#xfd;" glyph-name="yacute" horiz-adv-x="475" d="M24 -182Q14 -182 -3 -181T-31 -179L-25 -141H16Q44 -141 68 -131T119 -90T177 7L72 526H121L175 233Q179 212 184 182T196 120T206 63H211Q220 81 230 104T252 150T274 195T293 233L442 526H493L221
0Q198 -44 179 -78T138 -135T89 -170T24 -182ZM260 591L375 723H444V720L310 591H260Z" />
<glyph unicode="&#xfe;" glyph-name="thorn" horiz-adv-x="527" d="M-4 -173L154 723H203L155 453H162Q183 479 209 498T267 527T330 538Q383 538 418 517T470 452T488 346Q488 320 486 294T479 242Q467 172 436 114T355 22T234 -12Q205 -12 178 -4T130 22T95
72H88L44 -173H-4ZM238 31Q295 31 334 60T397 138T431 245Q434 262 435 278T438 312T439 346Q439 399 426 431T387 479T321 495Q258 495 216 462T150 377T116 268Q114 252 112 236T109 205T108 174Q108 112 129 82T180 41T238 31Z" />
<glyph unicode="&#xff;" glyph-name="ydieresis" horiz-adv-x="475" d="M24 -182Q14 -182 -3 -181T-31 -179L-25 -141H16Q44 -141 68 -131T119 -90T177 7L72 526H121L175 233Q179 212 184 182T196 120T206 63H211Q220 81 230 104T252 150T274 195T293 233L442
526H493L221 0Q198 -44 179 -78T138 -135T89 -170T24 -182ZM181 650L194 719H259L246 650H181ZM357 650L370 719H435L422 650H357Z" />
<glyph unicode="&#x2013;" glyph-name="endash" horiz-adv-x="500" d="M-2 243L7 300H506L496 243H-2Z" />
<glyph unicode="&#x2014;" glyph-name="emdash" horiz-adv-x="1000" d="M-2 243L7 300H1006L996 243H-2Z" />
<glyph unicode="&#x2018;" glyph-name="quoteleft" horiz-adv-x="189" d="M215 686L209 657Q195 652 184 639T165 605T152 558H179L165 481H101L113 547Q123 604 142 633T182 673T215 686Z" />
<glyph unicode="&#x2019;" glyph-name="quoteright" horiz-adv-x="189" d="M87 481L93 510Q108 515 119 528T138 562T150 609H123L137 686H201L189 620Q179 564 160 535T120 495T87 481Z" />
<glyph unicode="&#x201a;" glyph-name="quotesinglbase" horiz-adv-x="190" d="M-20 -128L-14 -99Q1 -94 12 -81T31 -47T43 0H16L30 77H94L82 11Q72 -46 53 -74T13 -114T-20 -128Z" />
<glyph unicode="&#x201c;" glyph-name="quotedblleft" horiz-adv-x="289" d="M315 686L309 657Q295 652 284 639T265 605T252 558H279L265 481H201L213 547Q223 604 242 633T282 673T315 686ZM215 686L209 657Q195 652 184 639T165 605T152 558H179L165 481H101L113
547Q123 604 142 633T182 673T215 686Z" />
<glyph unicode="&#x201d;" glyph-name="quotedblright" horiz-adv-x="289" d="M87 481L93 510Q108 515 119 528T138 562T150 609H123L137 686H201L189 620Q179 564 160 535T120 495T87 481ZM187 481L193 510Q208 515 219 528T238 562T250 609H223L237 686H301L289
620Q279 564 260 535T220 495T187 481Z" />
<glyph unicode="&#x201e;" glyph-name="quotedblbase" horiz-adv-x="290" d="M-20 -128L-14 -99Q1 -94 12 -81T31 -47T43 0H16L30 77H94L82 11Q72 -46 53 -74T13 -114T-20 -128ZM80 -128L86 -99Q101 -94 112 -81T131 -47T143 0H116L130 77H194L182 11Q172 -46
153 -74T113 -114T80 -128Z" />
<glyph unicode="&#x2022;" glyph-name="bullet" horiz-adv-x="350" d="M170 230Q142 230 120 241T86 273T74 318Q74 359 91 390T139 439T209 457Q238 457 259 446T293 415T305 371Q305 330 288 298T240 248T170 230Z" />
<glyph unicode="&#x2039;" glyph-name="guilsinglleft" horiz-adv-x="353" d="M206 126L67 326L269 526H325L144 326L254 126H206Z" />
<glyph unicode="&#x203a;" glyph-name="guilsinglright" horiz-adv-x="353" d="M169 526L308 326L106 126H50L231 326L121 526H169Z" />
</font>
</defs>
</svg>
