<?xml version="1.0" standalone="no"?>
<!DOCTYPE svg PUBLIC "-//W3C//DTD SVG 1.1//EN" "http://www.w3.org/Graphics/SVG/1.1/DTD/svg11.dtd">
<svg xmlns="http://www.w3.org/2000/svg">
<defs >
<font id="Lora" horiz-adv-x="585" ><font-face
    font-family="Lora"
    units-per-em="1000"
    panose-1="0 0 0 0 0 0 0 0 0 0"
    ascent="1006"
    descent="-274"
    alphabetic="0" />
<glyph unicode=" " glyph-name="space" horiz-adv-x="263" />
<glyph unicode="!" glyph-name="exclam" horiz-adv-x="272" d="M161 716Q183 716 195 705T211 678T212 643L153 230H116L101 643Q100 669 115 692T161 716ZM129 113Q154 113 170 94T184 48Q183 21 164 3T121 -16Q98 -16 82 2T67 48Q69 75 87 94T129 113Z" />
<glyph unicode="&quot;" glyph-name="quotedbl" horiz-adv-x="356" d="M326 716L304 491H242L248 716H326ZM163 716L141 491H79L84 716H163Z" />
<glyph unicode="#" glyph-name="numbersign" horiz-adv-x="808" d="M661 700L622 529H789V528L774 469H608L556 238H723L707 178H542L502 0H430L472 178H262L222 0H150L192 178H26L42 238H206L260 469H92L108 529H274L315 700H381L342 529H554L595 700H661ZM540
469H328L275 238H486L540 469Z" />
<glyph unicode="$" glyph-name="dollar" horiz-adv-x="529" d="M221 -153L227 -16Q196 -14 159 -6T91 19L94 -13H40L51 200H86Q87 108 134 66T260 23Q319 23 358 58T400 148Q402 192 381 222T324 276T248 321Q214 340 180 360T119 405T76 463T62 541Q63 565 73
594T107 649T167 694T260 716L266 833H320L313 715Q341 711 368 701T421 671L420 716H470L458 498H421Q421 546 408 586T363 652T272 677Q230 677 202 660T159 615T143 558Q143 518 163 489T217 438T290 393Q326 374 361 354T426 308T471 249T485 170Q483 124 460
83T392 16T281 -16L273 -153H221Z" />
<glyph unicode="%" glyph-name="percent" horiz-adv-x="873" d="M153 -16L114 22L709 716L753 674L153 -16ZM222 335Q163 335 124 362T67 431T51 522Q54 569 77 613T142 686T242 716Q304 718 343 691T401 621T416 532Q414 481 387 436T316 363T222 335ZM227 373Q254
373 273 386T304 420T322 466T329 514Q331 539 328 567T315 621T287 663T241 679Q213 679 194 665T162 628T145 581T138 537Q136 513 138 485T151 431T179 390T227 373ZM637 -16Q578 -16 539 11T482 80T466 171Q469 218 492 262T557 335T657 365Q719 366 758 339T815
269T831 180Q829 129 802 84T731 12T637 -16ZM642 21Q679 21 700 43T732 98T744 162Q746 187 743 215T730 269T702 311T656 327Q628 327 609 312T578 275T560 228T553 185Q552 161 554 133T566 79T594 38T642 21Z" />
<glyph unicode="&amp;" glyph-name="ampersand" horiz-adv-x="683" d="M286 -16Q213 -16 155 6T64 72T34 185Q37 232 58 274T121 347T223 385Q139 403 111 443T86 536Q90 592 120 632T198 694T307 716Q361 716 399 700T458 659T479 605Q479 587 469 573T438 558Q422
557 409 567T396 594Q395 602 397 611T404 627Q400 648 374 664T310 681Q268 681 239 662T193 612T174 544Q173 526 176 502T192 455T230 417T298 401Q319 401 324 401T338 402L336 358L298 359Q250 359 218 343T167 303T139 252T129 205Q126 145 152 107T219 50T299
31Q377 31 425 60T495 138T517 243Q491 243 470 243T429 236T381 208L361 228Q384 262 407 278T460 301T532 307Q572 307 604 312T669 349L691 332Q675 308 660 290T623 260T560 245Q561 205 548 160T504 74T420 9T286 -16Z" />
<glyph unicode="&apos;" glyph-name="quotesingle" horiz-adv-x="199" d="M168 716L146 491H79L84 716H168Z" />
<glyph unicode="(" glyph-name="parenleft" horiz-adv-x="298" d="M231 -271Q195 -237 159 -185T92 -65T44 79T30 239Q35 322 60 401T123 549T203 672T284 760L307 737Q274 696 247 651T199 557T163 456T138 350T126 239Q123 183 126 130T140 26T166 -71T205 -163T257
-248L231 -271Z" />
<glyph unicode=")" glyph-name="parenright" horiz-adv-x="298" d="M60 760Q96 726 132 674T199 554T247 410T261 250Q257 167 232 88T168 -60T88 -183T7 -271L-16 -248Q17 -207 44 -162T92 -68T128 33T153 139T165 250Q168 306 165 359T151 463T125 560T86 652T34
737L60 760Z" />
<glyph unicode="*" glyph-name="asterisk" horiz-adv-x="513" d="M281 716Q298 716 305 705T313 677T311 644Q305 610 299 574T284 508Q311 523 344 538T408 568Q423 576 440 579T472 580T490 560Q497 535 476 522T430 503Q397 497 361 491T292 480Q313 461 337
436T383 386Q393 375 401 359T409 327T394 302Q373 288 356 303T327 338Q313 367 297 401T269 463Q254 435 234 401T197 338Q184 318 164 304T125 303Q113 312 114 327T125 358T146 386Q170 411 195 435T245 480Q214 486 178 492T110 503Q94 507 79 513T57 531T56
559Q66 582 91 581T138 568Q168 554 199 538T256 508Q251 537 248 573T243 644Q242 660 244 676T255 704T281 716Z" />
<glyph unicode="+" glyph-name="plus" horiz-adv-x="530" d="M49 390H495L492 340H46L49 390ZM307 583L283 137H233L257 583H307Z" />
<glyph unicode="," glyph-name="comma" horiz-adv-x="237" d="M99 98Q129 98 146 76T163 20Q163 -5 154 -39T127 -111T81 -179L56 -159Q73 -139 85 -112T105 -56T112 0Q107 -1 101 -2T87 -4Q68 -4 56 10T43 42Q43 69 59 83T99 98Z" />
<glyph unicode="-" glyph-name="hyphen" horiz-adv-x="483" d="M421 353L418 291L63 287L66 353H421Z" />
<glyph unicode="." glyph-name="period" horiz-adv-x="232" d="M105 110Q129 110 144 92T157 47Q156 20 138 2T97 -16Q74 -16 58 2T43 47Q45 73 63 91T105 110Z" />
<glyph unicode="/" glyph-name="slash" horiz-adv-x="654" d="M607 760L662 723L29 -271L-18 -238L607 760Z" />
<glyph unicode="0" glyph-name="zero" horiz-adv-x="597" d="M320 716Q391 716 437 683T509 596T544 477T550 350Q547 288 531 224T483 105T404 17T287 -16Q212 -16 165 17T93 104T60 223T55 350Q58 413 74 477T122 596T203 683T320 716ZM322 678Q279 678 248
651T197 579T165 479T151 368Q149 326 150 279T160 187T184 104T226 45T291 23Q334 23 363 50T411 122T440 221T453 331Q456 392 453 453T435 565T394 647T322 678Z" />
<glyph unicode="1" glyph-name="one" horiz-adv-x="354" d="M260 716L229 109Q228 90 227 72T223 40Q244 41 265 42T307 44L305 0H57L58 33Q93 35 112 49T141 88T151 147L171 619L49 542L31 572L226 716H260Z" />
<glyph unicode="2" glyph-name="two" horiz-adv-x="525" d="M277 716Q317 716 353 707T418 676T461 621T474 535Q473 510 461 481T425 418T363 347T268 266Q197 212 153 165T97 74L271 69Q320 68 358 69T418 84T442 138H473L459 0H27Q30 53 48 94T96 170T163 237T240
305Q298 358 336 415T377 522Q379 563 369 598T333 655T259 677Q218 677 185 657T139 606Q148 596 151 585T154 563Q154 545 142 531T107 516Q87 516 74 530T60 566Q60 590 74 616T117 665T185 702T277 716Z" />
<glyph unicode="3" glyph-name="three" horiz-adv-x="545" d="M236 -16Q164 -16 118 6T50 62T31 128Q33 151 46 164T80 177Q94 177 104 171T119 154T125 132Q125 123 122 112T111 92Q120 58 155 43T230 27Q305 27 348 70T395 188Q396 210 392 237T374 290T333
332T258 349Q238 349 223 349T192 347L194 392Q205 392 215 392T235 392Q288 392 319 416T366 472T382 532Q384 573 375 606T340 658T266 677Q235 677 209 665T165 636T144 602Q152 592 154 582T156 563Q156 552 151 542T136 526T113 520Q94 520 82 532T69 566Q69
596 93 631T165 691T282 716Q335 716 380 699T453 644T476 543Q475 511 457 478T401 418T306 376Q402 368 450 317T494 195Q491 127 453 80T357 9T236 -16Z" />
<glyph unicode="4" glyph-name="four" horiz-adv-x="527" d="M211 0L213 33Q246 35 266 47T295 86T307 159L309 193H3L5 242L379 716H413L393 250L493 249L490 193H391L387 109Q386 89 385 71T378 38L457 41L454 0H211ZM312 251L329 577H327L68 255L312 251Z" />
<glyph unicode="5" glyph-name="five" horiz-adv-x="523" d="M484 765L469 636L150 629L127 408Q150 418 185 426T264 434Q326 434 367 415T433 362T468 290T476 209Q472 135 436 85T344 10T222 -16Q158 -16 116 6T53 61T36 128Q38 151 52 164T85 177Q99 177 109
171T124 155T130 133Q130 124 127 113T116 92Q117 67 135 52T179 29T228 23Q277 26 309 50T359 111T377 191Q379 219 376 253T358 318T314 369T230 389Q205 389 173 382T110 355L83 380L109 700H353Q409 700 433 715T458 765H484Z" />
<glyph unicode="6" glyph-name="six" horiz-adv-x="554" d="M335 716Q395 717 432 697T487 647T503 591Q502 570 489 557T457 544Q436 544 425 557T413 587Q413 595 416 606T426 625Q422 642 399 661T335 678Q289 677 257 653T204 591T171 508T153 424T144 354Q162
376 186 395T241 425T310 437Q370 437 409 417T469 363T498 291T504 213Q501 151 470 99T385 15T265 -16Q180 -16 132 26T66 146T55 330Q57 366 65 415T91 516T140 613T219 686T335 716ZM292 393Q261 393 230 377T174 336T139 281Q138 234 143 188T163 105T202
45T266 23Q313 23 344 46T392 108T410 191Q412 219 409 253T395 320T359 372T292 393Z" />
<glyph unicode="7" glyph-name="seven" horiz-adv-x="452" d="M176 -16Q157 -14 149 -2T142 29Q143 51 156 86T188 160T221 232Q243 279 273 346T338 489T409 633L145 632Q105 631 82 615T56 558H32L39 700H458L455 634Q415 559 385 491T331 354T283 210T233 46Q226
21 213 2T176 -16Z" />
<glyph unicode="8" glyph-name="eight" horiz-adv-x="564" d="M271 -16Q229 -16 190 -8T120 20T72 72T57 152Q60 196 82 234T139 304T216 361Q149 402 117 446T86 534Q89 581 108 615T159 672T228 705T304 716Q355 716 399 698T470 645T494 557Q492 520 472 486T419
425T351 378Q383 359 411 336T460 286T492 230T502 167Q499 104 466 64T382 4T271 -16ZM275 24Q332 24 369 59T410 148Q413 186 405 210T376 254T324 294T250 342Q191 302 167 253T140 166Q136 98 172 61T275 24ZM315 397Q363 429 390 470T418 546Q422 610 390
643T304 677Q265 677 236 660T192 615T174 556Q172 525 187 496T234 443T315 397Z" />
<glyph unicode="9" glyph-name="nine" horiz-adv-x="552" d="M292 716Q358 715 401 687T467 610T498 498T503 362Q501 318 494 267T470 166T423 75T347 9T233 -16Q172 -16 134 4T78 56T62 119Q64 140 77 153T110 166Q130 166 141 153T153 123Q153 114 149 102T136
83Q142 64 162 43T232 22Q277 22 308 44T359 104T392 185T409 271T416 348Q390 315 348 290T247 264Q187 264 149 284T91 338T63 410T58 488Q62 551 90 603T169 686T292 716ZM283 678Q240 678 211 655T167 593T149 510Q148 482 151 448T166 382T203 330T270 309Q301
309 330 324T383 363T417 416Q417 466 411 513T391 597T350 656T283 678Z" />
<glyph unicode=":" glyph-name="colon" horiz-adv-x="250" d="M121 110Q145 110 160 92T173 47Q172 20 154 2T113 -16Q90 -16 74 2T59 47Q61 73 79 91T121 110ZM136 516Q160 516 175 498T188 453Q187 426 169 408T128 390Q105 390 89 408T74 453Q76 479 94 497T136 516Z" />
<glyph unicode=";" glyph-name="semicolon" horiz-adv-x="271" d="M124 98Q154 98 171 76T188 20Q188 -5 179 -39T152 -111T106 -179L81 -159Q98 -139 110 -112T130 -56T137 0Q132 -1 126 -2T112 -4Q93 -4 81 10T68 42Q68 69 84 83T124 98ZM143 516Q167 516 182
498T195 453Q194 426 176 408T135 390Q112 390 96 408T81 453Q83 479 101 497T143 516Z" />
<glyph unicode="&lt;" glyph-name="less" horiz-adv-x="530" d="M479 85L44 279L48 346L503 544L500 482L114 316L482 149L479 85Z" />
<glyph unicode="=" glyph-name="equal" horiz-adv-x="530" d="M53 465H499L497 415H51L53 465ZM45 315H491L489 265H43L45 315Z" />
<glyph unicode="&gt;" glyph-name="greater" horiz-adv-x="530" d="M57 544L492 350L488 283L33 85L36 147L422 313L54 480L57 544Z" />
<glyph unicode="?" glyph-name="question" horiz-adv-x="473" d="M222 188Q210 188 192 194T160 216T146 255Q148 277 161 295T196 332T241 370Q268 392 293 417T336 473T357 544Q360 581 351 611T316 659T243 677Q214 677 189 666T148 639T128 607Q137 600 140
589T143 568Q143 556 138 546T122 530T98 523Q78 523 65 536T51 572Q51 602 77 635T150 692T260 716Q337 716 379 690T437 624T447 542Q443 501 419 468T360 406T293 354T238 309T214 267Q213 255 221 245T253 234Q261 234 271 235T292 241L302 206Q286 196 265
192T222 188ZM215 -16Q194 -16 179 -1T164 43Q166 67 183 84T222 102Q245 102 259 85T272 43Q271 18 255 1T215 -16Z" />
<glyph unicode="@" glyph-name="at" horiz-adv-x="792" d="M410 636Q499 641 564 615T672 542T733 437T750 318Q746 239 721 188T659 109T588 72T527 66Q493 72 477 89T459 131T460 185T471 243Q437 152 397 111T309 70Q266 70 238 103T213 209Q216 264 233 313T281
400T356 460T458 482Q481 482 509 479T563 469Q557 435 551 400T538 332T527 269T519 214Q514 175 520 141T552 100Q573 96 594 106T633 139T664 198T681 277Q690 398 654 470T550 572T400 596Q338 591 288 563T200 488T141 384T116 263Q112 182 133 123T195 25T287
-33T394 -54Q428 -55 470 -49T555 -21T635 41L658 16Q607 -39 540 -66T393 -95Q300 -97 233 -70T122 7T59 120T43 257Q46 320 70 384T139 504T252 595T410 636ZM433 452Q397 452 370 431T323 375T293 299T280 218Q277 168 289 138T327 108Q354 108 382 140T434
223T474 332T493 443Q483 448 468 450T433 452Z" />
<glyph unicode="A" glyph-name="A" horiz-adv-x="631" d="M341 719L532 150Q540 129 547 96T553 40L618 44L616 0H399L400 33Q438 34 450 50T460 88T452 128L423 222L167 216L127 109Q118 85 112 71T96 40L171 44L169 0H-14L-13 33Q12 34 30 49T63 93T93 158L319
719H341ZM307 580Q296 552 285 524T263 468L183 259H412L347 459Q337 489 328 519T307 580Z" />
<glyph unicode="B" glyph-name="B" horiz-adv-x="619" d="M300 702Q416 702 477 661T533 531Q531 499 512 467T456 411T363 376V374Q473 374 525 324T572 196Q569 135 537 91T451 24T329 0H40L42 33Q80 34 95 50T113 95T118 161L140 581Q141 608 143 627T147 660Q129
659 111 658T74 656L77 700Q132 700 186 701T300 702ZM314 347Q284 347 260 347T211 344L199 119Q198 92 196 73T192 41Q208 40 230 40T272 39T298 39Q375 39 424 77T478 190Q481 249 459 283T398 332T314 347ZM303 666Q271 666 255 657T232 627T223 569L213 383Q232
383 251 383T286 385Q343 388 377 410T428 465T445 536Q447 590 425 618T370 656T303 666Z" />
<glyph unicode="C" glyph-name="C" horiz-adv-x="686" d="M412 716Q468 716 516 701T609 656H610L608 710H662L650 479H614Q609 573 556 624T416 675Q363 675 316 653T231 588T171 487T144 354Q139 260 171 188T262 76T395 36Q460 36 524 64T631 148L656 127Q610
69 558 38T457 -4T366 -16Q291 -16 231 11T129 86T67 199T50 339Q54 410 78 477T147 598T258 684T412 716Z" />
<glyph unicode="D" glyph-name="D" horiz-adv-x="738" d="M309 701Q396 701 467 682T589 623T667 521T695 376Q695 303 671 236T597 115T473 31T299 0H40L42 33Q80 35 95 50T113 93T117 156L141 588Q143 608 144 626T148 660Q129 659 111 658T74 656L77 700L309
701ZM303 664Q265 664 249 652T228 615T221 551L198 118Q197 91 195 72T191 40Q213 39 231 39T265 38T298 38Q389 38 457 83T563 206T602 380Q602 509 529 586T303 664Z" />
<glyph unicode="E" glyph-name="E" horiz-adv-x="619" d="M555 700L551 525H518Q521 584 505 614T458 655T390 665L304 663Q267 662 251 649T230 611T222 544L213 384L285 383Q327 383 354 388T394 413T410 477H443L432 259H399Q401 303 390 322T353 345T284 347L211
344L199 115Q198 88 196 69T192 37L383 40Q427 41 460 54T512 102T535 195H569L553 0H41L43 33Q81 35 96 50T114 93T118 156L142 588Q143 608 145 626T149 660Q131 659 113 658T76 656L78 700H555Z" />
<glyph unicode="F" glyph-name="F" horiz-adv-x="541" d="M538 700L534 525H501Q504 584 487 614T439 655T370 665L297 663Q263 662 248 649T228 612T222 552L212 368H290Q326 369 348 375T381 401T395 462H428L417 243H384Q386 284 377 302T346 326T288 331Q269
331 250 331T210 328L199 119Q198 92 196 73T192 40Q209 41 226 41T260 43T294 44L292 0H41L43 33Q81 35 96 50T114 93T118 156L142 588Q143 608 145 626T149 660Q131 659 113 658T76 656L78 700H538Z" />
<glyph unicode="G" glyph-name="G" horiz-adv-x="753" d="M366 -16Q266 -16 193 26T82 147T50 335Q54 406 78 473T148 596T259 683T413 716Q449 716 485 710T556 691T617 662L615 709H670L658 480H622Q621 543 594 586T521 653T417 676Q364 676 316 653T231 587T171
486T144 358Q139 264 169 190T257 74T395 32Q422 32 452 37T512 53T569 82L575 199Q577 225 578 250T580 300Q563 299 545 298T510 296L512 340H735L733 307Q705 307 690 293T667 258T658 218T655 188L647 36H623Q607 36 579 30T514 10Q483 -2 441 -9T366 -16Z"
/>
<glyph unicode="H" glyph-name="H" horiz-adv-x="773" d="M740 700L738 667Q706 666 691 653T670 617T663 557L640 119Q639 92 637 73T633 40Q651 41 669 42T705 44L703 0H482L484 33Q522 35 537 50T555 93T559 156L569 338L210 334L199 119Q198 92 196 73T192
40Q210 41 228 42T264 44L262 0H41L43 33Q81 35 95 50T113 93T118 156L141 588Q143 608 144 626T148 660Q130 659 112 658T76 656L78 700H299L297 667Q265 666 250 653T229 616T222 556L212 378H571L582 588Q583 608 585 626T589 660Q571 659 553 658T517 656L519
700H740Z" />
<glyph unicode="I" glyph-name="I" horiz-adv-x="333" d="M299 700L297 667Q262 666 247 653T228 615T222 554L199 119Q198 92 196 73T192 40Q210 41 228 42T264 44L262 0H41L43 33Q81 35 96 50T114 93T118 156L141 588Q142 608 144 626T148 660Q130 659 112 658T76
656L78 700H299Z" />
<glyph unicode="J" glyph-name="J" horiz-adv-x="367" d="M361 700L358 667Q325 667 308 654T285 619T276 568L260 244Q255 150 237 93T182 10T87 -16Q63 -16 40 -10T2 13T-14 55Q-14 75 -3 90T30 107Q55 109 66 94T77 63Q77 58 76 52T73 40Q78 32 88 28T106 24Q118
25 132 32T158 66T173 153L193 550Q195 578 196 605T199 660Q182 660 165 659T131 658T97 656L99 700H361Z" />
<glyph unicode="K" glyph-name="K" horiz-adv-x="667" d="M41 0L43 33Q81 35 96 50T114 93T118 156L141 588Q143 608 144 626T148 660Q130 659 112 658T76 656L78 700H299L297 667Q265 666 250 653T229 615T222 554L213 380H291L424 577Q438 597 457 620T501 661Q485
660 470 660T438 659L440 700H655L653 667Q611 664 578 653T513 615T444 532L338 376Q366 359 383 337T416 291L521 142Q556 92 579 69T622 39T662 33L660 0H542Q532 0 517 14T483 50T446 98L335 260Q319 285 300 307T264 341Q251 341 238 341T211 340L199 119Q198
92 196 73T192 40Q210 41 228 42T264 44L262 0H41Z" />
<glyph unicode="L" glyph-name="L" horiz-adv-x="577" d="M298 700L296 667Q261 666 246 650T227 607T221 544L198 115Q197 88 195 69T191 37L378 40Q441 42 476 80T515 207H549L532 0H40L42 33Q80 35 94 50T112 93T117 156L141 588Q143 608 144 626T148 660Q130
659 113 658T77 656V700H298Z" />
<glyph unicode="M" glyph-name="M" horiz-adv-x="917" d="M415 -10L242 462Q233 488 227 505T214 542T198 593H196Q194 537 191 488T183 395L157 125Q155 103 153 81T147 40Q166 41 185 42T223 44L220 0H30L32 33Q63 34 77 46T97 80T105 125L150 575Q152 596 154
617T159 660Q141 659 123 659T87 657L89 700H238L392 290Q407 249 423 207T455 122H457Q470 149 486 186T515 251Q547 323 584 399T658 552T726 700H870L868 667Q843 668 827 658T802 623T794 558L797 103Q797 85 797 70T795 40Q814 41 832 42T869 44L866 0H646L648
33Q676 35 691 45T712 81T718 152V494Q718 509 718 523T718 551T719 580H717L682 503L444 -10H415Z" />
<glyph unicode="N" glyph-name="N" horiz-adv-x="762" d="M592 -11L252 475Q235 500 218 524T183 573H181L165 139Q164 114 163 89T158 40Q176 41 194 42T230 44L228 0H45L46 33Q77 33 91 46T111 78T116 112L138 559Q140 585 141 610T143 660Q127 659 110 658T76
656L78 700H197L515 248Q536 218 557 188T599 128H601L622 588Q624 610 625 628T629 660Q611 659 593 658T557 656L559 700H743L741 667Q704 666 690 650T673 607T668 544L640 -11H592Z" />
<glyph unicode="O" glyph-name="O" horiz-adv-x="788" d="M413 716Q501 716 564 685T667 604T727 492T746 369Q746 305 724 238T656 113T543 20T382 -16Q294 -16 231 14T128 95T68 205T49 327Q49 404 74 474T148 598T263 684T413 716ZM408 676Q345 676 297 647T215
570T163 465T145 349Q144 298 157 242T198 136T273 56T387 25Q452 25 501 54T583 131T633 238T650 353Q650 412 635 469T589 573T513 648T408 676Z" />
<glyph unicode="P" glyph-name="P" horiz-adv-x="597" d="M297 702Q394 702 457 680T553 614T585 506Q585 467 570 425T518 346T415 286T246 263Q241 263 229 263T207 264L199 119Q198 92 196 73T192 40Q208 41 223 42T253 43T284 45L282 0H41L43 33Q81 35 96
50T114 93T118 156L141 588Q143 608 144 626T148 660Q130 659 112 658T75 656L78 700Q131 701 185 701T297 702ZM293 663Q262 663 247 650T228 611T222 549L209 306Q228 304 242 304T274 303Q331 303 379 325T458 389T491 489Q493 536 480 569T441 623T377 653T293
663Z" />
<glyph unicode="Q" glyph-name="Q" horiz-adv-x="788" d="M413 716Q501 716 564 685T667 604T727 492T746 369Q746 313 729 254T676 141T588 48T463 -7V-8Q491 -8 514 -11T563 -28T620 -71Q662 -110 688 -133T729 -167T755 -181T780 -185V-218H748Q712 -218 687
-216T639 -202T585 -162Q548 -128 522 -101T476 -55T434 -26T382 -16Q294 -16 231 14T128 95T68 205T49 327Q49 404 74 474T148 598T263 684T413 716ZM408 676Q345 676 297 647T215 570T163 465T145 349Q144 298 157 242T198 136T273 56T387 25Q452 25 501 54T583
131T633 238T650 353Q650 412 635 469T589 573T513 648T408 676Z" />
<glyph unicode="R" glyph-name="R" horiz-adv-x="625" d="M303 702Q400 701 457 677T539 613T561 519Q559 481 543 442T485 370T367 322Q383 304 391 296T404 282T415 266T433 235L495 128Q511 101 525 80T560 46T612 33L610 0H488Q466 19 446 48T405 111L344
218Q332 240 317 267T282 313Q273 312 257 312T226 312T209 313L199 119Q198 92 196 73T192 40Q204 41 216 41T240 43T264 44L262 0H41L43 33Q81 35 96 50T114 93T118 156L141 588Q142 608 144 626T148 660Q130 659 112 658T75 656L78 700Q134 701 189 702T303
702ZM297 664Q262 664 247 650T228 611T222 549L211 352Q227 351 241 350T273 350Q328 352 371 368T439 419T468 511Q470 549 461 577T431 625T377 654T297 664Z" />
<glyph unicode="S" glyph-name="S" horiz-adv-x="566" d="M271 -16Q233 -16 184 -7T96 27L99 -8H47L52 205H91Q92 144 116 104T183 45T278 26Q317 26 351 40T407 82T431 150Q434 200 408 232T339 288T250 333Q204 355 162 380T95 444T72 539Q74 565 84 595T119
653T183 698T284 716Q322 716 368 706T455 665L453 708H504L493 488H457Q457 536 439 579T384 649T288 676Q226 676 190 641T152 558Q150 519 169 492T222 444T294 405Q333 386 373 367T446 322T499 260T515 173Q513 118 483 75T400 8T271 -16Z" />
<glyph unicode="T" glyph-name="T" horiz-adv-x="636" d="M632 700L627 489H589Q591 548 582 587T547 645T468 664L383 663L350 119Q349 92 347 73T343 40Q357 41 371 41T398 43T426 44L424 0H193L195 33Q228 35 242 51T262 94T269 156L300 663L197 662Q134 662
106 620T73 489H36L53 700H632Z" />
<glyph unicode="U" glyph-name="U" horiz-adv-x="744" d="M743 700L742 667Q704 666 689 650T671 607T666 544L652 311Q648 246 631 187T581 83T494 11T366 -16Q286 -16 233 5T151 69T111 180T105 340L118 579Q120 605 121 623T126 660Q108 659 90 659T54 657L56
700H278L276 667Q242 667 227 653T208 621T202 588L189 335Q186 279 191 227T215 132T274 66T381 41Q453 41 499 75T571 168T601 306L619 588Q621 608 622 626T626 660Q608 659 590 658T554 656L556 700H743Z" />
<glyph unicode="V" glyph-name="V" horiz-adv-x="665" d="M696 700L694 667Q650 665 626 644T579 569Q577 564 574 556T562 528T539 472T498 373T433 217T337 -11H311L115 522Q96 573 89 604T79 658Q65 657 51 657T23 656L25 700H253L251 666Q200 663 188 636T194
558L276 325Q298 269 317 218T347 132H349Q363 167 376 199T407 275Q441 359 465 417T506 516T535 586Q546 612 553 630T568 660Q549 659 530 658T491 656L493 700H696Z" />
<glyph unicode="W" glyph-name="W" horiz-adv-x="994" d="M270 -11L119 522Q104 575 96 605T84 658Q70 657 56 657T28 656L30 700H270L268 667Q210 664 197 641T197 558L261 325Q273 280 285 240T310 152H312Q318 169 325 188T340 227T353 262T363 289L515 702H542L646
325Q659 280 671 235T696 143H698Q709 172 722 205T749 274Q776 349 795 399T826 482T848 539T867 586Q873 603 882 622T901 659Q881 658 861 658T821 656L823 700H1026L1024 667Q999 664 982 658T951 636T925 593T893 519L685 -11H659L545 383Q530 435 522 468T505
531H501Q488 498 476 465T451 399L296 -11H270Z" />
<glyph unicode="X" glyph-name="X" horiz-adv-x="652" d="M0 0L2 33Q50 43 79 73T145 153L284 338Q229 419 195 470T140 553Q114 594 104 615T86 658Q72 657 58 657T30 656L32 700H292L290 667Q241 665 219 660T198 638T219 584L334 405L438 544Q465 580 490 613T532
660Q511 659 490 658T448 656L450 700H647L645 667Q613 663 585 641T530 589T481 528L359 368L523 135Q539 113 555 90T587 42Q601 43 616 43T645 44L643 0H397L399 33Q435 32 447 43T458 72T444 106L310 301L202 153Q183 126 162 97T115 39Q136 41 156 42T198
44L196 0H0Z" />
<glyph unicode="Y" glyph-name="Y" horiz-adv-x="641" d="M207 0L209 33Q247 35 261 51T279 94T283 156L289 270L131 545Q107 585 96 612T83 658Q67 657 52 657T21 656L23 700H277L275 667Q229 667 211 653T195 615T216 558Q233 530 255 492T298 420Q306 407 314
394T330 368T347 341H348Q362 365 374 387T399 429Q422 469 444 506T490 583Q496 593 504 606T522 634T542 659Q523 658 503 658T463 656L465 700H669L667 667Q618 664 585 633T513 538L374 300L364 119Q363 92 361 73T357 40Q371 41 385 41T412 43T440 44L438
0H207Z" />
<glyph unicode="Z" glyph-name="Z" horiz-adv-x="612" d="M28 0L31 46L416 573Q432 596 448 618T485 663L227 659Q168 657 137 618T100 493H66L83 700H579L577 665L185 120Q162 88 146 70T113 37L360 41Q426 42 473 81T524 205H558L541 0H28Z" />
<glyph unicode="[" glyph-name="bracketleft" horiz-adv-x="361" d="M382 755L378 699L183 696L117 -196L318 -199L313 -255H46L117 755H382Z" />
<glyph unicode="\" glyph-name="backslash" horiz-adv-x="785" d="M681 -271L48 723L103 760L728 -238L681 -271Z" />
<glyph unicode="]" glyph-name="bracketright" horiz-adv-x="361" d="M-28 -255L-24 -199L171 -196L237 696L36 699L41 755H308L237 -255H-28Z" />
<glyph unicode="^" glyph-name="asciicircum" horiz-adv-x="823" d="M668 437L414 681L135 441H53L375 716H464L756 437H668Z" />
<glyph unicode="_" glyph-name="underscore" horiz-adv-x="710" d="M27 -50L642 -54L639 -106H24L27 -50Z" />
<glyph unicode="`" glyph-name="grave" horiz-adv-x="240" d="M171 579L68 686Q51 705 48 719T47 742T55 755Q58 758 67 761T90 760T117 731L195 599L171 579Z" />
<glyph unicode="a" glyph-name="a" horiz-adv-x="548" d="M329 511Q359 511 395 507T463 494Q455 434 448 375T434 262T423 166T419 99Q419 79 422 59T447 39Q464 39 484 61T520 136L548 130Q545 112 536 89T510 42T471 4T418 -11Q378 -11 361 14T344 79Q344 108
349 142T362 213H359Q335 139 310 95T259 27T209 -3T164 -11Q110 -11 74 29T37 163Q37 233 55 296T109 407T201 483T329 511ZM298 475Q253 475 220 450T164 383T132 288T121 180Q121 116 135 75T186 33Q213 33 240 60T292 132T335 234T365 350T376 463Q361 469
341 472T298 475Z" />
<glyph unicode="b" glyph-name="b" horiz-adv-x="511" d="M195 755Q191 727 187 697T179 638T173 586Q169 542 164 496T154 401T144 298H147Q167 370 191 413T241 477T292 504T340 511Q386 511 413 485T453 418T465 327Q465 258 450 197T401 89T315 16T188 -11Q172
-11 149 -9T102 -3T57 10Q64 108 69 186T78 335T88 479T101 639Q103 665 104 672T107 692Q89 691 71 690T35 688L39 728Q83 728 108 732T145 742T166 755H195ZM311 464Q283 463 257 436T208 364T169 265T142 154T131 47Q143 35 164 30T205 24Q249 25 279 43T330
93T361 163T376 242T379 319Q378 387 362 426T311 464Z" />
<glyph unicode="c" glyph-name="c" horiz-adv-x="473" d="M278 511Q321 511 355 496T408 454T428 394Q428 372 417 359T386 345Q362 344 353 359T343 385Q343 394 345 404T356 423Q351 451 329 463T277 476Q234 476 205 453T159 393T135 314T127 231Q127 161 142
119T186 57T249 38Q275 38 303 49T357 88T402 164L437 147Q412 89 379 55T309 5T232 -11Q144 -11 92 42T39 208Q39 257 53 310T96 408T170 482T278 511Z" />
<glyph unicode="d" glyph-name="d" horiz-adv-x="555" d="M173 -11Q127 -11 97 14T53 83T38 179Q38 277 70 351T168 468T329 511Q344 511 358 510T385 507Q389 543 393 579T402 646T411 692Q393 691 375 690T338 688L342 728Q386 728 410 732T448 742T469 755H498Q489
701 480 624T456 427Q449 363 443 300T432 182T427 92Q427 73 431 56T454 39Q471 39 491 61T526 136L555 130Q552 112 543 89T517 42T478 4T425 -11Q385 -11 367 14T348 79Q348 108 352 139T363 208H360Q333 117 301 70T236 6T173 -11ZM194 36Q226 36 257 72T315
166T355 289Q363 324 368 367T380 465Q364 471 347 473T312 475Q270 475 239 458T185 412T150 347T130 272T124 196Q124 128 139 82T194 36Z" />
<glyph unicode="e" glyph-name="e" horiz-adv-x="477" d="M282 511Q318 511 350 500T402 464T422 396Q422 355 394 325T321 276T225 244T127 227Q127 165 139 123T177 60T241 39Q270 39 299 52T356 91T405 160L438 141Q410 89 378 55T308 5T224 -11Q129 -11 84
48T39 205Q39 263 54 318T99 416T175 485T282 511ZM268 477Q222 477 193 446T148 366T128 263Q181 270 229 288T308 334T339 401Q339 433 322 455T268 477Z" />
<glyph unicode="f" glyph-name="f" horiz-adv-x="325" d="M316 760Q353 761 373 748T393 708Q393 701 390 691T377 675T353 668Q334 668 323 682T313 718Q310 720 301 721T284 722Q260 720 245 703T219 656T203 587T193 500H335L332 461L190 459Q189 433 188 406T185
351T181 294T176 236Q169 163 163 91T146 -47T112 -162T52 -242T-47 -271Q-85 -271 -105 -258T-125 -219Q-125 -211 -121 -202T-108 -185T-84 -178Q-66 -179 -56 -191T-45 -224Q-34 -232 -16 -232Q19 -232 37 -195T65 -93T79 59T94 245Q96 272 98 299T102 353T106
406T112 458L24 457L29 500H117Q128 573 149 631T210 724T316 760Z" />
<glyph unicode="g" glyph-name="g" horiz-adv-x="518" d="M162 -271Q144 -271 120 -267T71 -254T31 -228T14 -187Q14 -173 20 -162T37 -143T61 -136Q79 -136 92 -147T106 -182Q106 -194 100 -208Q110 -223 130 -229T169 -236Q226 -236 259 -206T311 -127T337 -19Q346
40 350 101T361 213H358Q337 141 314 97T267 29T220 -3T173 -11Q127 -11 97 14T53 84T38 183Q38 248 55 306T108 411T199 484T330 511Q364 511 398 507T457 494Q453 434 449 372T439 249T428 129T418 14Q410 -83 378 -146T291 -240T162 -271ZM194 36Q222 36 248
63T297 136T337 238T366 352T380 462Q367 469 350 472T314 475Q259 475 222 449T163 380T132 290T122 200Q122 154 128 117T151 58T194 36Z" />
<glyph unicode="h" glyph-name="h" horiz-adv-x="572" d="M432 -11Q385 -11 368 14T351 85Q351 113 355 151T365 233T375 320T380 403Q380 415 376 429T362 453T332 464Q305 464 278 440T227 373T183 278T152 167T141 53Q141 38 141 26T143 0H61Q60 7 60 12T60
26Q60 53 63 109T71 236T82 383T96 525T110 639Q114 665 115 672T119 692L49 688L53 728Q97 728 121 732T159 742T180 755H209Q205 730 200 699T190 638T182 585Q179 560 175 521T166 438T158 354T152 288H155Q189 379 222 427T287 493T352 511Q412 511 437 473T462
381Q462 326 455 269T441 163T434 85Q434 67 438 53T461 39Q478 39 498 60T534 136L559 129Q556 112 547 88T523 42T485 4T432 -11Z" />
<glyph unicode="i" glyph-name="i" horiz-adv-x="324" d="M133 511Q175 511 196 483T217 407Q217 377 212 339T198 256T185 168T179 81Q179 61 186 50T210 39Q227 39 247 61T283 136L311 130Q307 109 298 85T273 39T237 3T187 -11Q141 -11 119 13T97 83Q97 127
103 168T116 250T130 332T136 416Q136 429 131 445T108 461Q92 461 71 439T35 364L7 370Q10 388 19 411T43 458T81 496T133 511ZM190 727Q213 727 228 712T243 670Q243 645 227 630T189 614Q167 614 152 629T136 670Q136 696 152 711T190 727Z" />
<glyph unicode="j" glyph-name="j" horiz-adv-x="297" d="M144 511Q184 511 205 486T227 409Q227 368 225 311T217 192Q211 131 202 66T178 -59T137 -167T71 -243T-28 -271Q-53 -271 -78 -259T-104 -217Q-104 -205 -100 -195T-85 -177T-61 -170Q-41 -170 -29 -184T-19
-225Q-11 -230 1 -230Q30 -230 51 -202T87 -128T111 -30T127 71T135 155T139 200Q144 256 145 314T145 417Q144 431 138 445T114 459Q99 458 80 436T47 360L19 366Q22 384 30 408T53 456T90 495T144 511ZM187 728Q210 728 225 713T241 671Q241 646 225 631T187
615Q165 615 150 630T134 670Q134 696 149 712T187 728Z" />
<glyph unicode="k" glyph-name="k" horiz-adv-x="520" d="M384 -11Q346 -11 321 20T269 120Q250 170 235 192T191 215Q184 215 178 215T165 214Q154 173 148 132T141 53Q141 38 141 26T143 0H61Q60 7 60 12T60 26Q60 54 63 109T71 236T82 382T95 524T110 639Q114
665 115 672T119 692Q102 691 84 690T49 688L53 728Q97 728 121 732T158 742T178 755H207Q202 730 198 699T189 638T182 585Q173 515 166 439T153 288H156Q186 377 217 425T283 492T352 511Q387 511 408 496T439 455T449 403Q449 368 428 330T365 263T256 221V220Q291
219 309 204T344 150Q355 127 365 103T388 63T414 45Q431 44 443 57T464 107L492 102Q486 74 473 48T437 6T384 -11ZM173 243Q268 243 318 284T368 401Q368 414 365 429T352 455T321 464Q294 462 267 431T215 351T173 243Z" />
<glyph unicode="l" glyph-name="l" horiz-adv-x="283" d="M214 755Q211 730 206 699T196 638T188 585Q182 543 176 490T164 379T154 266T146 166T143 91Q143 72 147 56T170 39Q187 39 207 60T243 136L271 129Q268 112 259 88T233 42T195 4T142 -11Q101 -11 82
9T62 70Q61 95 64 144T73 255T86 386T101 520T116 638Q121 665 122 673T125 692Q107 691 90 690T54 688L59 728Q103 728 127 732T165 742T186 755H214Z" />
<glyph unicode="m" glyph-name="m" horiz-adv-x="876" d="M733 -11Q686 -11 670 14T653 85Q653 113 658 151T671 232T683 319T689 403Q689 415 685 429T671 453T641 464Q613 464 586 438T536 368T496 271T468 161T458 53Q458 38 458 26T460 0H376Q375 7 375 12T375
26Q375 64 380 116T393 223T406 327T411 407Q410 424 401 444T363 464Q335 464 309 438T259 368T218 271T190 161T180 53Q180 38 180 26T182 0H98Q97 7 97 12T97 26Q97 43 98 65T104 125T116 226Q123 285 127 318T133 368T135 395T136 416Q136 434 131 447T109
461Q93 461 72 439T36 364L8 370Q11 388 20 411T46 458T85 496T138 511Q171 511 187 495T208 452T212 394Q211 366 206 338T197 288H200Q232 379 263 427T325 493T383 511Q423 511 446 493T480 448T490 397Q490 369 486 349T473 291H476Q509 382 541 429T605 494T663
511Q703 511 726 493T758 446T768 381Q768 326 760 269T744 163T735 85Q735 67 739 53T762 39Q779 39 800 60T836 136L864 129Q861 112 851 88T825 42T786 4T733 -11Z" />
<glyph unicode="n" glyph-name="n" horiz-adv-x="615" d="M473 -11Q426 -11 409 14T392 85Q392 113 396 151T407 232T418 319T423 403Q423 415 420 429T406 453T376 464Q348 464 320 438T267 368T222 271T191 161T179 53Q179 38 179 26T181 0H97Q96 7 96 12T96
26Q96 43 98 65T104 125T116 226Q123 285 126 318T132 368T134 395T135 416Q135 434 130 447T108 461Q92 461 71 439T35 364L7 370Q10 388 19 411T45 458T84 496T137 511Q171 511 187 493T208 445T211 383Q209 355 205 329T196 283H199Q233 374 266 423T331 492T396
511Q436 511 460 493T494 446T505 381Q505 326 498 269T483 163T475 85Q475 67 479 53T502 39Q519 39 539 60T575 136L603 129Q600 112 591 88T565 42T526 4T473 -11Z" />
<glyph unicode="o" glyph-name="o" horiz-adv-x="521" d="M286 511Q340 511 383 486T451 411T476 292Q476 212 447 143T364 31T231 -11Q165 -11 123 19T60 100T39 213Q39 294 68 362T153 470T286 511ZM271 474Q227 475 195 445T146 362T127 246Q126 212 131 174T148
103T183 49T240 27Q280 26 308 48T353 107T378 184T388 261Q389 296 385 333T367 402T331 453T271 474Z" />
<glyph unicode="p" glyph-name="p" horiz-adv-x="571" d="M42 -255V-225Q70 -225 81 -206T96 -156T103 -85Q110 1 117 81T131 228T142 342T146 408Q146 428 143 444T119 461Q103 461 83 439T47 364L18 370Q21 388 30 411T56 458T95 496T148 511Q193 511 208 480T224
406Q224 376 220 346T210 292H213Q241 384 270 431T331 494T391 511Q437 511 467 485T511 414T526 317Q526 220 493 146T394 31T231 -11Q218 -11 207 -10T184 -8Q179 -84 177 -125T173 -186T168 -217Q184 -216 199 -216T231 -214V-255H42ZM248 23Q290 23 322 40T376
85T413 150T433 224T440 299Q440 345 434 382T413 442T370 464Q343 464 316 435T266 358T225 250T198 130Q194 108 192 85T187 35Q203 30 217 27T248 23Z" />
<glyph unicode="q" glyph-name="q" horiz-adv-x="518" d="M331 511Q348 511 372 510T421 506T461 501Q456 438 449 357T433 187T417 16T404 -134Q403 -154 401 -177T394 -217Q410 -216 425 -216T457 -214V-255H268V-225Q296 -225 307 -206T322 -156T329 -85Q335
-10 343 65T360 208H357Q331 116 300 69T237 6T175 -11Q129 -12 99 12T54 79T38 174Q38 272 71 347T169 466T331 511ZM315 477Q262 476 226 450T167 380T134 288T124 193Q125 125 140 81T196 36Q225 36 251 63T301 137T343 239T372 355T386 468Q371 473 353 475T315
477Z" />
<glyph unicode="r" glyph-name="r" horiz-adv-x="455" d="M101 0Q100 7 100 12T100 26Q100 43 101 66T105 129T116 231Q123 296 127 329T133 377T135 403Q136 423 133 442T108 461Q92 461 71 439T35 364L7 370Q10 388 19 411T45 458T84 496T137 511Q182 511 197
480T210 397Q209 375 205 349T195 293H198Q227 380 258 427T322 492T387 511Q417 511 437 496T457 453Q457 435 445 420T411 405Q393 405 380 416T365 447Q337 453 311 429T261 361T220 261T192 149T182 43Q182 28 182 21T184 0H101Z" />
<glyph unicode="s" glyph-name="s" horiz-adv-x="428" d="M190 -11Q150 -11 113 1T53 38T30 96Q30 118 42 131T73 145Q93 145 103 132T114 103Q114 96 112 88T105 72Q113 50 137 38T188 26Q242 26 269 51T296 121Q296 148 277 169T229 208T169 245Q140 263 114
282T71 324T54 376Q54 413 76 443T137 492T227 511Q265 511 298 499T353 465T375 413Q375 392 363 380T333 367Q315 367 304 379T293 407Q293 415 295 422T302 438Q297 455 278 466T224 478Q202 478 181 468T146 441T132 399Q132 380 143 364T174 334T215 306Q251
285 289 262T352 208T378 135Q378 93 355 60T289 8T190 -11Z" />
<glyph unicode="t" glyph-name="t" horiz-adv-x="364" d="M217 641L199 500H358L355 462L195 460Q191 418 186 374T176 285T169 201T166 127Q166 108 168 88T181 54T213 40Q223 40 237 44T270 63T307 110L333 93Q304 42 271 16T189 -11Q150 -11 128 5T95 49T85
107Q85 145 88 199T97 320T111 459L22 458L25 500Q94 500 127 537T179 641H217Z" />
<glyph unicode="u" glyph-name="u" horiz-adv-x="593" d="M208 -11Q168 -11 144 7T110 55T99 119Q99 175 107 232T123 337T131 414Q131 433 127 447T104 461Q88 461 69 439T34 364L6 370Q9 388 18 411T42 458T80 496T133 511Q173 511 193 486T214 414Q214 386
209 345T198 260T186 173T181 99Q181 88 184 73T198 47T228 36Q256 36 283 62T334 132T377 229T406 339T417 447Q417 462 417 474T415 500H499Q500 493 500 488T500 474Q500 457 498 434T492 372T480 270Q473 212 470 179T464 130T462 104T461 84Q461 66 466 53T488
40Q505 40 525 61T561 136L589 130Q586 112 577 89T551 42T512 4T459 -11Q419 -11 401 14T382 79Q382 108 387 142T400 213H397Q363 122 332 74T271 7T208 -11Z" />
<glyph unicode="v" glyph-name="v" horiz-adv-x="526" d="M363 511Q408 511 436 483T476 408T484 307T460 201Q445 161 421 124T365 56T297 7T222 -11Q181 -11 156 6T120 53T108 117Q107 159 110 202T117 285T124 359T128 415Q128 433 123 446T100 460Q84 460
65 438T32 362L4 369Q7 387 15 410T39 457T76 495T128 511Q155 512 173 501T200 469T211 416Q211 386 209 346T203 263T196 183T192 119Q192 103 194 85T206 55T240 43Q265 43 292 58T344 98T390 155T422 224Q428 244 433 276T437 343T424 406T388 444Q382 431
372 425T348 419Q335 419 321 429T306 461Q306 471 311 482T329 502T363 511Z" />
<glyph unicode="w" glyph-name="w" horiz-adv-x="801" d="M640 511Q685 511 712 483T751 408T759 307T735 201Q719 156 694 118T635 50T564 5T483 -11Q457 -11 432 1T392 47T382 140Q367 98 339 64T276 9T208 -11Q150 -11 127 27T104 119Q104 159 108 201T117
284T126 359T130 414Q130 433 126 447T103 461Q87 461 68 439T33 364L5 370Q8 388 17 411T41 458T79 496T132 511Q159 511 177 500T204 467T213 414Q213 381 209 337T200 247T190 162T186 102Q186 88 189 74T202 51T229 42Q254 42 279 57T327 101T366 172T393 268T403
388Q403 414 402 442T396 500H482Q484 492 485 478T486 455Q486 405 481 359T470 271T458 191T453 119Q453 90 463 66T507 41Q536 41 564 54T617 93T663 151T696 224Q702 244 707 276T711 343T699 406T663 444Q657 431 646 425T622 419Q609 419 595 429T580 462Q580
473 585 484T604 503T640 511Z" />
<glyph unicode="x" glyph-name="x" horiz-adv-x="545" d="M77 -11Q49 -11 32 3T15 40Q15 61 27 73T56 86Q79 86 86 72T94 45Q122 39 155 85T230 252Q210 305 197 343T172 405Q162 428 153 439T129 450Q111 450 96 431T78 352L49 351Q49 371 53 398T68 451T100
494T155 511Q190 511 208 491T243 433Q252 410 261 380T284 314Q311 379 336 418T385 478T427 504T461 511Q487 511 501 497T515 462Q515 445 503 432T474 419Q452 419 443 430T428 449Q414 447 396 431T354 375T302 265Q326 204 344 163T376 97T403 61T428 50Q446
50 459 69T479 129L507 125Q504 100 497 76T479 32T450 1T407 -11Q382 -11 364 -3T330 27T296 92T250 202H249Q224 129 201 86T157 22T115 -5T77 -11Z" />
<glyph unicode="y" glyph-name="y" horiz-adv-x="514" d="M64 -271Q30 -269 9 -252T-12 -208Q-12 -185 2 -174T29 -162Q74 -162 72 -214Q78 -217 83 -219T94 -221Q116 -222 139 -205T184 -163T222 -113T247 -75Q238 -17 226 44T199 167T165 286T125 395Q118 412
107 430T76 446Q57 444 48 416T42 342L10 338Q7 365 9 395T22 451T51 494T101 511Q135 511 156 493T191 449T214 398Q233 347 251 281T282 147T303 19H305Q333 68 359 127T402 247T419 363Q419 388 415 407T404 434Q400 431 394 430T379 428Q361 428 350 439T339
467Q339 489 353 500T386 511Q417 511 434 492T458 444T466 383Q466 317 447 248T398 112T333 -17Q283 -107 238 -164T149 -246T64 -271Z" />
<glyph unicode="z" glyph-name="z" horiz-adv-x="471" d="M50 -11L18 14Q43 51 76 96T145 190T213 280Q241 316 263 345T308 400T353 455H351Q325 427 301 420T257 415Q236 417 217 423T180 436T139 443Q122 443 103 432T84 385Q84 367 91 347L64 338Q59 353 55
370T51 404Q51 436 66 460T105 497T159 511Q189 511 212 503T258 487T311 479Q324 479 350 484T401 512L431 484Q416 465 385 427T313 339T230 235Q186 178 152 135T82 42H83Q106 69 133 81T198 94Q223 94 246 86T291 70T336 61Q353 61 372 70T391 115Q391 123
390 133T384 153L411 162Q416 147 419 130T423 96Q423 64 409 40T371 3T318 -11Q288 -11 259 -2T200 16T141 25Q119 25 97 19T50 -11Z" />
<glyph unicode="{" glyph-name="braceleft" horiz-adv-x="332" d="M347 760L345 726Q294 728 264 712T221 661T204 569Q203 552 204 529T206 481T208 433T208 392Q205 330 171 299T93 258V256Q136 249 166 216T194 120Q193 102 190 79T183 29T176 -20T172 -61Q169
-118 179 -159T217 -222T296 -243L294 -271Q284 -271 279 -271T266 -271Q198 -271 161 -245T110 -168T100 -47Q101 -25 103 -2T109 45T115 89T119 130Q121 182 103 206T28 231H5L8 284H31Q87 284 108 307T132 380Q133 400 133 421T131 465T130 510T130 555Q134
626 152 671T210 738T319 760Q327 760 332 760T347 760Z" />
<glyph unicode="|" glyph-name="bar" horiz-adv-x="235" d="M176 760L118 -271H55L106 760H176Z" />
<glyph unicode="}" glyph-name="braceright" horiz-adv-x="332" d="M-23 -271L-21 -237Q31 -238 60 -223T103 -172T120 -80Q121 -63 120 -40T118 8T116 56T116 97Q119 159 153 190T231 231V233Q188 241 158 274T130 369Q131 387 134 410T141 460T148 509T152 550Q155
607 145 648T107 712T28 732L30 760Q41 760 45 760T58 760Q127 760 164 734T214 657T224 536Q223 514 221 491T215 445T209 400T205 359Q203 307 222 283T296 258H319L316 205H293Q238 205 217 182T192 109Q191 89 191 68T193 24T194 -21T194 -66Q191 -136 173
-181T114 -249T5 -271Q-3 -271 -7 -271T-23 -271Z" />
<glyph unicode="~" glyph-name="asciitilde" horiz-adv-x="530" d="M366 231Q329 231 304 242T260 268T219 294T168 306Q127 306 99 292T43 258L46 321Q79 347 107 360T176 374Q215 374 239 364T281 339T317 313T362 299Q398 296 431 309T491 346L488 283Q466
261 436 246T366 231Z" />
<glyph unicode="&#xa0;" glyph-name="uni00A0" horiz-adv-x="263" />
<glyph unicode="&#xa1;" glyph-name="exclamdown" horiz-adv-x="253" d="M95 -216Q74 -216 62 -205T46 -177T44 -143L103 270H140L155 -143Q156 -169 141 -192T95 -216ZM127 387Q102 387 87 406T72 452Q74 479 93 497T135 516Q158 516 174 498T189 452Q188 425
169 406T127 387Z" />
<glyph unicode="&#xa2;" glyph-name="cent" horiz-adv-x="482" d="M332 622L321 507Q370 497 400 466T430 394Q430 372 419 359T388 345Q364 344 355 359T345 385Q345 394 347 404T358 423Q353 451 331 464T279 477Q236 477 207 454T161 394T137 314T129 231Q129
161 144 118T188 56T251 36Q277 36 305 49T359 91T404 168L439 152Q405 74 358 35T258 -11L247 -129H195L205 -11Q129 -3 85 51T41 208Q41 255 54 306T94 403T164 477T264 511L273 622H332Z" />
<glyph unicode="&#xa3;" glyph-name="sterling" horiz-adv-x="547" d="M66 -16Q48 -16 38 -5T29 21Q31 48 56 69T119 101Q152 148 152 202T141 312H59L62 360H130Q124 389 121 422T119 497Q123 564 149 613T218 689T314 716Q373 716 405 695T450 646T463 596Q463
576 453 563T424 549Q410 549 401 555T389 571T385 587Q385 595 387 605T398 624Q394 643 375 661T320 679Q283 679 256 659T213 607T196 537Q193 486 199 444T211 360H365L362 312H218Q222 268 219 235T203 172T159 109Q173 111 187 112T215 113Q242 113 266 107T312
92Q343 80 368 69T413 57Q436 57 451 72T470 120H501Q495 60 468 22T391 -16Q355 -16 323 2T258 40Q233 55 201 68T139 75Q133 37 112 11T66 -16Z" />
<glyph unicode="&#xa4;" glyph-name="currency" horiz-adv-x="555" d="M95 40L58 72L120 139Q88 189 91 254Q93 286 104 317T136 375L79 444L120 477L170 409Q193 427 222 437T285 448Q319 448 346 438T395 409L453 477L490 444L425 375Q442 348 450 317T458 254Q456
223 446 194T416 140L472 72L432 40L382 105Q360 88 330 78T264 67Q228 67 200 77T150 105L95 40ZM267 106Q297 106 317 122T350 164T369 218T376 271Q377 290 373 314T359 360T330 398T283 413Q255 413 235 398T202 361T183 314T175 271Q174 247 177 219T190 165T218
123T267 106Z" />
<glyph unicode="&#xa5;" glyph-name="yen" horiz-adv-x="699" d="M237 0L239 33Q271 35 286 45T306 83T313 163L180 162L183 209L315 208L318 271L186 270L189 317L292 316L161 545Q138 586 127 612T113 658Q97 657 82 657T51 656L53 700H307L305 667Q236 667
227 637T246 558Q267 521 285 489T323 425Q331 412 339 399T357 371T376 341H378Q417 409 450 465T520 583Q526 593 534 606T552 634T572 659Q553 658 533 658T493 656L495 700H699L697 667Q648 664 615 633T543 538Q507 478 475 423T413 315H533L531 272L402 271L398
208L528 207L526 164L396 163Q394 131 393 101T387 40Q408 41 428 42T470 44L468 0H237Z" />
<glyph unicode="&#xa6;" glyph-name="brokenbar" horiz-adv-x="261" d="M188 760L165 388H102L118 760H188ZM154 101L131 -271H68L84 101H154Z" />
<glyph unicode="&#xa7;" glyph-name="section" horiz-adv-x="524" d="M219 -228Q166 -228 126 -210T65 -163T44 -104Q45 -84 56 -68T90 -52Q105 -52 113 -58T126 -74T130 -93Q130 -113 118 -127Q118 -143 132 -157T170 -180T219 -189Q266 -189 293 -175T333 -139T350
-95Q355 -67 348 -45T323 -3T280 34T221 74Q187 96 153 118T92 168T49 229T37 306Q39 347 64 393T132 475Q115 497 106 524T98 587Q100 611 111 640T146 697T207 742T298 760Q352 760 391 742T453 695T473 636Q472 617 461 601T427 585Q413 585 404 591T391 606T387
626Q387 636 391 644T399 660Q400 676 386 690T348 713T298 722Q253 722 225 705T183 664T167 618Q165 587 177 562T211 517T261 478T320 441Q362 416 400 387T462 320T482 227Q481 199 469 169T435 110T382 58Q402 36 412 8T419 -58Q418 -82 407 -111T371 -167T310
-211T219 -228ZM362 80Q382 102 393 131T406 190Q409 233 393 264T349 319T286 363T217 405T154 452Q135 429 125 399T113 343Q110 300 125 269T169 214T232 169T300 127T362 80Z" />
<glyph unicode="&#xa8;" glyph-name="dieresis" horiz-adv-x="351" d="M248 616Q229 616 216 632T204 670Q206 693 220 709T253 725Q273 725 285 709T295 670Q294 648 280 632T248 616ZM101 616Q82 616 69 632T57 670Q59 693 73 709T106 725Q126 725 138 709T148
670Q147 648 133 632T101 616Z" />
<glyph unicode="&#xa9;" glyph-name="copyright" horiz-adv-x="876" d="M433 102Q364 102 311 134T230 222T204 346Q206 390 224 435T275 517T355 576T463 599Q500 599 533 588T592 558L591 594H639L630 426H592Q588 491 552 519T464 548Q426 548 388 526T323
462T293 358Q290 303 311 259T373 188T466 162Q499 162 541 181T613 235L642 204Q611 164 573 142T499 111T433 102ZM420 -50Q331 -50 260 -21T140 62T66 188T46 348Q51 431 83 504T172 632T302 719T463 750Q551 750 622 719T742 633T817 504T837 348Q833 265 799
193T708 67T577 -19T420 -50ZM424 -2Q500 -2 562 26T671 103T743 215T773 348Q777 419 757 483T695 596T593 675T458 704Q383 704 321 677T214 600T141 487T110 348Q106 278 125 215T185 103T286 26T424 -2Z" />
<glyph unicode="&#xaa;" glyph-name="ordfeminine" horiz-adv-x="402" d="M245 716Q264 716 289 714T335 706Q330 668 325 629T316 556T310 494T307 451Q307 438 308 428T318 417Q327 417 336 426T356 469L378 464Q374 446 365 427T341 394T300 380Q275 380 265
395T254 438Q254 455 257 476T266 522H264Q244 460 222 430T179 390T140 380Q106 380 85 405T64 490Q64 550 83 601T143 684T245 716ZM225 688Q187 687 164 660T130 591T120 501Q120 461 129 442T154 420Q174 418 194 441T232 505T260 591T273 680Q266 684 253
686T225 688Z" />
<glyph unicode="&#xab;" glyph-name="guillemotleft" horiz-adv-x="517" d="M277 -7L25 264V268L319 548L343 521L124 264V262L306 19L277 -7ZM421 77L238 267V270L450 464L475 439L338 272V270L450 103L421 77Z" />
<glyph unicode="&#xac;" glyph-name="logicalnot" horiz-adv-x="530" d="M431 157L435 284L44 282L47 344L493 342L483 157H431Z" />
<glyph unicode="&#xad;" glyph-name="uni00AD" horiz-adv-x="482" d="M419 353V290L64 286V353H419Z" />
<glyph unicode="&#xae;" glyph-name="registered" horiz-adv-x="876" d="M463 750Q551 750 622 719T742 633T817 504T837 348Q833 265 799 193T708 67T577 -19T420 -50Q331 -50 260 -21T140 62T66 188T46 348Q51 431 83 504T172 632T302 719T463 750ZM458 704Q383
704 321 677T214 600T141 487T110 348Q106 278 125 215T185 103T286 26T424 -2Q500 -2 562 26T671 103T743 215T773 348Q777 419 757 483T695 596T593 675T458 704ZM249 170Q286 171 293 193T301 250L315 511Q316 525 317 537T319 559Q306 558 294 557T269 554L271
596Q296 597 328 598T394 600T452 600Q516 599 554 580T610 532T625 468Q624 446 612 419T573 369T498 333Q512 321 518 315T536 291Q571 235 591 208T625 174T653 166L651 132H569Q554 136 538 157T498 212Q485 232 473 252T450 290T429 322Q419 322 401 323T374
325L369 225Q368 208 367 196T364 174Q376 175 388 175T412 176V136H247L249 170ZM377 365Q389 364 401 364T426 364Q450 365 478 375T528 406T552 465Q554 498 537 519T492 550T433 557Q396 554 390 532T382 473L377 365Z" />
<glyph unicode="&#xaf;" glyph-name="overscore" horiz-adv-x="358" d="M45 645L48 701H313L310 649L45 645Z" />
<glyph unicode="&#xb0;" glyph-name="degree" horiz-adv-x="387" d="M220 716Q291 716 328 672T362 562Q360 519 338 485T281 432T202 413Q155 413 123 432T74 485T59 562Q62 605 84 640T142 695T220 716ZM216 670Q175 670 148 638T119 564Q117 523 140 491T206
459Q247 459 274 491T303 564Q305 606 282 638T216 670Z" />
<glyph unicode="&#xb1;" glyph-name="plusminus" horiz-adv-x="530" d="M49 390H495L492 340H46L49 390ZM307 583L283 137H233L257 583H307ZM49 50H495L493 0H47L49 50Z" />
<glyph unicode="&#xb2;" glyph-name="uni00B2" horiz-adv-x="374" d="M210 716Q241 716 268 705T311 670T325 609Q324 594 319 579T301 545T264 504T199 453Q163 428 141 406T111 360L200 358Q228 357 250 357T285 366T299 398H323L314 306H58Q60 348 78 380T124
439T185 492Q229 527 242 557T257 608Q259 640 243 661T195 682Q170 682 152 668T129 637Q135 631 136 625T138 612Q138 602 130 593T109 584Q98 584 90 593T81 615Q81 636 96 659T141 699T210 716Z" />
<glyph unicode="&#xb3;" glyph-name="uni00B3" horiz-adv-x="358" d="M171 306Q118 308 88 333T57 395Q57 410 65 424T92 439Q106 439 113 430T121 409Q121 402 119 396T111 382Q113 362 130 350T173 338Q213 338 235 365T259 423Q260 440 254 460T230 496T177
512Q170 512 163 512T148 511L149 538Q152 538 155 538T161 538Q200 538 219 552T246 585T254 613Q256 642 241 664T188 685Q163 684 147 670T126 639Q131 633 132 628T133 618Q133 608 125 600T104 591Q93 592 86 600T78 621Q78 641 92 663T135 700T201 716Q254
716 284 690T312 619Q311 594 288 568T221 530Q274 526 298 495T321 423Q319 373 279 339T171 306Z" />
<glyph unicode="&#xb4;" glyph-name="acute" horiz-adv-x="240" d="M69 579L45 599L123 731Q137 754 150 759T172 762T185 755Q189 751 192 742T193 719T172 686L69 579Z" />
<glyph unicode="&#xb5;" glyph-name="uni00B5" horiz-adv-x="592" d="M102 -271Q74 -271 65 -250T58 -188L94 500H172L158 242Q155 185 161 140T190 67T255 40Q292 40 324 58T378 105L399 500H475L457 136Q455 101 459 81T472 51T496 42Q505 42 515 46T540 60L549
44Q540 33 525 20T489 -2T445 -11Q408 -11 396 11T380 58H379Q312 -11 231 -11Q190 -11 164 8T121 72H118Q118 3 124 -54T137 -154T142 -220Q141 -239 132 -255T102 -271Z" />
<glyph unicode="&#xb6;" glyph-name="paragraph" horiz-adv-x="490" d="M146 -255L183 408Q150 411 119 426T67 472T50 554Q53 602 75 634T130 683T199 700H417L367 -255H301L349 659L262 657L213 -255H146Z" />
<glyph unicode="&#xb7;" glyph-name="middot" horiz-adv-x="237" d="M125 389Q149 389 164 371T177 326Q176 299 158 281T117 263Q94 263 78 281T63 326Q65 352 83 370T125 389Z" />
<glyph unicode="&#xb8;" glyph-name="cedilla" horiz-adv-x="293" d="M49 -240L45 -209Q71 -204 94 -198T134 -182T162 -160T173 -133Q173 -112 159 -106T127 -103T93 -117L59 -100L94 8H144L114 -77Q128 -68 146 -63T181 -58Q214 -58 231 -77T247 -123Q244 -153
223 -174T171 -208T108 -228T49 -240Z" />
<glyph unicode="&#xb9;" glyph-name="uni00B9" horiz-adv-x="270" d="M74 311L75 339Q106 339 116 360T128 412L140 646L74 609L60 635L173 716H198L182 382Q181 371 180 361T177 343Q190 344 203 344T229 345L227 311H74Z" />
<glyph unicode="&#xba;" glyph-name="ordmasculine" horiz-adv-x="362" d="M216 716Q267 716 301 678T335 573Q335 523 317 478T265 404T181 375Q140 375 113 395T74 450T61 523Q61 574 79 618T133 689T216 716ZM207 687Q168 687 146 646T121 543Q121 514 126
483T146 429T189 407Q220 407 238 431T265 489T275 554Q276 583 271 614T251 666T207 687Z" />
<glyph unicode="&#xbb;" glyph-name="guillemotright" horiz-adv-x="521" d="M235 548L487 277V273L193 -7L169 20L388 277V279L206 522L235 548ZM91 464L274 274V271L62 77L37 102L174 269V271L62 438L91 464Z" />
<glyph unicode="&#xbc;" glyph-name="onequarter" horiz-adv-x="718" d="M74 311L75 339Q106 339 116 360T128 412L140 646L74 609L60 635L173 716H198L182 382Q181 371 180 361T177 343Q190 344 203 344T229 345L227 311H74ZM588 716L623 689L118 -16L87 7L588
716ZM504 4L505 33Q536 34 546 51T558 97V109H389L391 139L602 415H629L616 146L672 145L670 109H614L610 36L652 38L650 4H504ZM561 147L571 326H570L437 149L561 147Z" />
<glyph unicode="&#xbd;" glyph-name="onehalf" horiz-adv-x="733" d="M74 311L75 339Q106 339 116 360T128 412L140 646L74 609L60 635L173 716H198L182 382Q181 371 180 361T177 343Q190 344 203 344T229 345L227 311H74ZM580 716L615 689L110 -16L79 7L580 716ZM572
414Q603 414 630 403T673 368T687 307Q686 292 681 277T663 243T626 202T561 151Q525 126 503 104T473 58L562 56Q590 55 612 55T647 64T661 96H685L676 4H420Q422 46 440 78T486 137T547 190Q591 225 604 255T619 306Q621 338 605 359T557 380Q532 380 514 366T491
335Q497 329 498 323T500 310Q500 300 492 291T471 282Q460 282 452 291T443 313Q443 334 458 357T503 397T572 414Z" />
<glyph unicode="&#xbe;" glyph-name="threequarters" horiz-adv-x="793" d="M171 306Q118 308 88 333T57 395Q57 410 65 424T92 439Q106 439 113 430T121 409Q121 402 119 396T111 382Q113 362 130 350T173 338Q213 338 235 365T259 423Q260 440 254 460T230 496T177
512Q170 512 163 512T148 511L149 538Q152 538 155 538T161 538Q200 538 219 552T246 585T254 613Q256 642 241 664T188 685Q163 684 147 670T126 639Q131 633 132 628T133 618Q133 608 125 600T104 591Q93 592 86 600T78 621Q78 641 92 663T135 700T201 716Q254
716 284 690T312 619Q311 594 288 568T221 530Q274 526 298 495T321 423Q319 373 279 339T171 306ZM653 716L688 689L183 -16L152 7L653 716ZM579 4L580 33Q611 34 621 51T633 97V109H464L466 139L677 415H704L691 146L747 145L745 109H689L685 36L727 38L725 4H579ZM636
147L646 326H645L512 149L636 147Z" />
<glyph unicode="&#xbf;" glyph-name="questiondown" horiz-adv-x="465" d="M238 312Q251 312 269 306T301 285T314 245Q313 224 299 205T264 168T219 130Q193 109 167 84T124 27T103 -44Q100 -80 109 -110T145 -159T217 -177Q246 -177 271 -166T312 -139T332 -107Q323
-99 320 -88T317 -68Q317 -56 322 -46T338 -29T362 -23Q382 -23 395 -36T409 -72Q409 -102 383 -135T310 -192T200 -216Q123 -216 81 -190T23 -124T13 -42Q18 -1 42 32T100 94T167 146T222 191T246 233Q247 245 239 255T207 266Q200 266 189 265T168 259L158 294Q175
304 195 308T238 312ZM245 516Q266 516 281 501T296 457Q295 433 277 416T238 398Q216 398 202 415T188 457Q189 482 205 499T245 516Z" />
<glyph unicode="&#xc0;" glyph-name="Agrave" horiz-adv-x="631" d="M341 719L532 150Q540 129 547 96T553 40L618 44L616 0H399L400 33Q438 34 450 50T460 88T452 128L423 222L167 216L127 109Q118 85 112 71T96 40L171 44L169 0H-14L-13 33Q12 34 30 49T63 93T93
158L319 719H341ZM307 580Q296 552 285 524T263 468L183 259H412L347 459Q337 489 328 519T307 580ZM368 762L222 855Q200 869 194 881T191 903T197 917Q200 920 208 925T229 928T262 908L389 790L368 762Z" />
<glyph unicode="&#xc1;" glyph-name="Aacute" horiz-adv-x="631" d="M341 719L532 150Q540 129 547 96T553 40L618 44L616 0H399L400 33Q438 34 450 50T460 88T452 128L423 222L167 216L127 109Q118 85 112 71T96 40L171 44L169 0H-14L-13 33Q12 34 30 49T63 93T93
158L319 719H341ZM307 580Q296 552 285 524T263 468L183 259H412L347 459Q337 489 328 519T307 580ZM305 762L284 790L411 908Q430 926 443 928T465 925T476 917Q480 913 482 904T479 882T451 855L305 762Z" />
<glyph unicode="&#xc2;" glyph-name="Acircumflex" horiz-adv-x="631" d="M341 719L532 150Q540 129 547 96T553 40L618 44L616 0H399L400 33Q438 34 450 50T460 88T452 128L423 222L167 216L127 109Q118 85 112 71T96 40L171 44L169 0H-14L-13 33Q12 34 30 49T63
93T93 158L319 719H341ZM307 580Q296 552 285 524T263 468L183 259H412L347 459Q337 489 328 519T307 580ZM501 763L325 852L155 765L140 792L336 932H338L519 791L501 763Z" />
<glyph unicode="&#xc3;" glyph-name="Atilde" horiz-adv-x="631" d="M341 719L532 150Q540 129 547 96T553 40L618 44L616 0H399L400 33Q438 34 450 50T460 88T452 128L423 222L167 216L127 109Q118 85 112 71T96 40L171 44L169 0H-14L-13 33Q12 34 30 49T63 93T93
158L319 719H341ZM307 580Q296 552 285 524T263 468L183 259H412L347 459Q337 489 328 519T307 580ZM246 850Q224 850 204 836T164 793L136 810Q156 854 189 880T254 907Q284 908 304 898T341 875T374 851T410 841Q437 841 459 857T497 900L523 886Q507 845 487
823T445 793T401 784Q375 784 356 794T319 817T285 840T246 850Z" />
<glyph unicode="&#xc4;" glyph-name="Adieresis" horiz-adv-x="631" d="M341 719L532 150Q540 129 547 96T553 40L618 44L616 0H399L400 33Q438 34 450 50T460 88T452 128L423 222L167 216L127 109Q118 85 112 71T96 40L171 44L169 0H-14L-13 33Q12 34 30 49T63
93T93 158L319 719H341ZM307 580Q296 552 285 524T263 468L183 259H412L347 459Q337 489 328 519T307 580ZM246 780Q225 780 212 797T199 839Q200 865 216 882T253 899Q273 899 286 882T297 839Q296 814 281 797T246 780ZM407 780Q387 780 374 797T361 839Q362
865 378 882T414 899Q435 899 447 882T459 839Q458 814 443 797T407 780Z" />
<glyph unicode="&#xc5;" glyph-name="Aring" horiz-adv-x="631" d="M341 719L532 150Q540 129 547 96T553 40L618 44L616 0H399L400 33Q438 34 450 50T460 88T452 128L423 222L167 216L127 109Q118 85 112 71T96 40L171 44L169 0H-14L-13 33Q12 34 30 49T63 93T93
158L319 719H341ZM307 580Q296 552 285 524T263 468L183 259H412L347 459Q337 489 328 519T307 580ZM330 719Q302 719 277 729T236 763T218 822Q217 857 232 882T274 922T328 936Q355 936 380 926T422 893T440 834Q441 798 425 773T384 733T330 719ZM334 749Q354
750 370 769T387 820Q387 867 369 888T324 907Q301 906 286 885T271 832Q271 795 288 772T334 749Z" />
<glyph unicode="&#xc6;" glyph-name="AE" horiz-adv-x="955" d="M-24 0L-22 33Q4 33 25 47T63 83T94 125L483 660Q461 659 439 658T393 656L395 700H891L887 525H854Q857 584 841 614T794 655T726 665L640 663Q603 662 587 649T566 611T558 544L549 383H623Q665
383 691 388T731 413T746 477H779L768 259H735Q737 303 726 321T689 343T621 347Q602 347 584 347T547 345L535 118Q534 91 532 72T528 40L721 37Q765 37 797 51T849 101T871 195H905L889 0H377L379 36Q409 37 424 47T446 79T453 130L458 221Q397 220 336 219T214
216L169 154Q149 126 128 98T87 41V40L164 44L162 0H-24ZM245 259H460L476 582H475Q460 560 444 538T413 494T381 450L245 259Z" />
<glyph unicode="&#xc7;" glyph-name="Ccedilla" horiz-adv-x="686" d="M412 716Q468 716 516 701T609 656H610L608 710H662L650 479H614Q609 573 556 624T416 675Q363 675 316 653T231 588T171 487T144 354Q139 260 171 188T262 76T395 36Q460 36 524 64T631 148L656
127Q610 69 558 38T457 -4T366 -16Q291 -16 231 11T129 86T67 199T50 339Q54 410 78 477T147 598T258 684T412 716ZM290 -251L284 -218Q310 -213 333 -206T374 -188T404 -165T416 -137Q417 -120 408 -112T381 -104Q369 -104 357 -107T334 -119L302 -102L336 8H394L362
-75Q377 -66 397 -62T430 -57Q468 -57 484 -78T498 -128Q496 -158 473 -180T417 -216T350 -239T290 -251Z" />
<glyph unicode="&#xc8;" glyph-name="Egrave" horiz-adv-x="619" d="M555 700L551 525H518Q521 584 505 614T458 655T390 665L304 663Q267 662 251 649T230 611T222 544L213 384L285 383Q327 383 354 388T394 413T410 477H443L432 259H399Q401 303 390 322T353
345T284 347L211 344L199 115Q198 88 196 69T192 37L383 40Q427 41 460 54T512 102T535 195H569L553 0H41L43 33Q81 35 96 50T114 93T118 156L142 588Q143 608 145 626T149 660Q131 659 113 658T76 656L78 700H555ZM409 762L263 855Q241 869 235 881T232 903T238
917Q241 920 249 925T270 928T303 908L430 790L409 762Z" />
<glyph unicode="&#xc9;" glyph-name="Eacute" horiz-adv-x="619" d="M555 700L551 525H518Q521 584 505 614T458 655T390 665L304 663Q267 662 251 649T230 611T222 544L213 384L285 383Q327 383 354 388T394 413T410 477H443L432 259H399Q401 303 390 322T353
345T284 347L211 344L199 115Q198 88 196 69T192 37L383 40Q427 41 460 54T512 102T535 195H569L553 0H41L43 33Q81 35 96 50T114 93T118 156L142 588Q143 608 145 626T149 660Q131 659 113 658T76 656L78 700H555ZM346 762L325 790L452 908Q471 926 484 928T506
925T517 917Q521 913 523 904T520 882T492 855L346 762Z" />
<glyph unicode="&#xca;" glyph-name="Ecircumflex" horiz-adv-x="619" d="M555 700L551 525H518Q521 584 505 614T458 655T390 665L304 663Q267 662 251 649T230 611T222 544L213 384L285 383Q327 383 354 388T394 413T410 477H443L432 259H399Q401 303 390 322T353
345T284 347L211 344L199 115Q198 88 196 69T192 37L383 40Q427 41 460 54T512 102T535 195H569L553 0H41L43 33Q81 35 96 50T114 93T118 156L142 588Q143 608 145 626T149 660Q131 659 113 658T76 656L78 700H555ZM542 763L366 852L196 765L181 792L377 932H379L560
791L542 763Z" />
<glyph unicode="&#xcb;" glyph-name="Edieresis" horiz-adv-x="619" d="M555 700L551 525H518Q521 584 505 614T458 655T390 665L304 663Q267 662 251 649T230 611T222 544L213 384L285 383Q327 383 354 388T394 413T410 477H443L432 259H399Q401 303 390 322T353
345T284 347L211 344L199 115Q198 88 196 69T192 37L383 40Q427 41 460 54T512 102T535 195H569L553 0H41L43 33Q81 35 96 50T114 93T118 156L142 588Q143 608 145 626T149 660Q131 659 113 658T76 656L78 700H555ZM287 780Q266 780 253 797T240 839Q241 865 257
882T294 899Q314 899 327 882T338 839Q337 814 322 797T287 780ZM448 780Q428 780 415 797T402 839Q403 865 419 882T455 899Q476 899 488 882T500 839Q499 814 484 797T448 780Z" />
<glyph unicode="&#xcc;" glyph-name="Igrave" horiz-adv-x="333" d="M299 700L297 667Q262 666 247 653T228 615T222 554L199 119Q198 92 196 73T192 40Q210 41 228 42T264 44L262 0H41L43 33Q81 35 96 50T114 93T118 156L141 588Q142 608 144 626T148 660Q130
659 112 658T76 656L78 700H299ZM243 762L97 855Q75 869 69 881T66 903T72 917Q75 920 83 925T104 928T137 908L264 790L243 762Z" />
<glyph unicode="&#xcd;" glyph-name="Iacute" horiz-adv-x="333" d="M299 700L297 667Q262 666 247 653T228 615T222 554L199 119Q198 92 196 73T192 40Q210 41 228 42T264 44L262 0H41L43 33Q81 35 96 50T114 93T118 156L141 588Q142 608 144 626T148 660Q130
659 112 658T76 656L78 700H299ZM180 762L159 790L286 908Q305 926 318 928T340 925T351 917Q355 913 357 904T354 882T326 855L180 762Z" />
<glyph unicode="&#xce;" glyph-name="Icircumflex" horiz-adv-x="333" d="M299 700L297 667Q262 666 247 653T228 615T222 554L199 119Q198 92 196 73T192 40Q210 41 228 42T264 44L262 0H41L43 33Q81 35 96 50T114 93T118 156L141 588Q142 608 144 626T148 660Q130
659 112 658T76 656L78 700H299ZM605 766L461 854L318 774L302 794L469 934H470L624 793L605 766Z" />
<glyph unicode="&#xcf;" glyph-name="Idieresis" horiz-adv-x="333" d="M299 700L297 667Q262 666 247 653T228 615T222 554L199 119Q198 92 196 73T192 40Q210 41 228 42T264 44L262 0H41L43 33Q81 35 96 50T114 93T118 156L141 588Q142 608 144 626T148 660Q130
659 112 658T76 656L78 700H299ZM121 780Q100 780 87 797T74 839Q75 865 91 882T128 899Q148 899 161 882T172 839Q171 814 156 797T121 780ZM282 780Q262 780 249 797T236 839Q237 865 253 882T289 899Q310 899 322 882T334 839Q333 814 318 797T282 780Z" />
<glyph unicode="&#xd0;" glyph-name="Eth" horiz-adv-x="738" d="M40 0L42 33Q80 35 95 50T113 93T117 156L127 329L24 328L26 378H129L141 588Q143 608 144 626T148 660Q129 659 111 658T74 656L77 700L309 701Q396 701 467 682T589 623T667 521T695 376Q695
303 671 236T597 115T473 31T299 0H40ZM298 38Q389 38 457 83T563 206T602 380Q602 509 529 586T303 664Q265 664 249 652T228 615T221 551L212 378H342L340 332L209 330L198 118Q197 91 195 72T191 40Q213 39 231 39T265 38T298 38Z" />
<glyph unicode="&#xd1;" glyph-name="Ntilde" horiz-adv-x="762" d="M592 -11L252 475Q235 500 218 524T183 573H181L165 139Q164 114 163 89T158 40Q176 41 194 42T230 44L228 0H45L46 33Q77 33 91 46T111 78T116 112L138 559Q140 585 141 610T143 660Q127 659
110 658T76 656L78 700H197L515 248Q536 218 557 188T599 128H601L622 588Q624 610 625 628T629 660Q611 659 593 658T557 656L559 700H743L741 667Q704 666 690 650T673 607T668 544L640 -11H592ZM329 850Q307 850 287 836T247 793L219 810Q239 854 272 880T337
907Q367 908 387 898T424 875T457 851T493 841Q520 841 542 857T580 900L606 886Q590 845 570 823T528 793T484 784Q458 784 439 794T402 817T368 840T329 850Z" />
<glyph unicode="&#xd2;" glyph-name="Ograve" horiz-adv-x="788" d="M413 716Q501 716 564 685T667 604T727 492T746 369Q746 305 724 238T656 113T543 20T382 -16Q294 -16 231 14T128 95T68 205T49 327Q49 404 74 474T148 598T263 684T413 716ZM408 676Q345 676
297 647T215 570T163 465T145 349Q144 298 157 242T198 136T273 56T387 25Q452 25 501 54T583 131T633 238T650 353Q650 412 635 469T589 573T513 648T408 676ZM463 762L317 855Q295 869 289 881T286 903T292 917Q295 920 303 925T324 928T357 908L484 790L463
762Z" />
<glyph unicode="&#xd3;" glyph-name="Oacute" horiz-adv-x="788" d="M413 716Q501 716 564 685T667 604T727 492T746 369Q746 305 724 238T656 113T543 20T382 -16Q294 -16 231 14T128 95T68 205T49 327Q49 404 74 474T148 598T263 684T413 716ZM408 676Q345 676
297 647T215 570T163 465T145 349Q144 298 157 242T198 136T273 56T387 25Q452 25 501 54T583 131T633 238T650 353Q650 412 635 469T589 573T513 648T408 676ZM400 762L379 790L506 908Q525 926 538 928T560 925T571 917Q575 913 577 904T574 882T546 855L400
762Z" />
<glyph unicode="&#xd4;" glyph-name="Ocircumflex" horiz-adv-x="788" d="M413 716Q501 716 564 685T667 604T727 492T746 369Q746 305 724 238T656 113T543 20T382 -16Q294 -16 231 14T128 95T68 205T49 327Q49 404 74 474T148 598T263 684T413 716ZM408 676Q345
676 297 647T215 570T163 465T145 349Q144 298 157 242T198 136T273 56T387 25Q452 25 501 54T583 131T633 238T650 353Q650 412 635 469T589 573T513 648T408 676ZM596 763L420 852L250 765L235 792L431 932H433L614 791L596 763Z" />
<glyph unicode="&#xd5;" glyph-name="Otilde" horiz-adv-x="788" d="M413 716Q501 716 564 685T667 604T727 492T746 369Q746 305 724 238T656 113T543 20T382 -16Q294 -16 231 14T128 95T68 205T49 327Q49 404 74 474T148 598T263 684T413 716ZM408 676Q345 676
297 647T215 570T163 465T145 349Q144 298 157 242T198 136T273 56T387 25Q452 25 501 54T583 131T633 238T650 353Q650 412 635 469T589 573T513 648T408 676ZM341 850Q319 850 299 836T259 793L231 810Q251 854 284 880T349 907Q379 908 399 898T436 875T469
851T505 841Q532 841 554 857T592 900L618 886Q602 845 582 823T540 793T496 784Q470 784 451 794T414 817T380 840T341 850Z" />
<glyph unicode="&#xd6;" glyph-name="Odieresis" horiz-adv-x="788" d="M413 716Q501 716 564 685T667 604T727 492T746 369Q746 305 724 238T656 113T543 20T382 -16Q294 -16 231 14T128 95T68 205T49 327Q49 404 74 474T148 598T263 684T413 716ZM408 676Q345
676 297 647T215 570T163 465T145 349Q144 298 157 242T198 136T273 56T387 25Q452 25 501 54T583 131T633 238T650 353Q650 412 635 469T589 573T513 648T408 676ZM341 780Q320 780 307 797T294 839Q295 865 311 882T348 899Q368 899 381 882T392 839Q391 814
376 797T341 780ZM502 780Q482 780 469 797T456 839Q457 865 473 882T509 899Q530 899 542 882T554 839Q553 814 538 797T502 780Z" />
<glyph unicode="&#xd7;" glyph-name="multiply" horiz-adv-x="530" d="M141 539L440 224L403 188L103 504L141 539ZM450 501L118 185L86 219L418 535L450 501Z" />
<glyph unicode="&#xd8;" glyph-name="Oslash" horiz-adv-x="787" d="M168 -77L124 -50L182 42Q136 76 106 122T62 222T48 327Q48 404 73 474T147 598T262 684T412 716Q462 716 505 706T582 675L632 755L682 721L630 641Q689 589 717 516T745 369Q745 305 723 238T655
113T542 20T381 -16Q336 -16 298 -8T228 16L168 -77ZM220 103L547 621Q519 647 484 661T407 676Q344 676 296 647T214 570T163 465T144 349Q143 289 161 221T220 103ZM386 25Q451 25 500 54T582 131T632 238T649 353Q649 412 634 470T587 574L259 65Q285 46 316
36T386 25Z" />
<glyph unicode="&#xd9;" glyph-name="Ugrave" horiz-adv-x="744" d="M743 700L742 667Q704 666 689 650T671 607T666 544L652 311Q648 246 631 187T581 83T494 11T366 -16Q286 -16 233 5T151 69T111 180T105 340L118 579Q120 605 121 623T126 660Q108 659 90 659T54
657L56 700H278L276 667Q242 667 227 653T208 621T202 588L189 335Q186 279 191 227T215 132T274 66T381 41Q453 41 499 75T571 168T601 306L619 588Q621 608 622 626T626 660Q608 659 590 658T554 656L556 700H743ZM454 762L308 855Q286 869 280 881T277 903T283
917Q286 920 294 925T315 928T348 908L475 790L454 762Z" />
<glyph unicode="&#xda;" glyph-name="Uacute" horiz-adv-x="744" d="M743 700L742 667Q704 666 689 650T671 607T666 544L652 311Q648 246 631 187T581 83T494 11T366 -16Q286 -16 233 5T151 69T111 180T105 340L118 579Q120 605 121 623T126 660Q108 659 90 659T54
657L56 700H278L276 667Q242 667 227 653T208 621T202 588L189 335Q186 279 191 227T215 132T274 66T381 41Q453 41 499 75T571 168T601 306L619 588Q621 608 622 626T626 660Q608 659 590 658T554 656L556 700H743ZM391 762L370 790L497 908Q516 926 529 928T551
925T562 917Q566 913 568 904T565 882T537 855L391 762Z" />
<glyph unicode="&#xdb;" glyph-name="Ucircumflex" horiz-adv-x="744" d="M743 700L742 667Q704 666 689 650T671 607T666 544L652 311Q648 246 631 187T581 83T494 11T366 -16Q286 -16 233 5T151 69T111 180T105 340L118 579Q120 605 121 623T126 660Q108 659
90 659T54 657L56 700H278L276 667Q242 667 227 653T208 621T202 588L189 335Q186 279 191 227T215 132T274 66T381 41Q453 41 499 75T571 168T601 306L619 588Q621 608 622 626T626 660Q608 659 590 658T554 656L556 700H743ZM587 763L411 852L241 765L226 792L422
932H424L605 791L587 763Z" />
<glyph unicode="&#xdc;" glyph-name="Udieresis" horiz-adv-x="744" d="M743 700L742 667Q704 666 689 650T671 607T666 544L652 311Q648 246 631 187T581 83T494 11T366 -16Q286 -16 233 5T151 69T111 180T105 340L118 579Q120 605 121 623T126 660Q108 659 90
659T54 657L56 700H278L276 667Q242 667 227 653T208 621T202 588L189 335Q186 279 191 227T215 132T274 66T381 41Q453 41 499 75T571 168T601 306L619 588Q621 608 622 626T626 660Q608 659 590 658T554 656L556 700H743ZM332 780Q311 780 298 797T285 839Q286
865 302 882T339 899Q359 899 372 882T383 839Q382 814 367 797T332 780ZM493 780Q473 780 460 797T447 839Q448 865 464 882T500 899Q521 899 533 882T545 839Q544 814 529 797T493 780Z" />
<glyph unicode="&#xdd;" glyph-name="Yacute" horiz-adv-x="641" d="M207 0L209 33Q247 35 261 51T279 94T283 156L289 270L131 545Q107 585 96 612T83 658Q67 657 52 657T21 656L23 700H277L275 667Q229 667 211 653T195 615T216 558Q233 530 255 492T298 420Q306
407 314 394T330 368T347 341H348Q362 365 374 387T399 429Q422 469 444 506T490 583Q496 593 504 606T522 634T542 659Q523 658 503 658T463 656L465 700H669L667 667Q618 664 585 633T513 538L374 300L364 119Q363 92 361 73T357 40Q371 41 385 41T412 43T440
44L438 0H207ZM342 762L321 790L448 908Q467 926 480 928T502 925T513 917Q517 913 519 904T516 882T488 855L342 762Z" />
<glyph unicode="&#xde;" glyph-name="Thorn" horiz-adv-x="577" d="M41 0L43 33Q81 35 96 50T114 93T118 156L141 588Q143 608 144 626T148 660Q130 659 112 658T76 656L78 700H299L297 667Q251 665 239 642T223 577Q237 578 250 578T275 578Q372 578 434 556T528
492T559 392Q559 357 544 317T491 240T387 182T217 159Q213 159 209 159T201 159Q199 113 198 92T196 60T192 40Q210 41 228 42T264 44L262 0H41ZM203 198Q214 197 224 197T248 198Q343 199 402 247T465 375Q468 419 455 450T415 500T351 529T267 539Q263 539 251
539T221 538L203 198Z" />
<glyph unicode="&#xdf;" glyph-name="germandbls" horiz-adv-x="650" d="M-48 -271Q-86 -271 -106 -258T-126 -219Q-126 -211 -122 -201T-108 -184T-84 -177Q-66 -178 -56 -191T-46 -224Q-41 -228 -31 -230T-16 -232Q7 -232 22 -217T47 -172T64 -103T75 -12Q79
36 83 97T91 223T101 350T113 458L23 457L28 500H120Q130 556 147 603T194 686T267 740T375 760Q426 760 461 748T519 716T551 672T561 624Q561 589 547 563T511 517T464 477Q441 459 424 441T407 397Q407 378 422 361T460 326T510 290Q537 271 561 249T600 199T616
135Q616 93 595 60T537 8T448 -11Q408 -11 372 1T314 38T292 96Q292 118 305 131T336 145Q356 145 366 132T376 103Q376 96 375 88T368 72Q376 50 397 38T446 26Q492 26 513 51T534 121Q534 155 509 181T452 233Q424 255 398 276T354 323T337 378Q337 403 346 421T370
454T402 482T434 510Q454 529 469 553T485 614Q485 642 474 667T438 710T370 727Q324 727 292 709T241 657T210 576T194 470Q190 440 187 393T179 290T171 177T161 71T150 -13Q139 -86 117 -144T55 -237T-48 -271Z" />
<glyph unicode="&#xe0;" glyph-name="agrave" horiz-adv-x="548" d="M329 511Q359 511 395 507T463 494Q455 434 448 375T434 262T423 166T419 99Q419 79 422 59T447 39Q464 39 484 61T520 136L548 130Q545 112 536 89T510 42T471 4T418 -11Q378 -11 361 14T344
79Q344 108 349 142T362 213H359Q335 139 310 95T259 27T209 -3T164 -11Q110 -11 74 29T37 163Q37 233 55 296T109 407T201 483T329 511ZM298 475Q253 475 220 450T164 383T132 288T121 180Q121 116 135 75T186 33Q213 33 240 60T292 132T335 234T365 350T376 463Q361
469 341 472T298 475ZM348 579L245 686Q228 705 225 719T224 742T232 755Q235 758 244 761T267 760T294 731L372 599L348 579Z" />
<glyph unicode="&#xe1;" glyph-name="aacute" horiz-adv-x="548" d="M329 511Q359 511 395 507T463 494Q455 434 448 375T434 262T423 166T419 99Q419 79 422 59T447 39Q464 39 484 61T520 136L548 130Q545 112 536 89T510 42T471 4T418 -11Q378 -11 361 14T344
79Q344 108 349 142T362 213H359Q335 139 310 95T259 27T209 -3T164 -11Q110 -11 74 29T37 163Q37 233 55 296T109 407T201 483T329 511ZM298 475Q253 475 220 450T164 383T132 288T121 180Q121 116 135 75T186 33Q213 33 240 60T292 132T335 234T365 350T376 463Q361
469 341 472T298 475ZM267 579L243 599L321 731Q335 754 348 759T370 762T383 755Q387 751 390 742T391 719T370 686L267 579Z" />
<glyph unicode="&#xe2;" glyph-name="acircumflex" horiz-adv-x="548" d="M329 511Q359 511 395 507T463 494Q455 434 448 375T434 262T423 166T419 99Q419 79 422 59T447 39Q464 39 484 61T520 136L548 130Q545 112 536 89T510 42T471 4T418 -11Q378 -11 361
14T344 79Q344 108 349 142T362 213H359Q335 139 310 95T259 27T209 -3T164 -11Q110 -11 74 29T37 163Q37 233 55 296T109 407T201 483T329 511ZM298 475Q253 475 220 450T164 383T132 288T121 180Q121 116 135 75T186 33Q213 33 240 60T292 132T335 234T365 350T376
463Q361 469 341 472T298 475ZM448 589L323 702H321L185 593L163 619L331 776H333L473 615L448 589Z" />
<glyph unicode="&#xe3;" glyph-name="atilde" horiz-adv-x="548" d="M329 511Q359 511 395 507T463 494Q455 434 448 375T434 262T423 166T419 99Q419 79 422 59T447 39Q464 39 484 61T520 136L548 130Q545 112 536 89T510 42T471 4T418 -11Q378 -11 361 14T344
79Q344 108 349 142T362 213H359Q335 139 310 95T259 27T209 -3T164 -11Q110 -11 74 29T37 163Q37 233 55 296T109 407T201 483T329 511ZM298 475Q253 475 220 450T164 383T132 288T121 180Q121 116 135 75T186 33Q213 33 240 60T292 132T335 234T365 350T376 463Q361
469 341 472T298 475ZM175 625L150 638Q164 673 196 696T256 721Q288 722 308 709T345 683T384 669Q407 668 425 681T460 720L484 708Q465 659 436 638T381 617Q350 617 329 630T290 657T248 670Q231 670 211 659T175 625Z" />
<glyph unicode="&#xe4;" glyph-name="adieresis" horiz-adv-x="548" d="M329 511Q359 511 395 507T463 494Q455 434 448 375T434 262T423 166T419 99Q419 79 422 59T447 39Q464 39 484 61T520 136L548 130Q545 112 536 89T510 42T471 4T418 -11Q378 -11 361 14T344
79Q344 108 349 142T362 213H359Q335 139 310 95T259 27T209 -3T164 -11Q110 -11 74 29T37 163Q37 233 55 296T109 407T201 483T329 511ZM298 475Q253 475 220 450T164 383T132 288T121 180Q121 116 135 75T186 33Q213 33 240 60T292 132T335 234T365 350T376 463Q361
469 341 472T298 475ZM389 616Q370 616 357 632T345 670Q347 693 361 709T394 725Q414 725 426 709T436 670Q435 648 421 632T389 616ZM242 616Q223 616 210 632T198 670Q200 693 214 709T247 725Q267 725 279 709T289 670Q288 648 274 632T242 616Z" />
<glyph unicode="&#xe5;" glyph-name="aring" horiz-adv-x="548" d="M329 511Q359 511 395 507T463 494Q455 434 448 375T434 262T423 166T419 99Q419 79 422 59T447 39Q464 39 484 61T520 136L548 130Q545 112 536 89T510 42T471 4T418 -11Q378 -11 361 14T344
79Q344 108 349 142T362 213H359Q335 139 310 95T259 27T209 -3T164 -11Q110 -11 74 29T37 163Q37 233 55 296T109 407T201 483T329 511ZM298 475Q253 475 220 450T164 383T132 288T121 180Q121 116 135 75T186 33Q213 33 240 60T292 132T335 234T365 350T376 463Q361
469 341 472T298 475ZM313 570Q289 570 268 579T233 609T219 661Q220 691 235 713T273 748T322 761Q346 761 367 752T403 722T416 671Q416 640 400 618T361 583T313 570ZM318 598Q336 599 350 616T365 660Q367 692 355 713T320 733Q301 732 287 714T270 670Q269
641 282 619T318 598Z" />
<glyph unicode="&#xe6;" glyph-name="ae" horiz-adv-x="747" d="M554 511Q600 511 626 498T666 467T683 430T687 403Q687 381 675 355T631 304T542 260T396 230Q396 174 408 131T447 63T521 39Q552 39 580 55T634 98T678 160L710 141Q680 82 645 49T573 3T502
-11Q443 -11 405 10T340 81Q297 34 249 12T154 -11Q90 -11 58 18T26 97Q26 141 52 173T122 227T218 257T321 264Q321 265 321 275T324 316Q327 358 323 394T299 454T235 477Q197 477 169 459T132 412Q138 405 139 397T141 381Q141 366 130 354T100 342Q83 343 72
354T61 385Q62 414 86 443T154 491T255 511Q305 511 335 487T381 420Q412 464 455 487T554 511ZM318 232Q284 231 248 226T181 209T130 173T109 113Q108 76 130 62T175 45Q215 41 255 61T327 114Q321 142 319 173T318 232ZM536 478Q497 477 468 450T421 375T396
266Q449 271 497 287T576 333T607 405Q607 436 596 451T568 473T536 478Z" />
<glyph unicode="&#xe7;" glyph-name="ccedilla" horiz-adv-x="473" d="M278 511Q321 511 355 496T408 454T428 394Q428 372 417 359T386 345Q362 344 353 359T343 385Q343 394 345 404T356 423Q351 451 329 463T277 476Q234 476 205 453T159 393T135 314T127 231Q127
161 142 119T186 57T249 38Q275 38 303 49T357 88T402 164L437 147Q412 89 379 55T309 5T232 -11Q144 -11 92 42T39 208Q39 257 53 310T96 408T170 482T278 511ZM147 -240L143 -209Q169 -204 192 -198T232 -182T260 -160T271 -133Q271 -112 257 -106T225 -103T191
-117L157 -100L192 8H242L212 -77Q226 -68 244 -63T279 -58Q312 -58 329 -77T345 -123Q342 -153 321 -174T269 -208T206 -228T147 -240Z" />
<glyph unicode="&#xe8;" glyph-name="egrave" horiz-adv-x="477" d="M282 511Q318 511 350 500T402 464T422 396Q422 355 394 325T321 276T225 244T127 227Q127 165 139 123T177 60T241 39Q270 39 299 52T356 91T405 160L438 141Q410 89 378 55T308 5T224 -11Q129
-11 84 48T39 205Q39 263 54 318T99 416T175 485T282 511ZM268 477Q222 477 193 446T148 366T128 263Q181 270 229 288T308 334T339 401Q339 433 322 455T268 477ZM316 579L213 686Q196 705 193 719T192 742T200 755Q203 758 212 761T235 760T262 731L340 599L316
579Z" />
<glyph unicode="&#xe9;" glyph-name="eacute" horiz-adv-x="477" d="M282 511Q318 511 350 500T402 464T422 396Q422 355 394 325T321 276T225 244T127 227Q127 165 139 123T177 60T241 39Q270 39 299 52T356 91T405 160L438 141Q410 89 378 55T308 5T224 -11Q129
-11 84 48T39 205Q39 263 54 318T99 416T175 485T282 511ZM268 477Q222 477 193 446T148 366T128 263Q181 270 229 288T308 334T339 401Q339 433 322 455T268 477ZM235 579L211 599L289 731Q303 754 316 759T338 762T351 755Q355 751 358 742T359 719T338 686L235
579Z" />
<glyph unicode="&#xea;" glyph-name="ecircumflex" horiz-adv-x="477" d="M282 511Q318 511 350 500T402 464T422 396Q422 355 394 325T321 276T225 244T127 227Q127 165 139 123T177 60T241 39Q270 39 299 52T356 91T405 160L438 141Q410 89 378 55T308 5T224
-11Q129 -11 84 48T39 205Q39 263 54 318T99 416T175 485T282 511ZM268 477Q222 477 193 446T148 366T128 263Q181 270 229 288T308 334T339 401Q339 433 322 455T268 477ZM416 589L291 702H289L153 593L131 619L299 776H301L441 615L416 589Z" />
<glyph unicode="&#xeb;" glyph-name="edieresis" horiz-adv-x="477" d="M282 511Q318 511 350 500T402 464T422 396Q422 355 394 325T321 276T225 244T127 227Q127 165 139 123T177 60T241 39Q270 39 299 52T356 91T405 160L438 141Q410 89 378 55T308 5T224 -11Q129
-11 84 48T39 205Q39 263 54 318T99 416T175 485T282 511ZM268 477Q222 477 193 446T148 366T128 263Q181 270 229 288T308 334T339 401Q339 433 322 455T268 477ZM357 616Q338 616 325 632T313 670Q315 693 329 709T362 725Q382 725 394 709T404 670Q403 648 389
632T357 616ZM210 616Q191 616 178 632T166 670Q168 693 182 709T215 725Q235 725 247 709T257 670Q256 648 242 632T210 616Z" />
<glyph unicode="&#xec;" glyph-name="igrave" horiz-adv-x="324" d="M133 511Q175 511 196 483T217 407Q217 377 212 339T198 256T185 168T179 81Q179 61 186 50T210 39Q227 39 247 61T283 136L311 130Q307 109 298 85T273 39T237 3T187 -11Q141 -11 119 13T97
83Q97 127 103 168T116 250T130 332T136 416Q136 429 131 445T108 461Q92 461 71 439T35 364L7 370Q10 388 19 411T43 458T81 496T133 511ZM214 579L111 686Q94 705 91 719T90 742T98 755Q101 758 110 761T133 760T160 731L238 599L214 579Z" />
<glyph unicode="&#xed;" glyph-name="iacute" horiz-adv-x="324" d="M133 511Q175 511 196 483T217 407Q217 377 212 339T198 256T185 168T179 81Q179 61 186 50T210 39Q227 39 247 61T283 136L311 130Q307 109 298 85T273 39T237 3T187 -11Q141 -11 119 13T97
83Q97 127 103 168T116 250T130 332T136 416Q136 429 131 445T108 461Q92 461 71 439T35 364L7 370Q10 388 19 411T43 458T81 496T133 511ZM133 579L109 599L187 731Q201 754 214 759T236 762T249 755Q253 751 256 742T257 719T236 686L133 579Z" />
<glyph unicode="&#xee;" glyph-name="icircumflex" horiz-adv-x="324" d="M133 511Q175 511 196 483T217 407Q217 377 212 339T198 256T185 168T179 81Q179 61 186 50T210 39Q227 39 247 61T283 136L311 130Q307 109 298 85T273 39T237 3T187 -11Q141 -11 119
13T97 83Q97 127 103 168T116 250T130 332T136 416Q136 429 131 445T108 461Q92 461 71 439T35 364L7 370Q10 388 19 411T43 458T81 496T133 511ZM171 776L297 615L271 589L161 702H159L33 593L11 619L169 776H171Z" />
<glyph unicode="&#xef;" glyph-name="idieresis" horiz-adv-x="324" d="M133 511Q175 511 196 483T217 407Q217 377 212 339T198 256T185 168T179 81Q179 61 186 50T210 39Q227 39 247 61T283 136L311 130Q307 109 298 85T273 39T237 3T187 -11Q141 -11 119 13T97
83Q97 127 103 168T116 250T130 332T136 416Q136 429 131 445T108 461Q92 461 71 439T35 364L7 370Q10 388 19 411T43 458T81 496T133 511ZM255 616Q236 616 223 632T211 670Q213 693 227 709T260 725Q280 725 292 709T302 670Q301 648 287 632T255 616ZM108 616Q89
616 76 632T64 670Q66 693 80 709T113 725Q133 725 145 709T155 670Q154 648 140 632T108 616Z" />
<glyph unicode="&#xf0;" glyph-name="eth" horiz-adv-x="516" d="M331 802L360 776L310 716Q362 682 394 626T442 499T457 348Q457 247 437 178T383 68T304 8T210 -11Q165 -11 127 14T64 88T40 209Q40 278 58 333T107 426T179 485T264 503Q296 502 323 491T372
454Q369 498 359 539T330 617T278 679L213 600L179 632L242 702Q217 713 187 719T119 725V758Q164 762 202 756T273 736L331 802ZM264 463Q234 463 202 436T148 354T126 220Q126 127 155 77T228 27Q263 27 288 48T330 106T357 185T371 271T376 352Q376 390 362
414T323 451T264 463Z" />
<glyph unicode="&#xf1;" glyph-name="ntilde" horiz-adv-x="615" d="M473 -11Q426 -11 409 14T392 85Q392 113 396 151T407 232T418 319T423 403Q423 415 420 429T406 453T376 464Q348 464 320 438T267 368T222 271T191 161T179 53Q179 38 179 26T181 0H97Q96
7 96 12T96 26Q96 43 98 65T104 125T116 226Q123 285 126 318T132 368T134 395T135 416Q135 434 130 447T108 461Q92 461 71 439T35 364L7 370Q10 388 19 411T45 458T84 496T137 511Q171 511 187 493T208 445T211 383Q209 355 205 329T196 283H199Q233 374 266
423T331 492T396 511Q436 511 460 493T494 446T505 381Q505 326 498 269T483 163T475 85Q475 67 479 53T502 39Q519 39 539 60T575 136L603 129Q600 112 591 88T565 42T526 4T473 -11ZM205 625L180 638Q194 673 226 696T286 721Q318 722 338 709T375 683T414 669Q437
668 455 681T490 720L514 708Q495 659 466 638T411 617Q380 617 359 630T320 657T278 670Q261 670 241 659T205 625Z" />
<glyph unicode="&#xf2;" glyph-name="ograve" horiz-adv-x="521" d="M286 511Q340 511 383 486T451 411T476 292Q476 212 447 143T364 31T231 -11Q165 -11 123 19T60 100T39 213Q39 294 68 362T153 470T286 511ZM271 474Q227 475 195 445T146 362T127 246Q126
212 131 174T148 103T183 49T240 27Q280 26 308 48T353 107T378 184T388 261Q389 296 385 333T367 402T331 453T271 474ZM332 579L229 686Q212 705 209 719T208 742T216 755Q219 758 228 761T251 760T278 731L356 599L332 579Z" />
<glyph unicode="&#xf3;" glyph-name="oacute" horiz-adv-x="521" d="M286 511Q340 511 383 486T451 411T476 292Q476 212 447 143T364 31T231 -11Q165 -11 123 19T60 100T39 213Q39 294 68 362T153 470T286 511ZM271 474Q227 475 195 445T146 362T127 246Q126
212 131 174T148 103T183 49T240 27Q280 26 308 48T353 107T378 184T388 261Q389 296 385 333T367 402T331 453T271 474ZM251 579L227 599L305 731Q319 754 332 759T354 762T367 755Q371 751 374 742T375 719T354 686L251 579Z" />
<glyph unicode="&#xf4;" glyph-name="ocircumflex" horiz-adv-x="521" d="M286 511Q340 511 383 486T451 411T476 292Q476 212 447 143T364 31T231 -11Q165 -11 123 19T60 100T39 213Q39 294 68 362T153 470T286 511ZM271 474Q227 475 195 445T146 362T127 246Q126
212 131 174T148 103T183 49T240 27Q280 26 308 48T353 107T378 184T388 261Q389 296 385 333T367 402T331 453T271 474ZM432 589L307 702H305L169 593L147 619L315 776H317L457 615L432 589Z" />
<glyph unicode="&#xf5;" glyph-name="otilde" horiz-adv-x="521" d="M286 511Q340 511 383 486T451 411T476 292Q476 212 447 143T364 31T231 -11Q165 -11 123 19T60 100T39 213Q39 294 68 362T153 470T286 511ZM271 474Q227 475 195 445T146 362T127 246Q126
212 131 174T148 103T183 49T240 27Q280 26 308 48T353 107T378 184T388 261Q389 296 385 333T367 402T331 453T271 474ZM159 625L134 638Q148 673 180 696T240 721Q272 722 292 709T329 683T368 669Q391 668 409 681T444 720L468 708Q449 659 420 638T365 617Q334
617 313 630T274 657T232 670Q215 670 195 659T159 625Z" />
<glyph unicode="&#xf6;" glyph-name="odieresis" horiz-adv-x="521" d="M286 511Q340 511 383 486T451 411T476 292Q476 212 447 143T364 31T231 -11Q165 -11 123 19T60 100T39 213Q39 294 68 362T153 470T286 511ZM271 474Q227 475 195 445T146 362T127 246Q126
212 131 174T148 103T183 49T240 27Q280 26 308 48T353 107T378 184T388 261Q389 296 385 333T367 402T331 453T271 474ZM373 616Q354 616 341 632T329 670Q331 693 345 709T378 725Q398 725 410 709T420 670Q419 648 405 632T373 616ZM226 616Q207 616 194 632T182
670Q184 693 198 709T231 725Q251 725 263 709T273 670Q272 648 258 632T226 616Z" />
<glyph unicode="&#xf7;" glyph-name="divide" horiz-adv-x="531" d="M267 256Q291 256 306 238T319 193Q318 166 300 148T259 130Q236 130 220 148T205 193Q207 219 225 237T267 256ZM284 588Q308 588 323 570T336 525Q335 498 317 480T276 462Q253 462 237 480T222
525Q224 551 242 569T284 588ZM49 390H495L493 340H47L49 390Z" />
<glyph unicode="&#xf8;" glyph-name="oslash" horiz-adv-x="521" d="M448 562L489 533L429 446Q451 418 463 380T476 292Q476 212 447 143T364 31T231 -11Q172 -11 129 15L66 -77L34 -52L97 41Q68 72 54 116T39 213Q39 294 68 362T153 470T286 511Q346 511 393
479L448 562ZM377 372L167 68Q180 49 198 38T240 27Q280 26 308 48T353 107T378 184T388 261Q389 288 387 316T377 372ZM271 474Q227 475 195 445T146 362T127 246Q126 214 130 179T145 112L355 424Q342 447 322 460T271 474Z" />
<glyph unicode="&#xf9;" glyph-name="ugrave" horiz-adv-x="593" d="M208 -11Q168 -11 144 7T110 55T99 119Q99 175 107 232T123 337T131 414Q131 433 127 447T104 461Q88 461 69 439T34 364L6 370Q9 388 18 411T42 458T80 496T133 511Q173 511 193 486T214 414Q214
386 209 345T198 260T186 173T181 99Q181 88 184 73T198 47T228 36Q256 36 283 62T334 132T377 229T406 339T417 447Q417 462 417 474T415 500H499Q500 493 500 488T500 474Q500 457 498 434T492 372T480 270Q473 212 470 179T464 130T462 104T461 84Q461 66 466
53T488 40Q505 40 525 61T561 136L589 130Q586 112 577 89T551 42T512 4T459 -11Q419 -11 401 14T382 79Q382 108 387 142T400 213H397Q363 122 332 74T271 7T208 -11ZM349 579L246 686Q229 705 226 719T225 742T233 755Q236 758 245 761T268 760T295 731L373 599L349
579Z" />
<glyph unicode="&#xfa;" glyph-name="uacute" horiz-adv-x="593" d="M208 -11Q168 -11 144 7T110 55T99 119Q99 175 107 232T123 337T131 414Q131 433 127 447T104 461Q88 461 69 439T34 364L6 370Q9 388 18 411T42 458T80 496T133 511Q173 511 193 486T214 414Q214
386 209 345T198 260T186 173T181 99Q181 88 184 73T198 47T228 36Q256 36 283 62T334 132T377 229T406 339T417 447Q417 462 417 474T415 500H499Q500 493 500 488T500 474Q500 457 498 434T492 372T480 270Q473 212 470 179T464 130T462 104T461 84Q461 66 466
53T488 40Q505 40 525 61T561 136L589 130Q586 112 577 89T551 42T512 4T459 -11Q419 -11 401 14T382 79Q382 108 387 142T400 213H397Q363 122 332 74T271 7T208 -11ZM268 579L244 599L322 731Q336 754 349 759T371 762T384 755Q388 751 391 742T392 719T371 686L268
579Z" />
<glyph unicode="&#xfb;" glyph-name="ucircumflex" horiz-adv-x="593" d="M208 -11Q168 -11 144 7T110 55T99 119Q99 175 107 232T123 337T131 414Q131 433 127 447T104 461Q88 461 69 439T34 364L6 370Q9 388 18 411T42 458T80 496T133 511Q173 511 193 486T214
414Q214 386 209 345T198 260T186 173T181 99Q181 88 184 73T198 47T228 36Q256 36 283 62T334 132T377 229T406 339T417 447Q417 462 417 474T415 500H499Q500 493 500 488T500 474Q500 457 498 434T492 372T480 270Q473 212 470 179T464 130T462 104T461 84Q461
66 466 53T488 40Q505 40 525 61T561 136L589 130Q586 112 577 89T551 42T512 4T459 -11Q419 -11 401 14T382 79Q382 108 387 142T400 213H397Q363 122 332 74T271 7T208 -11ZM449 589L324 702H322L186 593L164 619L332 776H334L474 615L449 589Z" />
<glyph unicode="&#xfc;" glyph-name="udieresis" horiz-adv-x="593" d="M208 -11Q168 -11 144 7T110 55T99 119Q99 175 107 232T123 337T131 414Q131 433 127 447T104 461Q88 461 69 439T34 364L6 370Q9 388 18 411T42 458T80 496T133 511Q173 511 193 486T214
414Q214 386 209 345T198 260T186 173T181 99Q181 88 184 73T198 47T228 36Q256 36 283 62T334 132T377 229T406 339T417 447Q417 462 417 474T415 500H499Q500 493 500 488T500 474Q500 457 498 434T492 372T480 270Q473 212 470 179T464 130T462 104T461 84Q461
66 466 53T488 40Q505 40 525 61T561 136L589 130Q586 112 577 89T551 42T512 4T459 -11Q419 -11 401 14T382 79Q382 108 387 142T400 213H397Q363 122 332 74T271 7T208 -11ZM390 616Q371 616 358 632T346 670Q348 693 362 709T395 725Q415 725 427 709T437 670Q436
648 422 632T390 616ZM243 616Q224 616 211 632T199 670Q201 693 215 709T248 725Q268 725 280 709T290 670Q289 648 275 632T243 616Z" />
<glyph unicode="&#xfd;" glyph-name="yacute" horiz-adv-x="514" d="M64 -271Q30 -269 9 -252T-12 -208Q-12 -185 2 -174T29 -162Q74 -162 72 -214Q78 -217 83 -219T94 -221Q116 -222 139 -205T184 -163T222 -113T247 -75Q238 -17 226 44T199 167T165 286T125
395Q118 412 107 430T76 446Q57 444 48 416T42 342L10 338Q7 365 9 395T22 451T51 494T101 511Q135 511 156 493T191 449T214 398Q233 347 251 281T282 147T303 19H305Q333 68 359 127T402 247T419 363Q419 388 415 407T404 434Q400 431 394 430T379 428Q361 428
350 439T339 467Q339 489 353 500T386 511Q417 511 434 492T458 444T466 383Q466 317 447 248T398 112T333 -17Q283 -107 238 -164T149 -246T64 -271ZM215 579L191 599L269 731Q283 754 296 759T318 762T331 755Q335 751 338 742T339 719T318 686L215 579Z" />
<glyph unicode="&#xfe;" glyph-name="thorn" horiz-adv-x="512" d="M196 755Q189 713 183 667T173 586Q169 542 165 496T155 401T145 299L148 298Q168 370 192 413T242 477T293 504T341 511Q387 511 414 485T454 417T466 326Q466 257 451 196T402 89T316 16T189
-11Q177 -11 162 -10T129 -7L123 -134Q122 -154 121 -177T115 -217Q131 -216 146 -216T178 -214V-255H-11V-225Q17 -225 29 -207T44 -157T50 -86Q57 18 63 104T74 269T86 433T101 619Q103 641 104 658T108 692Q90 691 72 690T36 688L40 728Q84 728 109 732T146
742T167 755H196ZM312 464Q284 463 257 436T208 364T168 265T140 154T129 47Q141 35 164 30T206 24Q250 25 280 43T331 93T362 162T377 241T380 318Q379 386 363 426T312 464Z" />
<glyph unicode="&#xff;" glyph-name="ydieresis" horiz-adv-x="514" d="M64 -271Q30 -269 9 -252T-12 -208Q-12 -185 2 -174T29 -162Q74 -162 72 -214Q78 -217 83 -219T94 -221Q116 -222 139 -205T184 -163T222 -113T247 -75Q238 -17 226 44T199 167T165 286T125
395Q118 412 107 430T76 446Q57 444 48 416T42 342L10 338Q7 365 9 395T22 451T51 494T101 511Q135 511 156 493T191 449T214 398Q233 347 251 281T282 147T303 19H305Q333 68 359 127T402 247T419 363Q419 388 415 407T404 434Q400 431 394 430T379 428Q361 428
350 439T339 467Q339 489 353 500T386 511Q417 511 434 492T458 444T466 383Q466 317 447 248T398 112T333 -17Q283 -107 238 -164T149 -246T64 -271ZM337 616Q318 616 305 632T293 670Q295 693 309 709T342 725Q362 725 374 709T384 670Q383 648 369 632T337 616ZM190
616Q171 616 158 632T146 670Q148 693 162 709T195 725Q215 725 227 709T237 670Q236 648 222 632T190 616Z" />
<glyph unicode="&#x2013;" glyph-name="endash" horiz-adv-x="583" d="M521 353L518 291L63 287L66 353H521Z" />
<glyph unicode="&#x2014;" glyph-name="emdash" horiz-adv-x="770" d="M708 353L705 291L63 287L66 353H708Z" />
<glyph unicode="&#x2018;" glyph-name="quoteleft" horiz-adv-x="211" d="M130 480Q100 480 83 502T66 558Q66 583 75 618T102 689T148 757L173 737Q156 717 144 690T124 634T117 578Q122 580 128 581T142 582Q161 582 173 568T186 536Q186 509 170 495T130 480Z" />
<glyph unicode="&#x2019;" glyph-name="quoteright" horiz-adv-x="196" d="M117 760Q147 760 164 738T181 682Q181 657 172 623T145 551T99 483L74 503Q91 523 103 550T123 606T130 662Q125 661 119 660T105 658Q86 658 74 672T61 704Q61 731 77 745T117 760Z" />
<glyph unicode="&#x201a;" glyph-name="quotesinglbase" horiz-adv-x="237" d="M99 98Q129 98 146 76T163 20Q163 -5 154 -39T127 -111T81 -179L56 -159Q73 -139 85 -112T105 -56T112 0Q107 -1 101 -2T87 -4Q68 -4 56 10T43 42Q43 69 59 83T99 98Z" />
<glyph unicode="&#x201c;" glyph-name="quotedblleft" horiz-adv-x="388" d="M130 480Q100 480 83 502T66 558Q66 583 75 618T102 689T148 757L173 737Q156 717 144 690T124 634T117 578Q122 580 128 581T142 582Q161 582 173 568T186 536Q186 509 170 495T130
480ZM306 480Q276 480 259 502T242 558Q242 583 251 618T278 689T324 757L349 737Q332 717 320 690T300 634T293 578Q298 580 304 581T318 582Q337 582 349 568T362 536Q362 509 346 495T306 480Z" />
<glyph unicode="&#x201d;" glyph-name="quotedblright" horiz-adv-x="372" d="M117 760Q147 760 164 738T181 682Q181 657 172 623T145 551T99 483L74 503Q91 523 103 550T123 606T130 662Q125 661 119 660T105 658Q86 658 74 672T61 704Q61 731 77 745T117 760ZM293
760Q323 760 340 738T357 682Q357 657 348 623T321 551T275 483L250 503Q267 523 279 550T299 606T306 662Q301 661 295 660T281 658Q262 658 250 672T237 704Q237 731 253 745T293 760Z" />
<glyph unicode="&#x201e;" glyph-name="quotedblbase" horiz-adv-x="413" d="M99 98Q129 98 146 76T163 20Q163 -5 154 -39T127 -111T81 -179L56 -159Q73 -139 85 -112T105 -56T112 0Q107 -1 101 -2T87 -4Q68 -4 56 10T43 42Q43 69 59 83T99 98ZM275 98Q305 98
322 76T339 20Q339 -5 330 -39T303 -111T257 -179L232 -159Q249 -139 261 -112T281 -56T288 0Q283 -1 277 -2T263 -4Q244 -4 232 10T219 42Q219 69 235 83T275 98Z" />
<glyph unicode="&#x2022;" glyph-name="bullet" horiz-adv-x="389" d="M206 522Q248 522 281 503T333 450T350 374Q348 333 326 299T268 246T191 226Q150 226 117 245T65 299T49 374Q51 416 73 449T130 502T206 522Z" />
<glyph unicode="&#x2039;" glyph-name="guilsinglleft" horiz-adv-x="369" d="M277 -7L25 264V268L319 549L343 522L124 264V262L306 19L277 -7Z" />
<glyph unicode="&#x203a;" glyph-name="guilsinglright" horiz-adv-x="369" d="M45 -7L21 20L240 278V280L58 523L87 549L339 278V274L45 -7Z" />
</font>
</defs>
</svg>
