<?xml version="1.0" standalone="no"?>
<!DOCTYPE svg PUBLIC "-//W3C//DTD SVG 1.1//EN" "http://www.w3.org/Graphics/SVG/1.1/DTD/svg11.dtd">
<svg xmlns="http://www.w3.org/2000/svg">
<defs >
<font id="NunitoSans" horiz-adv-x="598" ><font-face
    font-family="Nunito Sans"
    units-per-em="1000"
    panose-1="0 0 0 0 0 0 0 0 0 0"
    ascent="1011"
    descent="-353"
    alphabetic="0" />
<glyph unicode=" " glyph-name="space" horiz-adv-x="270" />
<glyph unicode="!" glyph-name="exclam" horiz-adv-x="248" d="M81 213L120 705H274L157 213H81ZM16 0L38 139H178L156 0H16Z" />
<glyph unicode="&quot;" glyph-name="quotedbl" horiz-adv-x="447" d="M107 415L122 705H267L191 415H107ZM312 415L327 705H472L396 415H312Z" />
<glyph unicode="#" glyph-name="numbersign" horiz-adv-x="600" d="M42 0L103 172H33L45 252H132L206 461H100L112 542H234L292 705H378L320 542H447L505 705H592L534 542H603L591 461H505L431 252H536L524 172H403L341 0H255L316 172H190L129 0H42ZM218 252H345L419
461H292L218 252Z" />
<glyph unicode="$" glyph-name="dollar" horiz-adv-x="600" d="M203 -115L220 -3Q160 3 107 22T10 78L55 177Q111 136 169 119T290 102Q352 102 392 126T432 196Q432 231 409 252T330 288L232 313Q160 332 118 376T76 495Q76 562 110 609T203 682T333 711L351
820H451L431 703Q475 694 517 675T593 624L547 531Q503 571 452 587T351 603Q283 603 243 578T203 507Q203 468 224 448T286 417L384 392Q559 346 559 209Q559 144 527 99T440 28T320 -4L303 -115H203Z" />
<glyph unicode="%" glyph-name="percent" horiz-adv-x="945" d="M269 -31L195 22L710 733L784 680L269 -31ZM240 281Q164 281 122 325T80 446Q80 520 103 580T172 676T282 712Q359 712 400 667T442 546Q442 471 419 411T350 316T240 281ZM240 361Q273 361 295
387T328 456T341 545Q343 592 327 611T282 631Q249 631 227 605T194 537T181 447Q180 401 196 381T240 361ZM697 -10Q620 -10 579 35T537 155Q537 229 560 289T629 385T738 421Q815 421 856 376T898 255Q898 180 875 120T807 25T697 -10ZM696 71Q730 71 752 97T785
165T798 255Q799 302 783 321T739 341Q706 341 684 315T650 246T637 157Q636 111 652 91T696 71Z" />
<glyph unicode="&amp;" glyph-name="ampersand" horiz-adv-x="726" d="M265 -10Q163 -10 104 35T45 155Q45 208 69 250T133 327T223 389L229 392Q203 426 191 459T179 523Q179 579 207 622T283 690T395 715Q467 715 511 677T556 576Q556 530 533 494T473 428T392
373L505 228Q532 268 551 318T582 423H686Q673 347 643 278T571 155L700 0H554L493 77Q446 36 389 13T265 -10ZM388 626Q345 626 320 601T295 533Q295 511 303 492T334 443Q393 471 422 502T451 572Q451 626 388 626ZM284 89Q328 89 364 103T431 146L290 322L289
321Q259 304 232 284T187 237T170 173Q170 133 199 111T284 89Z" />
<glyph unicode="&apos;" glyph-name="quotesingle" horiz-adv-x="242" d="M107 415L122 705H267L191 415H107Z" />
<glyph unicode="(" glyph-name="parenleft" horiz-adv-x="357" d="M166 -195Q131 -114 114 -29T96 139Q96 251 123 357T198 556T308 721L393 681Q317 548 274 408T230 98Q230 37 236 -25T254 -161L166 -195Z" />
<glyph unicode=")" glyph-name="parenright" horiz-adv-x="357" d="M55 -195L-30 -155Q47 -21 90 119T134 428Q134 490 128 551T109 687L197 721Q233 640 250 555T268 387Q268 275 241 169T166 -29T55 -195Z" />
<glyph unicode="*" glyph-name="asterisk" horiz-adv-x="452" d="M210 338L134 382L206 492L76 485V572L207 564L135 675L211 719L272 593L332 719L408 674L336 564L467 572V485L336 492L408 382L332 338L271 465L210 338Z" />
<glyph unicode="+" glyph-name="plus" horiz-adv-x="600" d="M222 40L254 243H56L70 331H268L299 528H390L359 331H558L544 243H345L313 40H222Z" />
<glyph unicode="," glyph-name="comma" horiz-adv-x="248" d="M60 -133L16 -85Q42 -61 56 -42T79 0H15L37 139H177L161 36Q153 -15 132 -53T60 -133Z" />
<glyph unicode="-" glyph-name="hyphen" horiz-adv-x="434" d="M64 218L80 317H378L362 218H64Z" />
<glyph unicode="." glyph-name="period" horiz-adv-x="248" d="M15 0L37 139H177L155 0H15Z" />
<glyph unicode="/" glyph-name="slash" horiz-adv-x="313" d="M23 -73L-63 -33L319 761L406 721L23 -73Z" />
<glyph unicode="0" glyph-name="zero" horiz-adv-x="600" d="M288 -10Q175 -10 116 58T56 256Q56 398 91 500T192 659T347 715Q460 715 519 647T579 451Q579 309 544 206T443 46T288 -10ZM294 95Q365 95 409 189T455 470Q456 610 341 610Q271 610 226 516T180
236Q180 95 294 95Z" />
<glyph unicode="1" glyph-name="one" horiz-adv-x="600" d="M70 0L87 106H246L317 551L189 481L149 579L378 705H469L374 106H523L506 0H70Z" />
<glyph unicode="2" glyph-name="two" horiz-adv-x="600" d="M45 0L60 95L320 336Q373 385 404 428T436 521Q436 562 408 584T330 607Q284 607 239 589T149 535L110 632Q162 672 224 693T355 715Q418 715 465 693T537 631T563 541Q563 483 542 436T484 347T399
263L224 106H526L509 0H45Z" />
<glyph unicode="3" glyph-name="three" horiz-adv-x="600" d="M276 -10Q209 -10 140 9T24 74L75 166Q122 127 171 113T276 98Q332 98 370 128T408 213Q408 255 380 279T295 303H186L202 409H303Q362 409 401 438T441 520Q441 561 412 584T334 607Q285 607 236
590T143 536L103 632Q154 673 220 694T351 715Q422 715 469 691T541 626T565 539Q566 473 526 426T423 361Q476 343 504 302T532 205Q532 146 501 97T412 19T276 -10Z" />
<glyph unicode="4" glyph-name="four" horiz-adv-x="600" d="M311 0L332 134H24L38 228L443 705H549L475 240H572L557 134H460L439 0H311ZM348 240L392 514L162 240H348Z" />
<glyph unicode="5" glyph-name="five" horiz-adv-x="600" d="M282 -10Q221 -10 157 9T47 74L98 166Q144 127 188 113T282 98Q347 98 389 136T432 235Q432 285 401 314T319 343Q277 343 241 326T173 276H87L156 705H588L572 599H264L233 408Q292 448 363 448Q420
448 463 424T531 354T556 247Q556 168 519 111T419 22T282 -10Z" />
<glyph unicode="6" glyph-name="six" horiz-adv-x="600" d="M310 -10Q195 -10 130 62T64 258Q64 396 104 498T220 658T403 715Q462 715 515 694T609 630L557 539Q521 574 481 590T396 607Q309 607 255 540T189 350Q214 398 263 425T367 452Q423 452 465 425T532
353T556 251Q556 177 525 118T438 24T310 -10ZM305 92Q364 92 400 134T437 240Q437 289 406 319T326 350Q267 350 231 308T194 202Q194 153 225 123T305 92Z" />
<glyph unicode="7" glyph-name="seven" horiz-adv-x="600" d="M47 0L455 598H110L127 705H618L603 609L192 0H47Z" />
<glyph unicode="8" glyph-name="eight" horiz-adv-x="600" d="M270 -10Q159 -10 93 38T27 170Q27 241 68 294T175 364Q137 383 116 420T95 507Q95 574 130 620T225 690T361 714Q463 714 524 668T586 543Q586 481 550 431T458 360Q502 343 528 304T554 209Q554
138 517 89T416 15T270 -10ZM325 407Q389 407 428 439T467 526Q467 569 438 591T356 614Q289 614 252 583T214 496Q214 453 243 430T325 407ZM276 90Q349 90 392 122T435 215Q435 261 400 284T306 307Q233 307 190 276T146 184Q146 138 181 114T276 90Z" />
<glyph unicode="9" glyph-name="nine" horiz-adv-x="600" d="M241 -10Q183 -10 125 12T26 75L77 167Q152 98 242 98Q325 98 379 166T446 356Q421 307 371 280T267 253Q211 253 169 280T102 353T78 455Q78 530 110 588T197 681T325 715Q441 715 505 644T570 448Q570
352 550 269T488 124T385 26T241 -10ZM308 355Q367 355 403 397T440 503Q440 553 409 583T330 614Q271 614 235 572T198 466Q198 417 229 386T308 355Z" />
<glyph unicode=":" glyph-name="colon" horiz-adv-x="248" d="M71 351L93 489H233L211 351H71ZM16 0L38 139H178L156 0H16Z" />
<glyph unicode=";" glyph-name="semicolon" horiz-adv-x="248" d="M71 351L93 489H233L211 351H71ZM60 -133L16 -85Q42 -61 56 -42T79 0H15L37 139H177L161 36Q153 -15 132 -53T60 -133Z" />
<glyph unicode="&lt;" glyph-name="less" horiz-adv-x="600" d="M510 33L55 240L70 335L591 542L575 440L173 282L525 124L510 33Z" />
<glyph unicode="=" glyph-name="equal" horiz-adv-x="600" d="M71 343L85 431H573L559 343H71ZM40 144L54 231H542L528 144H40Z" />
<glyph unicode="&gt;" glyph-name="greater" horiz-adv-x="600" d="M22 33L38 134L439 292L88 450L103 542L558 335L543 240L22 33Z" />
<glyph unicode="?" glyph-name="question" horiz-adv-x="459" d="M178 209L184 250Q189 283 198 309T227 362T285 421Q301 435 319 452T351 490T364 540Q364 569 345 588T282 607Q189 607 103 536L63 630Q115 674 179 694T307 715Q365 715 406 694T469 638T491
560Q491 496 454 450T369 371Q332 344 311 322T280 280T262 236L253 209H178ZM113 0L135 139H274L252 0H113Z" />
<glyph unicode="@" glyph-name="at" horiz-adv-x="950" d="M496 -165Q368 -165 271 -111T119 40T64 268Q64 369 96 451T188 592T330 683T513 715Q631 715 719 669T857 539T906 342Q906 255 882 192T814 94T712 59Q663 59 631 81T588 145Q561 102 523 81T442 59Q362
59 318 109T274 246Q274 319 301 376T377 466T488 499Q577 499 610 428L621 489H714L672 248Q666 215 666 194Q666 133 718 133Q767 133 797 190T828 342Q828 435 790 501T681 602T512 638Q403 638 322 593T196 464T151 268Q151 157 193 77T313 -45T496 -88Q648
-88 739 -5L779 -71Q731 -116 658 -140T496 -165ZM460 138Q517 138 553 189T590 322Q590 419 504 419Q446 419 409 371T372 247Q372 194 395 166T460 138Z" />
<glyph unicode="A" glyph-name="A" horiz-adv-x="744" d="M-38 0L394 705H499L705 0H582L539 163H194L98 0H-38ZM430 566L253 265H511L432 566H430Z" />
<glyph unicode="B" glyph-name="B" horiz-adv-x="688" d="M38 0L150 705H440Q557 705 609 659T662 538Q662 470 624 424T521 359Q572 341 600 302T628 210Q628 107 560 54T372 0H38ZM226 406H397Q464 406 501 436T538 523Q538 564 510 586T420 608H258L226 406ZM176
97H366Q435 97 469 128T504 217Q504 263 474 286T385 309H210L176 97Z" />
<glyph unicode="C" glyph-name="C" horiz-adv-x="679" d="M392 -10Q299 -10 227 25T113 132T71 310Q71 396 96 469T170 598T290 684T451 715Q524 715 586 692T685 631L633 529Q554 601 448 601Q371 601 317 564T235 461T207 314Q207 203 258 154T406 104Q453 104
498 120T590 172L627 71Q583 32 520 11T392 -10Z" />
<glyph unicode="D" glyph-name="D" horiz-adv-x="762" d="M38 0L150 705H376Q544 705 635 626T727 404Q727 291 683 199T549 54T323 0H38ZM183 106H325Q419 106 478 145T565 251T593 402Q593 498 539 548T376 599H261L183 106Z" />
<glyph unicode="E" glyph-name="E" horiz-adv-x="597" d="M39 0L150 705H619L603 603H257L226 409H551L535 307H210L177 102H523L507 0H39Z" />
<glyph unicode="F" glyph-name="F" horiz-adv-x="562" d="M39 0L150 705H612L596 603H263L231 404H543L527 302H215L167 0H39Z" />
<glyph unicode="G" glyph-name="G" horiz-adv-x="736" d="M398 -10Q300 -10 226 26T111 132T70 303Q70 423 116 516T249 662T460 715Q539 715 601 693T699 634L647 533Q565 603 453 603Q374 603 319 565T234 460T204 308Q204 202 259 151T416 100Q449 100 479
105T540 119L567 286H405L419 381H688L634 36Q586 14 523 2T398 -10Z" />
<glyph unicode="H" glyph-name="H" horiz-adv-x="773" d="M38 0L150 705H278L231 411H594L641 705H769L657 0H529L577 304H214L166 0H38Z" />
<glyph unicode="I" glyph-name="I" horiz-adv-x="282" d="M38 0L150 705H278L166 0H38Z" />
<glyph unicode="J" glyph-name="J" horiz-adv-x="354" d="M-38 -9L-36 96L36 100Q83 103 109 129T143 207L222 705H350L269 196Q254 102 204 52T44 -5L-38 -9Z" />
<glyph unicode="K" glyph-name="K" horiz-adv-x="664" d="M38 0L150 705H278L228 393H230L585 705H748L352 357L653 0H505L220 329H218L166 0H38Z" />
<glyph unicode="L" glyph-name="L" horiz-adv-x="562" d="M38 0L150 705H278L184 109H521L504 0H38Z" />
<glyph unicode="M" glyph-name="M" horiz-adv-x="868" d="M40 0L152 705H254L429 241L752 705H862L750 0H634L709 476L451 107H377L232 475L156 0H40Z" />
<glyph unicode="N" glyph-name="N" horiz-adv-x="747" d="M38 0L150 705H246L544 199L624 705H743L631 0H536L237 506L157 0H38Z" />
<glyph unicode="O" glyph-name="O" horiz-adv-x="785" d="M381 -10Q287 -10 217 26T109 131T70 299Q70 420 114 513T242 661T439 715Q534 715 603 679T711 574T750 407Q750 286 706 192T579 44T381 -10ZM383 100Q458 100 510 139T589 248T616 405Q616 506 568
555T436 605Q362 605 310 566T231 459T204 301Q204 199 252 150T383 100Z" />
<glyph unicode="P" glyph-name="P" horiz-adv-x="652" d="M38 0L150 705H424Q541 705 602 655T663 509Q663 394 592 329T386 264H208L166 0H38ZM224 365H392Q464 365 501 399T539 499Q539 604 409 604H262L224 365Z" />
<glyph unicode="Q" glyph-name="Q" horiz-adv-x="785" d="M538 -213L468 -63Q455 -35 432 -23T367 -10H368Q277 -7 211 30T107 135T70 299Q70 420 114 513T242 661T439 715Q534 715 603 679T711 574T750 407Q750 269 692 166T529 18Q567 2 589 -45L648 -172L538
-213ZM383 100Q458 100 510 139T589 248T616 405Q616 506 568 555T436 605Q362 605 310 566T231 459T204 301Q204 199 252 150T383 100Z" />
<glyph unicode="R" glyph-name="R" horiz-adv-x="686" d="M38 0L150 705H425Q542 705 602 653T663 510Q663 414 610 360T471 291Q497 280 515 257T547 200L624 0H493L411 216Q398 252 376 267T314 282H211L167 0H38ZM226 377H396Q464 377 501 408T539 500Q539
552 507 578T406 604H262L226 377Z" />
<glyph unicode="S" glyph-name="S" horiz-adv-x="631" d="M300 -10Q223 -10 151 10T23 75L69 172Q127 131 188 115T312 98Q382 98 422 125T463 196Q463 229 439 251T357 287L248 313Q175 330 132 374T89 493Q89 563 127 612T230 688T369 715Q435 715 502 695T620
631L572 537Q527 575 473 591T367 607Q300 607 258 579T216 504Q216 466 238 446T303 415L412 389Q501 369 545 323T590 211Q590 138 550 89T444 15T300 -10Z" />
<glyph unicode="T" glyph-name="T" horiz-adv-x="621" d="M208 0L303 598H61L78 705H690L673 598H431L336 0H208Z" />
<glyph unicode="U" glyph-name="U" horiz-adv-x="737" d="M342 -10Q252 -10 187 25T94 130T82 307L145 705H273L209 298Q194 201 229 151T351 100Q433 100 480 142T542 277L610 705H737L670 279Q648 137 570 64T342 -10Z" />
<glyph unicode="V" glyph-name="V" horiz-adv-x="713" d="M264 0L62 705H190L336 164L655 705H797L371 0H264Z" />
<glyph unicode="W" glyph-name="W" horiz-adv-x="1113" d="M232 0L94 705H219L313 185L578 705H674L769 180L1033 705H1165L803 0H697L599 508L338 0H232Z" />
<glyph unicode="X" glyph-name="X" horiz-adv-x="672" d="M-45 0L279 364L77 705H217L365 445L586 705H743L431 353L640 0H498L342 270L112 0H-45Z" />
<glyph unicode="Y" glyph-name="Y" horiz-adv-x="618" d="M206 0L258 323L47 705H187L332 437L563 705H716L386 325L334 0H206Z" />
<glyph unicode="Z" glyph-name="Z" horiz-adv-x="605" d="M8 0L23 95L467 598H103L120 705H642L627 611L183 107H563L546 0H8Z" />
<glyph unicode="[" glyph-name="bracketleft" horiz-adv-x="354" d="M39 -180L179 705H415L400 611H289L179 -86H290L275 -180H39Z" />
<glyph unicode="\" glyph-name="backslash" horiz-adv-x="313" d="M192 -73L58 742L152 761L287 -53L192 -73Z" />
<glyph unicode="]" glyph-name="bracketright" horiz-adv-x="354" d="M-56 -180L-41 -86H71L181 611H70L85 705H321L181 -180H-56Z" />
<glyph unicode="^" glyph-name="asciicircum" horiz-adv-x="600" d="M30 140L314 628H408L538 140H446L347 517L130 140H30Z" />
<glyph unicode="_" glyph-name="underscore" horiz-adv-x="500" d="M-30 -75L-18 0H441L429 -75H-30Z" />
<glyph unicode="`" glyph-name="grave" horiz-adv-x="500" d="M256 554L115 757H236L340 554H256Z" />
<glyph unicode="a" glyph-name="a" horiz-adv-x="547" d="M193 -10Q148 -10 111 10T52 65T29 141Q29 218 95 254T304 290H373L376 308Q384 355 362 380T283 405Q194 405 115 355L87 441Q125 467 183 483T299 499Q378 499 423 470T484 391T490 277L446 0H329L340
72Q315 30 276 10T193 -10ZM232 76Q279 76 314 106T357 189L362 218H310Q222 218 187 204T151 149Q151 114 174 95T232 76Z" />
<glyph unicode="b" glyph-name="b" horiz-adv-x="600" d="M318 -10Q264 -10 223 14T161 87L148 0H26L138 705H263L217 418Q245 456 286 477T379 499Q463 499 513 443T564 288Q564 205 535 138T450 30T318 -10ZM295 85Q341 85 372 111T421 182T438 282Q438 341
410 372T331 404Q286 404 254 378T205 308T188 207Q188 148 216 117T295 85Z" />
<glyph unicode="c" glyph-name="c" horiz-adv-x="472" d="M270 -10Q153 -10 95 51T37 213Q37 267 53 318T104 410T190 475T314 499Q363 499 408 485T481 445L442 358Q395 402 322 402Q265 402 231 374T181 303T165 214Q165 157 193 122T288 87Q316 87 347 98T405
131L434 42Q406 17 360 4T270 -10Z" />
<glyph unicode="d" glyph-name="d" horiz-adv-x="600" d="M220 -10Q137 -10 87 47T36 201Q36 285 65 352T150 459T281 499Q334 499 375 476T436 405L483 705H608L496 0H374L387 79Q359 37 317 14T220 -10ZM269 85Q315 85 346 111T395 182T412 282Q412 341 384
372T305 404Q260 404 228 378T179 308T162 207Q162 148 190 117T269 85Z" />
<glyph unicode="e" glyph-name="e" horiz-adv-x="543" d="M280 -10Q206 -10 152 17T67 95T37 212Q37 294 71 358T167 461T307 499Q387 499 434 464T498 370T508 242L505 216H154Q152 155 188 120T291 85Q335 85 374 97T445 135L476 53Q441 23 389 7T280 -10ZM306
414Q264 414 235 397T189 350T164 288H412Q416 342 391 378T306 414Z" />
<glyph unicode="f" glyph-name="f" horiz-adv-x="364" d="M60 0L123 395H29L44 489H137L141 513Q155 600 211 651T382 707L441 710L439 618L387 615Q331 611 303 588T266 515L262 489H393L378 395H248L185 0H60Z" />
<glyph unicode="g" glyph-name="g" horiz-adv-x="604" d="M256 -190Q184 -190 125 -172T19 -122L57 -35Q101 -63 144 -79T238 -95Q298 -95 335 -68T382 19L393 91Q367 53 325 33T233 12Q145 12 91 65T37 213Q37 290 67 355T154 459T286 499Q339 499 380 476T442
407L455 489H577L504 26Q488 -79 426 -134T256 -190ZM271 107Q318 107 350 132T400 200T418 292Q419 344 390 374T308 404Q262 404 230 379T181 311T163 220Q162 167 190 137T271 107Z" />
<glyph unicode="h" glyph-name="h" horiz-adv-x="585" d="M26 0L138 705H263L217 417Q272 499 383 499Q463 499 505 450T530 293L484 0H359L405 291Q423 401 333 401Q274 401 239 364T193 263L151 0H26Z" />
<glyph unicode="i" glyph-name="i" horiz-adv-x="255" d="M114 594L134 716H273L253 594H114ZM26 0L104 489H229L151 0H26Z" />
<glyph unicode="j" glyph-name="j" horiz-adv-x="259" d="M116 594L136 716H275L255 594H116ZM-101 -193L-109 -102L-62 -97Q-21 -94 0 -72T29 -7L108 489H233L156 7Q141 -92 93 -137T-56 -190L-101 -193Z" />
<glyph unicode="k" glyph-name="k" horiz-adv-x="536" d="M27 0L138 705H263L196 281H198L425 489H574L319 249L516 0H371L189 223H187L152 0H27Z" />
<glyph unicode="l" glyph-name="l" horiz-adv-x="319" d="M199 -10Q114 -10 77 37T54 176L138 705H263L179 177Q172 133 187 113T241 92Q252 92 263 93T285 96L268 -1Q238 -10 199 -10Z" />
<glyph unicode="m" glyph-name="m" horiz-adv-x="877" d="M28 0L106 489H228L215 412Q244 456 285 477T372 499Q476 499 507 403Q561 499 679 499Q756 499 796 450T820 293L774 0H649L695 294Q712 401 630 401Q580 401 548 365T505 263L463 0H338L385 294Q402
401 320 401Q271 401 239 365T195 263L153 0H28Z" />
<glyph unicode="n" glyph-name="n" horiz-adv-x="585" d="M26 0L104 489H226L213 411Q268 499 383 499Q463 499 505 450T530 293L484 0H359L405 291Q423 401 333 401Q274 401 239 364T193 263L151 0H26Z" />
<glyph unicode="o" glyph-name="o" horiz-adv-x="576" d="M267 -10Q159 -10 98 50T37 211Q37 299 73 363T172 463T309 499Q417 499 478 439T539 278Q539 190 503 126T405 26T267 -10ZM270 85Q316 85 347 111T396 182T413 282Q413 341 385 372T306 404Q261 404
229 378T180 308T163 207Q163 148 191 117T270 85Z" />
<glyph unicode="p" glyph-name="p" horiz-adv-x="600" d="M-2 -180L104 489H226L215 414Q242 454 284 476T379 499Q463 499 513 443T564 288Q564 205 535 138T450 30T318 -10Q266 -10 225 12T164 80L123 -180H-2ZM295 85Q341 85 372 111T421 182T438 282Q438 341
410 372T331 404Q286 404 254 378T205 308T188 207Q188 148 216 117T295 85Z" />
<glyph unicode="q" glyph-name="q" horiz-adv-x="600" d="M343 -180L383 73Q355 34 314 12T220 -10Q137 -10 87 47T36 201Q36 285 65 352T150 459T281 499Q335 499 377 474T438 400L452 489H574L468 -180H343ZM269 85Q315 85 346 111T395 182T412 282Q412 341
384 372T305 404Q260 404 228 378T179 308T162 207Q162 148 190 117T269 85Z" />
<glyph unicode="r" glyph-name="r" horiz-adv-x="392" d="M26 0L104 489H226L213 407Q235 447 275 471T371 499L414 502L411 396L330 388Q263 382 233 349T193 254L153 0H26Z" />
<glyph unicode="s" glyph-name="s" horiz-adv-x="488" d="M226 -10Q164 -10 110 5T18 49L57 130Q93 105 137 92T226 78Q273 78 298 95T323 142Q323 181 269 193L177 212Q122 223 91 255T60 337Q60 382 85 418T160 477T280 499Q328 499 376 485T458 442L421 362Q390
387 352 399T274 411Q225 411 199 393T173 344Q173 326 184 313T221 295L313 276Q436 250 436 151Q436 74 379 32T226 -10Z" />
<glyph unicode="t" glyph-name="t" horiz-adv-x="384" d="M258 -10Q160 -10 116 43T85 182L119 395H25L40 489H134L157 635H282L259 489H407L392 395H244L211 190Q203 138 223 116T287 93Q302 93 316 96T343 103L350 9Q334 0 308 -5T258 -10Z" />
<glyph unicode="u" glyph-name="u" horiz-adv-x="579" d="M200 -10Q121 -10 80 40T55 197L101 489H226L180 198Q162 89 250 89Q306 89 341 126T386 227L427 489H552L475 0H353L365 77Q338 35 296 13T200 -10Z" />
<glyph unicode="v" glyph-name="v" horiz-adv-x="527" d="M170 0L36 489H163L245 147L440 489H570L279 0H170Z" />
<glyph unicode="w" glyph-name="w" horiz-adv-x="853" d="M161 0L46 489H166L236 148L416 489H504L575 141L757 489H885L615 0H506L437 315L269 0H161Z" />
<glyph unicode="x" glyph-name="x" horiz-adv-x="546" d="M-42 0L203 254L49 489H189L287 332L428 489H577L349 247L512 0H372L265 166L107 0H-42Z" />
<glyph unicode="y" glyph-name="y" horiz-adv-x="526" d="M42 -180L164 20L35 489H161L244 147L439 489H570L170 -180H42Z" />
<glyph unicode="z" glyph-name="z" horiz-adv-x="474" d="M11 0L24 81L317 395H73L88 489H476L463 409L168 94H424L409 0H11Z" />
<glyph unicode="{" glyph-name="braceleft" horiz-adv-x="391" d="M221 -180Q150 -180 119 -146T95 -59L126 135Q132 175 123 192T76 213L40 217L54 308L91 312Q127 315 143 332T166 389L197 584Q207 646 240 675T328 705H452L436 611H369Q350 611 337 602T319
567L289 375Q282 327 253 299T193 264Q221 256 240 227T253 150L223 -42Q219 -67 228 -76T257 -86H326L311 -180H221Z" />
<glyph unicode="|" glyph-name="bar" horiz-adv-x="289" d="M15 -180L155 705H280L140 -180H15Z" />
<glyph unicode="}" glyph-name="braceright" horiz-adv-x="391" d="M-55 -180L-40 -86H28Q48 -86 61 -77T78 -42L108 150Q115 198 144 227T204 262Q176 269 157 298T144 376L174 567Q178 592 169 601T140 611H70L85 705H176Q247 705 278 671T302 584L271 390Q265
351 274 333T321 312L357 309L343 217L306 214Q270 211 254 193T231 136L200 -59Q190 -120 157 -150T69 -180H-55Z" />
<glyph unicode="~" glyph-name="asciitilde" horiz-adv-x="600" d="M418 209Q385 209 353 222T293 249Q268 263 246 272T204 282Q176 282 156 266T120 220L59 263Q84 312 117 339T195 366Q228 366 261 353T322 325Q347 312 368 303T409 293Q437 293 457 309T494
355L555 311Q530 263 497 236T418 209Z" />
<glyph unicode="&#xa0;" glyph-name="uni00A0" horiz-adv-x="270" />
<glyph unicode="&#xa1;" glyph-name="exclamdown" horiz-adv-x="248" d="M71 351L93 489H233L211 351H71ZM-21 -180L91 277H167L134 -180H-21Z" />
<glyph unicode="&#xa2;" glyph-name="cent" horiz-adv-x="600" d="M206 -115L225 9Q153 29 118 83T82 213Q82 276 105 334T177 434T302 489L321 609H421L402 493Q485 484 534 440L496 353Q448 398 370 398Q312 398 277 371T226 301T210 214Q210 162 239 128T337
93Q368 93 399 104T458 137L487 48Q460 24 413 10T323 -4L306 -115H206Z" />
<glyph unicode="&#xa3;" glyph-name="sterling" horiz-adv-x="600" d="M6 0L22 105H105L138 310H54L68 398H152L168 497Q185 606 246 660T423 715Q485 715 541 693T632 638L579 549Q545 583 508 597T429 612Q371 612 338 584T296 502L280 398H446L432 310H266L233
105H540L523 0H6Z" />
<glyph unicode="&#xa4;" glyph-name="currency" horiz-adv-x="600" d="M83 -30L32 22L105 97Q83 128 71 166T58 245Q58 287 70 325T105 394L32 469L83 520L157 445Q187 468 223 480T300 493Q340 493 376 481T442 446L515 522L569 467L495 392Q541 328 541 245Q541
204 529 167T494 97L568 22L517 -29L444 46Q414 23 378 10T300 -3Q260 -3 223 10T156 45L83 -30ZM300 98Q338 98 369 118T419 171T438 245Q438 286 420 319T370 373T300 393Q262 393 230 373T180 320T161 245Q161 205 179 172T229 118T300 98Z" />
<glyph unicode="&#xa5;" glyph-name="yen" horiz-adv-x="600" d="M197 0L222 159H54L68 247H237L247 315H79L93 403H219L57 705H190L325 442L543 705H689L433 403H557L543 315H375L365 247H532L518 159H350L325 0H197Z" />
<glyph unicode="&#xa6;" glyph-name="brokenbar" horiz-adv-x="289" d="M102 372L155 705H280L227 372H102ZM15 -180L68 154H193L140 -180H15Z" />
<glyph unicode="&#xa7;" glyph-name="section" horiz-adv-x="569" d="M222 -190Q92 -190 -1 -123L42 -42Q75 -70 122 -86T218 -102Q271 -102 303 -76T335 -7Q335 25 321 44T272 82L158 146Q47 210 47 302Q47 398 134 455Q121 484 121 520Q121 581 153 624T238
691T354 715Q410 715 462 700T557 651L520 571Q488 597 443 612T357 627Q304 627 273 601T241 531Q241 500 255 481T304 441L416 378Q529 313 529 222Q529 174 507 136T442 69Q455 41 455 7Q455 -55 423 -99T339 -167T222 -190ZM158 324Q158 296 177 273T231 229L334
172Q352 161 365 151T389 129Q404 147 411 165T418 201Q418 229 399 251T343 296L242 351Q224 362 210 373T185 396Q171 378 165 360T158 324Z" />
<glyph unicode="&#xa8;" glyph-name="dieresis" horiz-adv-x="500" d="M344 597L361 712H476L458 597H344ZM155 597L173 712H287L270 597H155Z" />
<glyph unicode="&#xa9;" glyph-name="copyright" horiz-adv-x="815" d="M425 -10Q348 -10 282 17T167 94T90 210T62 353Q62 430 89 496T166 611T282 687T425 715Q502 715 568 688T683 611T759 496T787 353Q787 276 760 210T683 95T568 18T425 -10ZM425 43Q513
43 582 84T691 195T731 353Q731 441 691 511T582 621T425 662Q337 662 268 622T158 511T118 353Q118 265 158 195T267 84T425 43ZM443 137Q343 137 285 196T226 354Q226 454 284 511T443 568Q483 568 522 556T587 520L556 445Q510 485 451 485Q396 485 364 451T332
354Q332 292 364 257T451 221Q479 221 506 231T556 261L587 186Q562 164 522 151T443 137Z" />
<glyph unicode="&#xaa;" glyph-name="ordfeminine" horiz-adv-x="339" d="M165 408Q122 408 93 435T63 500Q63 589 238 589H282L284 599Q289 627 274 640T226 654Q199 654 174 648T122 627L103 682Q126 699 162 707T236 715Q307 715 338 677T361 579L335 414H258L267
469H264Q229 408 165 408ZM191 463Q220 463 244 482T273 530L275 545H242Q191 545 168 536T144 505Q144 486 157 475T191 463Z" />
<glyph unicode="&#xab;" glyph-name="guillemotleft" horiz-adv-x="494" d="M127 75L56 236L65 297L193 458L275 418L166 261L214 110L127 75ZM334 75L263 236L272 297L400 458L482 418L373 261L421 110L334 75Z" />
<glyph unicode="&#xac;" glyph-name="logicalnot" horiz-adv-x="600" d="M436 140L469 344H72L86 432H573L527 140H436Z" />
<glyph unicode="&#xad;" glyph-name="uni00AD" horiz-adv-x="434" d="M64 218L80 317H378L362 218H64Z" />
<glyph unicode="&#xae;" glyph-name="registered" horiz-adv-x="815" d="M425 -10Q348 -10 282 17T167 94T90 210T62 353Q62 430 89 496T166 611T282 687T425 715Q502 715 568 688T683 611T759 496T787 353Q787 276 760 210T683 95T568 18T425 -10ZM425 43Q513
43 582 84T691 195T731 353Q731 441 691 511T582 621T425 662Q337 662 268 622T158 511T118 353Q118 265 158 195T267 84T425 43ZM270 142V565H453Q524 565 561 531T599 440Q599 395 577 367T513 327Q531 321 544 305T566 257L604 142H506L467 267Q460 289 445
296T410 304H366V142H270ZM365 376H440Q508 376 508 435Q508 493 440 493H365V376Z" />
<glyph unicode="&#xaf;" glyph-name="overscore" horiz-adv-x="500" d="M152 616L164 690H479L467 616H152Z" />
<glyph unicode="&#xb0;" glyph-name="degree" horiz-adv-x="379" d="M239 402Q194 402 159 422T103 477T82 556Q82 600 102 635T159 690T239 710Q284 710 319 690T375 635T396 556Q396 512 376 477T320 422T239 402ZM239 473Q274 473 296 496T319 556Q319 592
297 615T239 639Q205 639 183 616T160 556Q160 520 182 497T239 473Z" />
<glyph unicode="&#xb1;" glyph-name="plusminus" horiz-adv-x="600" d="M238 139L262 291H64L78 379H277L300 531H391L368 379H566L552 291H353L329 139H238ZM18 0L31 88H519L506 0H18Z" />
<glyph unicode="&#xb2;" glyph-name="uni00B2" horiz-adv-x="380" d="M54 282L66 356L219 491Q245 515 261 538T277 584Q278 604 264 615T223 626Q197 626 171 616T122 587L96 662Q164 709 250 709Q315 709 350 676T385 597Q384 552 358 517T282 440L196 366H366L353
282H54Z" />
<glyph unicode="&#xb3;" glyph-name="uni00B3" horiz-adv-x="380" d="M201 277Q155 277 112 290T42 329L79 398Q105 376 133 368T200 360Q230 360 249 372T269 413Q270 453 210 453H127L141 537H216Q248 537 268 549T289 587Q289 626 230 626Q201 626 173 618T119
589L94 662Q128 685 167 697T246 709Q311 709 348 681T387 606Q387 568 362 539T298 499Q330 488 348 463T367 406Q367 369 345 340T286 294T201 277Z" />
<glyph unicode="&#xb4;" glyph-name="acute" horiz-adv-x="500" d="M257 554L390 757H515L341 554H257Z" />
<glyph unicode="&#xb5;" glyph-name="uni00B5" horiz-adv-x="600" d="M7 -180L114 489H239L193 198Q175 89 263 89Q319 89 354 126T399 227L440 489H565L488 0H366L380 87Q361 41 328 16T252 -10Q183 -10 157 39L132 -180H7Z" />
<glyph unicode="&#xb6;" glyph-name="paragraph" horiz-adv-x="624" d="M181 -180L254 282Q198 282 157 306T94 372T72 466Q72 538 102 591T186 675T313 705H620L480 -180H389L515 616H398L272 -180H181Z" />
<glyph unicode="&#xb7;" glyph-name="middot" horiz-adv-x="248" d="M47 198L69 337H209L187 198H47Z" />
<glyph unicode="&#xb8;" glyph-name="cedilla" horiz-adv-x="500" d="M189 -195Q160 -195 134 -190T89 -174L112 -118Q129 -126 146 -130T185 -135Q242 -135 242 -103Q242 -82 207 -82Q198 -82 189 -83T165 -88L148 -70L176 20H242L224 -37Q229 -37 233 -37Q271
-37 293 -54T316 -103Q316 -145 280 -170T189 -195Z" />
<glyph unicode="&#xb9;" glyph-name="uni00B9" horiz-adv-x="380" d="M72 282L85 366H186L221 586L141 545L107 623L266 705H340L286 366H365L352 282H72Z" />
<glyph unicode="&#xba;" glyph-name="ordmasculine" horiz-adv-x="353" d="M221 410Q155 410 113 448T70 552Q70 603 92 639T150 695T232 715Q298 715 340 677T383 573Q383 523 362 486T303 430T221 410ZM222 472Q257 472 278 497T300 574Q300 612 281 632T231
653Q197 653 175 628T153 551Q153 513 172 493T222 472Z" />
<glyph unicode="&#xbb;" glyph-name="guillemotright" horiz-adv-x="494" d="M100 75L18 115L128 272L80 423L167 458L238 297L228 236L100 75ZM307 75L225 115L335 272L287 423L374 458L445 297L435 236L307 75Z" />
<glyph unicode="&#xbc;" glyph-name="onequarter" horiz-adv-x="911" d="M72 282L85 366H186L221 586L141 545L107 623L266 705H340L286 366H365L352 282H72ZM275 -28L202 20L728 733L801 686L275 -28ZM704 0L715 71H527L538 140L777 423H870L828 155H879L866
71H815L804 0H704ZM728 155L748 281L642 155H728Z" />
<glyph unicode="&#xbd;" glyph-name="onehalf" horiz-adv-x="959" d="M72 282L85 366H186L221 586L141 545L107 623L266 705H340L286 366H365L352 282H72ZM275 -28L202 20L728 733L801 686L275 -28ZM588 0L600 74L753 209Q779 233 795 256T811 302Q812 322 798
333T757 344Q731 344 705 334T656 305L630 380Q698 427 784 427Q849 427 884 394T919 315Q918 270 892 235T816 158L730 84H900L887 0H588Z" />
<glyph unicode="&#xbe;" glyph-name="threequarters" horiz-adv-x="911" d="M201 277Q155 277 112 290T42 329L79 398Q105 376 133 368T200 360Q230 360 249 372T269 413Q270 453 210 453H127L141 537H216Q248 537 268 549T289 587Q289 626 230 626Q201 626 173
618T119 589L94 662Q128 685 167 697T246 709Q311 709 348 681T387 606Q387 568 362 539T298 499Q330 488 348 463T367 406Q367 369 345 340T286 294T201 277ZM275 -28L202 20L728 733L801 686L275 -28ZM704 0L715 71H527L538 140L777 423H870L828 155H879L866
71H815L804 0H704ZM728 155L748 281L642 155H728Z" />
<glyph unicode="&#xbf;" glyph-name="questiondown" horiz-adv-x="459" d="M183 350L205 489H345L323 350H183ZM159 -190Q102 -190 60 -171T-6 -118T-29 -43Q-29 12 2 53T86 129Q140 164 162 192T195 254L204 280H280L274 244Q267 196 246 160T172 86Q138 60 119
37T99 -18Q99 -46 119 -64T179 -82Q226 -82 272 -68T361 -19L400 -114Q350 -154 287 -172T159 -190Z" />
<glyph unicode="&#xc0;" glyph-name="Agrave" horiz-adv-x="744" d="M-38 0L394 705H499L705 0H582L539 163H194L98 0H-38ZM430 566L253 265H511L432 566H430ZM411 765L266 939H394L500 765H411Z" />
<glyph unicode="&#xc1;" glyph-name="Aacute" horiz-adv-x="744" d="M-38 0L394 705H499L705 0H582L539 163H194L98 0H-38ZM430 566L253 265H511L432 566H430ZM411 765L541 939H674L500 765H411Z" />
<glyph unicode="&#xc2;" glyph-name="Acircumflex" horiz-adv-x="744" d="M-38 0L394 705H499L705 0H582L539 163H194L98 0H-38ZM430 566L253 265H511L432 566H430ZM271 765L412 939H519L627 765H539L460 869L358 765H271Z" />
<glyph unicode="&#xc3;" glyph-name="Atilde" horiz-adv-x="744" d="M-38 0L394 705H499L705 0H582L539 163H194L98 0H-38ZM430 566L253 265H511L432 566H430ZM292 772L230 776Q242 847 279 885T371 924Q400 924 426 913T475 888Q495 876 513 867T551 858Q607
858 625 928L687 924Q676 853 639 815T547 776Q517 776 492 788T443 813Q423 824 405 833T367 842Q310 842 292 772Z" />
<glyph unicode="&#xc4;" glyph-name="Adieresis" horiz-adv-x="744" d="M-38 0L394 705H499L705 0H582L539 163H194L98 0H-38ZM430 566L253 265H511L432 566H430ZM495 790L514 905H628L610 790H495ZM307 790L325 905H440L421 790H307Z" />
<glyph unicode="&#xc5;" glyph-name="Aring" horiz-adv-x="744" d="M-38 0L394 705H499L705 0H582L539 163H194L98 0H-38ZM430 566L253 265H511L432 566H430ZM468 755Q433 755 404 771T359 816T342 878Q342 930 378 965T468 1000Q521 1000 557 965T594 878Q594
844 578 816T533 772T468 755ZM468 812Q497 812 515 831T533 878Q533 906 515 924T468 943Q440 943 422 925T403 878Q403 850 421 831T468 812Z" />
<glyph unicode="&#xc6;" glyph-name="AE" horiz-adv-x="993" d="M-75 0L475 705H1014L998 603H599L611 409H946L930 307H616L628 102H919L903 0H522L513 163H188L66 0H-75ZM488 562L264 265H507L490 562H488Z" />
<glyph unicode="&#xc7;" glyph-name="Ccedilla" horiz-adv-x="679" d="M392 -10Q299 -10 227 25T113 132T71 310Q71 396 96 469T170 598T290 684T451 715Q524 715 586 692T685 631L633 529Q554 601 448 601Q371 601 317 564T235 461T207 314Q207 203 258 154T406
104Q453 104 498 120T590 172L627 71Q583 32 520 11T392 -10ZM349 -195Q320 -195 294 -190T249 -174L272 -118Q289 -126 306 -130T345 -135Q402 -135 402 -103Q402 -82 367 -82Q358 -82 349 -83T325 -88L308 -70L336 20H402L384 -37Q389 -37 393 -37Q431 -37 453
-54T476 -103Q476 -145 440 -170T349 -195Z" />
<glyph unicode="&#xc8;" glyph-name="Egrave" horiz-adv-x="597" d="M39 0L150 705H619L603 603H257L226 409H551L535 307H210L177 102H523L507 0H39ZM367 765L222 939H350L456 765H367Z" />
<glyph unicode="&#xc9;" glyph-name="Eacute" horiz-adv-x="597" d="M39 0L150 705H619L603 603H257L226 409H551L535 307H210L177 102H523L507 0H39ZM367 765L497 939H630L456 765H367Z" />
<glyph unicode="&#xca;" glyph-name="Ecircumflex" horiz-adv-x="597" d="M39 0L150 705H619L603 603H257L226 409H551L535 307H210L177 102H523L507 0H39ZM227 765L368 939H475L583 765H495L416 869L314 765H227Z" />
<glyph unicode="&#xcb;" glyph-name="Edieresis" horiz-adv-x="597" d="M39 0L150 705H619L603 603H257L226 409H551L535 307H210L177 102H523L507 0H39ZM451 790L470 905H584L566 790H451ZM263 790L281 905H396L377 790H263Z" />
<glyph unicode="&#xcc;" glyph-name="Igrave" horiz-adv-x="282" d="M38 0L150 705H278L166 0H38ZM180 765L35 939H163L269 765H180Z" />
<glyph unicode="&#xcd;" glyph-name="Iacute" horiz-adv-x="282" d="M38 0L150 705H278L166 0H38ZM180 765L310 939H443L269 765H180Z" />
<glyph unicode="&#xce;" glyph-name="Icircumflex" horiz-adv-x="282" d="M38 0L150 705H278L166 0H38ZM40 765L181 939H288L396 765H308L229 869L127 765H40Z" />
<glyph unicode="&#xcf;" glyph-name="Idieresis" horiz-adv-x="282" d="M38 0L150 705H278L166 0H38ZM264 790L283 905H397L379 790H264ZM76 790L94 905H209L190 790H76Z" />
<glyph unicode="&#xd0;" glyph-name="Eth" horiz-adv-x="762" d="M38 0L150 705H376Q544 705 635 626T727 404Q727 291 683 199T549 54T323 0H38ZM183 106H325Q419 106 478 145T565 251T593 402Q593 498 539 548T376 599H261L183 106ZM1 310L16 404H420L405 310H1Z" />
<glyph unicode="&#xd1;" glyph-name="Ntilde" horiz-adv-x="747" d="M38 0L150 705H246L544 199L624 705H743L631 0H536L237 506L157 0H38ZM292 772L230 776Q242 847 279 885T371 924Q400 924 426 913T475 888Q495 876 513 867T551 858Q607 858 625 928L687 924Q676
853 639 815T547 776Q517 776 492 788T443 813Q423 824 405 833T367 842Q310 842 292 772Z" />
<glyph unicode="&#xd2;" glyph-name="Ograve" horiz-adv-x="785" d="M381 -10Q287 -10 217 26T109 131T70 299Q70 420 114 513T242 661T439 715Q534 715 603 679T711 574T750 407Q750 286 706 192T579 44T381 -10ZM383 100Q458 100 510 139T589 248T616 405Q616
506 568 555T436 605Q362 605 310 566T231 459T204 301Q204 199 252 150T383 100ZM419 765L274 939H402L508 765H419Z" />
<glyph unicode="&#xd3;" glyph-name="Oacute" horiz-adv-x="785" d="M381 -10Q287 -10 217 26T109 131T70 299Q70 420 114 513T242 661T439 715Q534 715 603 679T711 574T750 407Q750 286 706 192T579 44T381 -10ZM383 100Q458 100 510 139T589 248T616 405Q616
506 568 555T436 605Q362 605 310 566T231 459T204 301Q204 199 252 150T383 100ZM419 765L549 939H682L508 765H419Z" />
<glyph unicode="&#xd4;" glyph-name="Ocircumflex" horiz-adv-x="785" d="M381 -10Q287 -10 217 26T109 131T70 299Q70 420 114 513T242 661T439 715Q534 715 603 679T711 574T750 407Q750 286 706 192T579 44T381 -10ZM383 100Q458 100 510 139T589 248T616 405Q616
506 568 555T436 605Q362 605 310 566T231 459T204 301Q204 199 252 150T383 100ZM279 765L420 939H527L635 765H547L468 869L366 765H279Z" />
<glyph unicode="&#xd5;" glyph-name="Otilde" horiz-adv-x="785" d="M381 -10Q287 -10 217 26T109 131T70 299Q70 420 114 513T242 661T439 715Q534 715 603 679T711 574T750 407Q750 286 706 192T579 44T381 -10ZM383 100Q458 100 510 139T589 248T616 405Q616
506 568 555T436 605Q362 605 310 566T231 459T204 301Q204 199 252 150T383 100ZM300 772L238 776Q250 847 287 885T379 924Q408 924 434 913T483 888Q503 876 521 867T559 858Q615 858 633 928L695 924Q684 853 647 815T555 776Q525 776 500 788T451 813Q431
824 413 833T375 842Q318 842 300 772Z" />
<glyph unicode="&#xd6;" glyph-name="Odieresis" horiz-adv-x="785" d="M381 -10Q287 -10 217 26T109 131T70 299Q70 420 114 513T242 661T439 715Q534 715 603 679T711 574T750 407Q750 286 706 192T579 44T381 -10ZM383 100Q458 100 510 139T589 248T616 405Q616
506 568 555T436 605Q362 605 310 566T231 459T204 301Q204 199 252 150T383 100ZM503 790L522 905H636L618 790H503ZM315 790L333 905H448L429 790H315Z" />
<glyph unicode="&#xd7;" glyph-name="multiply" horiz-adv-x="600" d="M118 51L57 113L245 287L89 457L153 520L310 348L497 520L557 457L369 285L525 113L462 51L305 223L118 51Z" />
<glyph unicode="&#xd8;" glyph-name="Oslash" horiz-adv-x="785" d="M381 -10Q287 -10 217 26T109 131T70 299Q70 420 114 513T242 661T439 715Q534 715 603 679T711 574T750 407Q750 286 706 192T579 44T381 -10ZM383 100Q458 100 510 139T589 248T616 405Q616
506 568 555T436 605Q362 605 310 566T231 459T204 301Q204 199 252 150T383 100ZM163 -53L91 -2L173 107L212 160L536 597L576 651L657 759L729 708L647 599L608 545L284 109L244 55L163 -53Z" />
<glyph unicode="&#xd9;" glyph-name="Ugrave" horiz-adv-x="737" d="M342 -10Q252 -10 187 25T94 130T82 307L145 705H273L209 298Q194 201 229 151T351 100Q433 100 480 142T542 277L610 705H737L670 279Q648 137 570 64T342 -10ZM407 765L262 939H390L496 765H407Z" />
<glyph unicode="&#xda;" glyph-name="Uacute" horiz-adv-x="737" d="M342 -10Q252 -10 187 25T94 130T82 307L145 705H273L209 298Q194 201 229 151T351 100Q433 100 480 142T542 277L610 705H737L670 279Q648 137 570 64T342 -10ZM407 765L537 939H670L496 765H407Z" />
<glyph unicode="&#xdb;" glyph-name="Ucircumflex" horiz-adv-x="737" d="M342 -10Q252 -10 187 25T94 130T82 307L145 705H273L209 298Q194 201 229 151T351 100Q433 100 480 142T542 277L610 705H737L670 279Q648 137 570 64T342 -10ZM267 765L408 939H515L623
765H535L456 869L354 765H267Z" />
<glyph unicode="&#xdc;" glyph-name="Udieresis" horiz-adv-x="737" d="M342 -10Q252 -10 187 25T94 130T82 307L145 705H273L209 298Q194 201 229 151T351 100Q433 100 480 142T542 277L610 705H737L670 279Q648 137 570 64T342 -10ZM491 790L510 905H624L606
790H491ZM303 790L321 905H436L417 790H303Z" />
<glyph unicode="&#xdd;" glyph-name="Yacute" horiz-adv-x="618" d="M206 0L258 323L47 705H187L332 437L563 705H716L386 325L334 0H206ZM337 765L467 939H600L426 765H337Z" />
<glyph unicode="&#xde;" glyph-name="Thorn" horiz-adv-x="654" d="M38 0L150 705H278L259 587H407Q524 587 585 537T646 392Q646 277 575 212T369 146H189L166 0H38ZM205 247H375Q447 247 484 281T522 381Q522 436 490 461T392 486H243L205 247Z" />
<glyph unicode="&#xdf;" glyph-name="germandbls" horiz-adv-x="653" d="M411 -10Q351 -10 298 8T212 54L255 135Q327 83 412 83Q454 83 477 98T500 143Q500 163 482 180T414 214Q350 236 323 265T296 337Q296 380 317 411T388 482Q414 503 429 522T444 569Q444
591 428 607T377 624Q250 624 228 481L152 0H27L100 463Q119 583 184 649T381 715Q437 715 477 697T540 649T562 583Q562 538 541 507T480 443Q443 412 427 395T411 356Q411 336 430 321T494 291Q552 270 583 239T614 153Q614 74 557 32T411 -10Z" />
<glyph unicode="&#xe0;" glyph-name="agrave" horiz-adv-x="547" d="M193 -10Q148 -10 111 10T52 65T29 141Q29 218 95 254T304 290H373L376 308Q384 355 362 380T283 405Q194 405 115 355L87 441Q125 467 183 483T299 499Q378 499 423 470T484 391T490 277L446
0H329L340 72Q315 30 276 10T193 -10ZM232 76Q279 76 314 106T357 189L362 218H310Q222 218 187 204T151 149Q151 114 174 95T232 76ZM278 554L137 757H258L362 554H278Z" />
<glyph unicode="&#xe1;" glyph-name="aacute" horiz-adv-x="547" d="M193 -10Q148 -10 111 10T52 65T29 141Q29 218 95 254T304 290H373L376 308Q384 355 362 380T283 405Q194 405 115 355L87 441Q125 467 183 483T299 499Q378 499 423 470T484 391T490 277L446
0H329L340 72Q315 30 276 10T193 -10ZM232 76Q279 76 314 106T357 189L362 218H310Q222 218 187 204T151 149Q151 114 174 95T232 76ZM279 554L412 757H537L363 554H279Z" />
<glyph unicode="&#xe2;" glyph-name="acircumflex" horiz-adv-x="547" d="M193 -10Q148 -10 111 10T52 65T29 141Q29 218 95 254T304 290H373L376 308Q384 355 362 380T283 405Q194 405 115 355L87 441Q125 467 183 483T299 499Q378 499 423 470T484 391T490 277L446
0H329L340 72Q315 30 276 10T193 -10ZM232 76Q279 76 314 106T357 189L362 218H310Q222 218 187 204T151 149Q151 114 174 95T232 76ZM152 554L283 757H392L482 554H403L332 686L232 554H152Z" />
<glyph unicode="&#xe3;" glyph-name="atilde" horiz-adv-x="547" d="M193 -10Q148 -10 111 10T52 65T29 141Q29 218 95 254T304 290H373L376 308Q384 355 362 380T283 405Q194 405 115 355L87 441Q125 467 183 483T299 499Q378 499 423 470T484 391T490 277L446
0H329L340 72Q315 30 276 10T193 -10ZM232 76Q279 76 314 106T357 189L362 218H310Q222 218 187 204T151 149Q151 114 174 95T232 76ZM194 584L132 588Q142 659 176 697T261 736Q290 736 309 723T346 695Q359 685 372 678T401 670Q451 670 468 740L530 736Q520
665 486 627T402 588Q374 588 354 601T316 628Q303 639 290 646T261 654Q211 654 194 584Z" />
<glyph unicode="&#xe4;" glyph-name="adieresis" horiz-adv-x="547" d="M193 -10Q148 -10 111 10T52 65T29 141Q29 218 95 254T304 290H373L376 308Q384 355 362 380T283 405Q194 405 115 355L87 441Q125 467 183 483T299 499Q378 499 423 470T484 391T490 277L446
0H329L340 72Q315 30 276 10T193 -10ZM232 76Q279 76 314 106T357 189L362 218H310Q222 218 187 204T151 149Q151 114 174 95T232 76ZM366 597L383 712H498L480 597H366ZM177 597L195 712H309L292 597H177Z" />
<glyph unicode="&#xe5;" glyph-name="aring" horiz-adv-x="547" d="M193 -10Q148 -10 111 10T52 65T29 141Q29 218 95 254T304 290H373L376 308Q384 355 362 380T283 405Q194 405 115 355L87 441Q125 467 183 483T299 499Q378 499 423 470T484 391T490 277L446
0H329L340 72Q315 30 276 10T193 -10ZM232 76Q279 76 314 106T357 189L362 218H310Q222 218 187 204T151 149Q151 114 174 95T232 76ZM340 546Q287 546 251 581T214 668Q214 703 230 730T276 774T340 791Q376 791 404 775T449 731T466 668Q466 616 430 581T340
546ZM340 603Q368 603 386 621T405 668Q405 697 387 715T340 733Q312 733 294 715T275 668Q275 640 293 622T340 603Z" />
<glyph unicode="&#xe6;" glyph-name="ae" horiz-adv-x="865" d="M215 -10Q167 -10 125 7T56 58T29 141Q29 218 95 254T304 290H373L375 303Q383 353 361 378T283 403Q192 403 116 353L87 441Q125 467 182 483T299 499Q415 499 455 423Q488 459 533 479T632 499Q711
499 758 464T823 372T832 246L828 218H480Q477 156 512 121T615 85Q707 85 769 135L800 53Q765 23 713 7T603 -10Q530 -10 479 18T402 96Q375 42 325 16T215 -10ZM630 414Q569 414 536 377T491 290H734Q737 342 713 378T630 414ZM232 78Q279 78 313 105T356 185L361
218H311Q223 218 187 203T151 148Q151 115 174 97T232 78Z" />
<glyph unicode="&#xe7;" glyph-name="ccedilla" horiz-adv-x="472" d="M270 -10Q153 -10 95 51T37 213Q37 267 53 318T104 410T190 475T314 499Q363 499 408 485T481 445L442 358Q395 402 322 402Q265 402 231 374T181 303T165 214Q165 157 193 122T288 87Q316
87 347 98T405 131L434 42Q406 17 360 4T270 -10ZM223 -195Q194 -195 168 -190T123 -174L146 -118Q163 -126 180 -130T219 -135Q276 -135 276 -103Q276 -82 241 -82Q232 -82 223 -83T199 -88L182 -70L210 20H276L258 -37Q263 -37 267 -37Q305 -37 327 -54T350 -103Q350
-145 314 -170T223 -195Z" />
<glyph unicode="&#xe8;" glyph-name="egrave" horiz-adv-x="543" d="M280 -10Q206 -10 152 17T67 95T37 212Q37 294 71 358T167 461T307 499Q387 499 434 464T498 370T508 242L505 216H154Q152 155 188 120T291 85Q335 85 374 97T445 135L476 53Q441 23 389 7T280
-10ZM306 414Q264 414 235 397T189 350T164 288H412Q416 342 391 378T306 414ZM288 554L147 757H268L372 554H288Z" />
<glyph unicode="&#xe9;" glyph-name="eacute" horiz-adv-x="543" d="M280 -10Q206 -10 152 17T67 95T37 212Q37 294 71 358T167 461T307 499Q387 499 434 464T498 370T508 242L505 216H154Q152 155 188 120T291 85Q335 85 374 97T445 135L476 53Q441 23 389 7T280
-10ZM306 414Q264 414 235 397T189 350T164 288H412Q416 342 391 378T306 414ZM289 554L422 757H547L373 554H289Z" />
<glyph unicode="&#xea;" glyph-name="ecircumflex" horiz-adv-x="543" d="M280 -10Q206 -10 152 17T67 95T37 212Q37 294 71 358T167 461T307 499Q387 499 434 464T498 370T508 242L505 216H154Q152 155 188 120T291 85Q335 85 374 97T445 135L476 53Q441 23 389
7T280 -10ZM306 414Q264 414 235 397T189 350T164 288H412Q416 342 391 378T306 414ZM162 554L293 757H402L492 554H413L342 686L242 554H162Z" />
<glyph unicode="&#xeb;" glyph-name="edieresis" horiz-adv-x="543" d="M280 -10Q206 -10 152 17T67 95T37 212Q37 294 71 358T167 461T307 499Q387 499 434 464T498 370T508 242L505 216H154Q152 155 188 120T291 85Q335 85 374 97T445 135L476 53Q441 23 389
7T280 -10ZM306 414Q264 414 235 397T189 350T164 288H412Q416 342 391 378T306 414ZM376 597L393 712H508L490 597H376ZM187 597L205 712H319L302 597H187Z" />
<glyph unicode="&#xec;" glyph-name="igrave" horiz-adv-x="255" d="M26 0L104 489H229L151 0H26ZM134 554L-7 757H114L218 554H134Z" />
<glyph unicode="&#xed;" glyph-name="iacute" horiz-adv-x="255" d="M26 0L104 489H229L151 0H26ZM135 554L268 757H393L219 554H135Z" />
<glyph unicode="&#xee;" glyph-name="icircumflex" horiz-adv-x="255" d="M26 0L104 489H229L151 0H26ZM8 554L139 757H248L338 554H259L188 686L88 554H8Z" />
<glyph unicode="&#xef;" glyph-name="idieresis" horiz-adv-x="255" d="M26 0L104 489H229L151 0H26ZM222 597L239 712H354L336 597H222ZM33 597L51 712H165L148 597H33Z" />
<glyph unicode="&#xf0;" glyph-name="eth" horiz-adv-x="580" d="M262 -10Q197 -10 145 15T64 87T34 193Q34 269 67 327T157 417T286 450Q334 450 373 434T436 383Q428 440 401 487T333 568L177 500L150 557L268 608Q227 629 180 637L208 715Q303 696 371 654L509
715L536 658L430 611Q493 553 521 477T550 317Q550 227 518 153T423 35T262 -10ZM273 87Q332 87 372 129T412 247Q412 298 382 327T299 356Q240 356 200 314T160 196Q160 145 190 116T273 87Z" />
<glyph unicode="&#xf1;" glyph-name="ntilde" horiz-adv-x="585" d="M26 0L104 489H226L213 411Q268 499 383 499Q463 499 505 450T530 293L484 0H359L405 291Q423 401 333 401Q274 401 239 364T193 263L151 0H26ZM212 584L150 588Q160 659 194 697T279 736Q308
736 327 723T364 695Q377 685 390 678T419 670Q469 670 486 740L548 736Q538 665 504 627T420 588Q392 588 372 601T334 628Q321 639 308 646T279 654Q229 654 212 584Z" />
<glyph unicode="&#xf2;" glyph-name="ograve" horiz-adv-x="576" d="M267 -10Q159 -10 98 50T37 211Q37 299 73 363T172 463T309 499Q417 499 478 439T539 278Q539 190 503 126T405 26T267 -10ZM270 85Q316 85 347 111T396 182T413 282Q413 341 385 372T306 404Q261
404 229 378T180 308T163 207Q163 148 191 117T270 85ZM296 554L155 757H276L380 554H296Z" />
<glyph unicode="&#xf3;" glyph-name="oacute" horiz-adv-x="576" d="M267 -10Q159 -10 98 50T37 211Q37 299 73 363T172 463T309 499Q417 499 478 439T539 278Q539 190 503 126T405 26T267 -10ZM270 85Q316 85 347 111T396 182T413 282Q413 341 385 372T306 404Q261
404 229 378T180 308T163 207Q163 148 191 117T270 85ZM297 554L430 757H555L381 554H297Z" />
<glyph unicode="&#xf4;" glyph-name="ocircumflex" horiz-adv-x="576" d="M267 -10Q159 -10 98 50T37 211Q37 299 73 363T172 463T309 499Q417 499 478 439T539 278Q539 190 503 126T405 26T267 -10ZM270 85Q316 85 347 111T396 182T413 282Q413 341 385 372T306
404Q261 404 229 378T180 308T163 207Q163 148 191 117T270 85ZM170 554L301 757H410L500 554H421L350 686L250 554H170Z" />
<glyph unicode="&#xf5;" glyph-name="otilde" horiz-adv-x="576" d="M267 -10Q159 -10 98 50T37 211Q37 299 73 363T172 463T309 499Q417 499 478 439T539 278Q539 190 503 126T405 26T267 -10ZM270 85Q316 85 347 111T396 182T413 282Q413 341 385 372T306 404Q261
404 229 378T180 308T163 207Q163 148 191 117T270 85ZM212 584L150 588Q160 659 194 697T279 736Q308 736 327 723T364 695Q377 685 390 678T419 670Q469 670 486 740L548 736Q538 665 504 627T420 588Q392 588 372 601T334 628Q321 639 308 646T279 654Q229 654
212 584Z" />
<glyph unicode="&#xf6;" glyph-name="odieresis" horiz-adv-x="576" d="M267 -10Q159 -10 98 50T37 211Q37 299 73 363T172 463T309 499Q417 499 478 439T539 278Q539 190 503 126T405 26T267 -10ZM270 85Q316 85 347 111T396 182T413 282Q413 341 385 372T306
404Q261 404 229 378T180 308T163 207Q163 148 191 117T270 85ZM384 597L401 712H516L498 597H384ZM195 597L213 712H327L310 597H195Z" />
<glyph unicode="&#xf7;" glyph-name="divide" horiz-adv-x="600" d="M272 432L288 536H392L376 432H272ZM56 243L70 331H558L544 243H56ZM209 38L226 142H330L313 38H209Z" />
<glyph unicode="&#xf8;" glyph-name="oslash" horiz-adv-x="576" d="M115 -50L59 -10L101 47Q37 107 37 212Q37 300 73 364T171 464T309 499Q371 499 419 478L463 537L519 498L477 440Q539 381 539 278Q539 190 503 126T405 26T267 -10Q206 -10 159 10L115 -50ZM151
206Q151 163 166 134L362 400Q337 411 303 411Q232 411 192 354T151 206ZM272 78Q320 78 354 104T406 177T424 284Q424 324 411 352L216 88Q240 78 272 78Z" />
<glyph unicode="&#xf9;" glyph-name="ugrave" horiz-adv-x="579" d="M200 -10Q121 -10 80 40T55 197L101 489H226L180 198Q162 89 250 89Q306 89 341 126T386 227L427 489H552L475 0H353L365 77Q338 35 296 13T200 -10ZM292 555L151 758H272L376 555H292Z" />
<glyph unicode="&#xfa;" glyph-name="uacute" horiz-adv-x="579" d="M200 -10Q121 -10 80 40T55 197L101 489H226L180 198Q162 89 250 89Q306 89 341 126T386 227L427 489H552L475 0H353L365 77Q338 35 296 13T200 -10ZM293 555L426 758H551L377 555H293Z" />
<glyph unicode="&#xfb;" glyph-name="ucircumflex" horiz-adv-x="579" d="M200 -10Q121 -10 80 40T55 197L101 489H226L180 198Q162 89 250 89Q306 89 341 126T386 227L427 489H552L475 0H353L365 77Q338 35 296 13T200 -10ZM166 555L297 758H406L496 555H417L346
687L246 555H166Z" />
<glyph unicode="&#xfc;" glyph-name="udieresis" horiz-adv-x="579" d="M200 -10Q121 -10 80 40T55 197L101 489H226L180 198Q162 89 250 89Q306 89 341 126T386 227L427 489H552L475 0H353L365 77Q338 35 296 13T200 -10ZM380 598L397 713H512L494 598H380ZM191
598L209 713H323L306 598H191Z" />
<glyph unicode="&#xfd;" glyph-name="yacute" horiz-adv-x="526" d="M42 -180L164 20L35 489H161L244 147L439 489H570L170 -180H42ZM257 554L390 757H515L341 554H257Z" />
<glyph unicode="&#xfe;" glyph-name="thorn" horiz-adv-x="600" d="M-2 -180L138 705H263L218 419Q246 457 287 478T379 499Q463 499 513 443T564 288Q564 205 535 138T450 30T318 -10Q266 -10 225 12T164 80L123 -180H-2ZM295 85Q341 85 372 111T421 182T438
282Q438 341 410 372T331 404Q286 404 254 378T205 308T188 207Q188 148 216 117T295 85Z" />
<glyph unicode="&#xff;" glyph-name="ydieresis" horiz-adv-x="526" d="M42 -180L164 20L35 489H161L244 147L439 489H570L170 -180H42ZM344 597L361 712H476L458 597H344ZM155 597L173 712H287L270 597H155Z" />
<glyph unicode="&#x2013;" glyph-name="endash" horiz-adv-x="500" d="M-3 230L10 305H510L498 230H-3Z" />
<glyph unicode="&#x2014;" glyph-name="emdash" horiz-adv-x="1000" d="M-3 230L10 305H1010L998 230H-3Z" />
<glyph unicode="&#x2018;" glyph-name="quoteleft" horiz-adv-x="248" d="M85 441L101 544Q109 595 129 633T201 712L246 665Q219 641 205 622T183 580H247L225 441H85Z" />
<glyph unicode="&#x2019;" glyph-name="quoteright" horiz-adv-x="248" d="M151 434L106 482Q133 506 147 525T170 567H105L127 705H267L251 603Q243 552 223 514T151 434Z" />
<glyph unicode="&#x201a;" glyph-name="quotesinglbase" horiz-adv-x="248" d="M60 -133L16 -85Q42 -61 56 -42T79 0H15L37 139H177L160 36Q152 -15 132 -53T60 -133Z" />
<glyph unicode="&#x201c;" glyph-name="quotedblleft" horiz-adv-x="443" d="M85 441L101 544Q109 595 129 633T201 712L246 665Q219 641 205 622T183 580H247L225 441H85ZM280 441L296 544Q304 595 324 633T396 712L441 665Q414 641 400 622T378 580H442L420 441H280Z" />
<glyph unicode="&#x201d;" glyph-name="quotedblright" horiz-adv-x="443" d="M151 434L106 482Q133 506 147 525T170 567H105L127 705H267L251 603Q243 552 223 514T151 434ZM346 434L301 482Q328 506 342 525T365 567H300L322 705H462L446 603Q438 552 418 514T346
434Z" />
<glyph unicode="&#x201e;" glyph-name="quotedblbase" horiz-adv-x="443" d="M60 -133L16 -85Q42 -61 56 -42T79 0H15L37 139H177L160 36Q152 -15 132 -53T60 -133ZM255 -133L211 -85Q237 -61 251 -42T274 0H210L232 139H372L355 36Q347 -15 327 -53T255 -133Z" />
<glyph unicode="&#x2022;" glyph-name="bullet" horiz-adv-x="524" d="M265 88Q216 88 175 111T109 175T84 265Q84 311 107 351T172 417T265 443Q313 443 354 420T421 357T446 265Q446 216 422 176T356 112T265 88Z" />
<glyph unicode="&#x2039;" glyph-name="guilsinglleft" horiz-adv-x="287" d="M127 75L56 236L65 297L193 458L275 418L166 261L214 110L127 75Z" />
<glyph unicode="&#x203a;" glyph-name="guilsinglright" horiz-adv-x="287" d="M100 75L18 115L128 272L80 423L167 458L238 297L228 236L100 75Z" />
</font>
</defs>
</svg>
